  0
SECTION
  2
HEADER
  9
$ACADVER
  1
AC1015
  9
$ACADMAINTVER
 70
    13
  9
$DWGCODEPAGE
  3
ANSI_1252
  9
$INSBASE
 10
0.0
 20
0.0
 30
0.0
  9
$EXTMIN
 10
1906.673088928164
 20
822.3684678541991
 30
-0.0000000000000058
  9
$EXTMAX
 10
2527.708739698424
 20
1140.573607501452
 30
0.0000000000000104
  9
$LIMMIN
 10
-702.5638614136987
 20
157.8715568061255
  9
$LIMMAX
 10
-313.6316672333485
 20
442.5869997172253
  9
$ORTHOMODE
 70
     1
  9
$REGENMODE
 70
     1
  9
$FILLMODE
 70
     1
  9
$QTEXTMODE
 70
     0
  9
$MIRRTEXT
 70
     1
  9
$LTSCALE
 40
30.0
  9
$ATTMODE
 70
     1
  9
$TEXTSIZE
 40
4.009999999999999
  9
$TRACEWID
 40
0.05
  9
$TEXTSTYLE
  7
ROMANC
  9
$CLAYER
  8
1
  9
$CELTYPE
  6
BYLAYER
  9
$CECOLOR
 62
   256
  9
$CELTSCALE
 40
1.0
  9
$DISPSILH
 70
     0
  9
$DIMSCALE
 40
30.0
  9
$DIMASZ
 40
0.23
  9
$DIMEXO
 40
0.12
  9
$DIMDLI
 40
0.38
  9
$DIMRND
 40
0.0
  9
$DIMDLE
 40
0.0
  9
$DIMEXE
 40
0.18
  9
$DIMTP
 40
0.0
  9
$DIMTM
 40
0.0
  9
$DIMTXT
 40
0.23
  9
$DIMCEN
 40
0.0
  9
$DIMTSZ
 40
0.0
  9
$DIMTOL
 70
     0
  9
$DIMLIM
 70
     0
  9
$DIMTIH
 70
     1
  9
$DIMTOH
 70
     1
  9
$DIMSE1
 70
     0
  9
$DIMSE2
 70
     0
  9
$DIMTAD
 70
     1
  9
$DIMZIN
 70
     0
  9
$DIMBLK
  1

  9
$DIMASO
 70
     1
  9
$DIMSHO
 70
     0
  9
$DIMPOST
  1

  9
$DIMAPOST
  1
mm
  9
$DIMALT
 70
     0
  9
$DIMALTD
 70
     0
  9
$DIMALTF
 40
25.4
  9
$DIMLFAC
 40
1.0
  9
$DIMTOFL
 70
     0
  9
$DIMTVP
 40
0.0
  9
$DIMTIX
 70
     0
  9
$DIMSOXD
 70
     0
  9
$DIMSAH
 70
     0
  9
$DIMBLK1
  1

  9
$DIMBLK2
  1

  9
$DIMSTYLE
  2
STANDARD
  9
$DIMCLRD
 70
     0
  9
$DIMCLRE
 70
     0
  9
$DIMCLRT
 70
     0
  9
$DIMTFAC
 40
1.0
  9
$DIMGAP
 40
0.09
  9
$DIMJUST
 70
     0
  9
$DIMSD1
 70
     0
  9
$DIMSD2
 70
     0
  9
$DIMTOLJ
 70
     1
  9
$DIMTZIN
 70
     0
  9
$DIMALTZ
 70
     0
  9
$DIMALTTZ
 70
     0
  9
$DIMUPT
 70
     0
  9
$DIMDEC
 70
     0
  9
$DIMTDEC
 70
     0
  9
$DIMALTU
 70
     2
  9
$DIMALTTD
 70
     0
  9
$DIMTXSTY
  7
STANDARD
  9
$DIMAUNIT
 70
     0
  9
$DIMADEC
 70
     0
  9
$DIMALTRND
 40
0.0
  9
$DIMAZIN
 70
     0
  9
$DIMDSEP
 70
    46
  9
$DIMATFIT
 70
     3
  9
$DIMFRAC
 70
     0
  9
$DIMLDRBLK
  1

  9
$DIMLUNIT
 70
     2
  9
$DIMLWD
 70
    -2
  9
$DIMLWE
 70
    -2
  9
$DIMTMOVE
 70
     0
  9
$LUNITS
 70
     2
  9
$LUPREC
 70
     2
  9
$SKETCHINC
 40
0.0
  9
$FILLETRAD
 40
1.0
  9
$AUNITS
 70
     0
  9
$AUPREC
 70
     2
  9
$MENU
  1
acad
  9
$ELEVATION
 40
0.0
  9
$PELEVATION
 40
0.0
  9
$THICKNESS
 40
0.0
  9
$LIMCHECK
 70
     0
  9
$CHAMFERA
 40
0.0
  9
$CHAMFERB
 40
0.0
  9
$CHAMFERC
 40
0.0
  9
$CHAMFERD
 40
0.0
  9
$SKPOLY
 70
     0
  9
$TDCREATE
 40
2450224.417987847
  9
$TDUCREATE
 40
2450224.376321180
  9
$TDUPDATE
 40
2452409.373271412
  9
$TDUUPDATE
 40
2452409.331604745
  9
$TDINDWG
 40
0.6761369213
  9
$TDUSRTIMER
 40
0.6761369213
  9
$USRTIMER
 70
     1
  9
$ANGBASE
 50
0.0
  9
$ANGDIR
 70
     0
  9
$PDMODE
 70
    34
  9
$PDSIZE
 40
0.0
  9
$PLINEWID
 40
0.0
  9
$SPLFRAME
 70
     0
  9
$SPLINETYPE
 70
     6
  9
$SPLINESEGS
 70
     8
  9
$HANDSEED
  5
4E60
  9
$SURFTAB1
 70
     6
  9
$SURFTAB2
 70
     6
  9
$SURFTYPE
 70
     6
  9
$SURFU
 70
     6
  9
$SURFV
 70
     6
  9
$UCSBASE
  2

  9
$UCSNAME
  2

  9
$UCSORG
 10
-881.3725378634428
 20
-169.8351068294423
 30
0.0
  9
$UCSXDIR
 10
1.0
 20
0.0
 30
0.0
  9
$UCSYDIR
 10
0.0
 20
1.0
 30
0.0
  9
$UCSORTHOREF
  2

  9
$UCSORTHOVIEW
 70
     0
  9
$UCSORGTOP
 10
0.0
 20
0.0
 30
0.0
  9
$UCSORGBOTTOM
 10
0.0
 20
0.0
 30
0.0
  9
$UCSORGLEFT
 10
0.0
 20
0.0
 30
0.0
  9
$UCSORGRIGHT
 10
0.0
 20
0.0
 30
0.0
  9
$UCSORGFRONT
 10
0.0
 20
0.0
 30
0.0
  9
$UCSORGBACK
 10
0.0
 20
0.0
 30
0.0
  9
$PUCSBASE
  2

  9
$PUCSNAME
  2

  9
$PUCSORG
 10
0.0
 20
0.0
 30
0.0
  9
$PUCSXDIR
 10
1.0
 20
0.0
 30
0.0
  9
$PUCSYDIR
 10
0.0
 20
1.0
 30
0.0
  9
$PUCSORTHOREF
  2

  9
$PUCSORTHOVIEW
 70
     0
  9
$PUCSORGTOP
 10
0.0
 20
0.0
 30
0.0
  9
$PUCSORGBOTTOM
 10
0.0
 20
0.0
 30
0.0
  9
$PUCSORGLEFT
 10
0.0
 20
0.0
 30
0.0
  9
$PUCSORGRIGHT
 10
0.0
 20
0.0
 30
0.0
  9
$PUCSORGFRONT
 10
0.0
 20
0.0
 30
0.0
  9
$PUCSORGBACK
 10
0.0
 20
0.0
 30
0.0
  9
$USERI1
 70
     0
  9
$USERI2
 70
     0
  9
$USERI3
 70
     0
  9
$USERI4
 70
     0
  9
$USERI5
 70
     0
  9
$USERR1
 40
0.0
  9
$USERR2
 40
0.0
  9
$USERR3
 40
0.0
  9
$USERR4
 40
0.0
  9
$USERR5
 40
0.0
  9
$WORLDVIEW
 70
     1
  9
$SHADEDGE
 70
     3
  9
$SHADEDIF
 70
    70
  9
$TILEMODE
 70
     1
  9
$MAXACTVP
 70
    16
  9
$PINSBASE
 10
0.0
 20
0.0
 30
0.0
  9
$PLIMCHECK
 70
     0
  9
$PEXTMIN
 10
1.000000000000000E+20
 20
1.000000000000000E+20
 30
1.000000000000000E+20
  9
$PEXTMAX
 10
-1.000000000000000E+20
 20
-1.000000000000000E+20
 30
-1.000000000000000E+20
  9
$PLIMMIN
 10
-0.1666668268639272
 20
-0.166666657905879
  9
$PLIMMAX
 10
11.52333297128752
 20
8.099999784484623
  9
$UNITMODE
 70
     0
  9
$VISRETAIN
 70
     0
  9
$PLINEGEN
 70
     0
  9
$PSLTSCALE
 70
     1
  9
$TREEDEPTH
 70
  3020
  9
$CMLSTYLE
  2
STANDARD
  9
$CMLJUST
 70
     0
  9
$CMLSCALE
 40
1.0
  9
$PROXYGRAPHICS
 70
     1
  9
$MEASUREMENT
 70
     0
  9
$CELWEIGHT
370
    -1
  9
$ENDCAPS
280
     0
  9
$JOINSTYLE
280
     0
  9
$LWDISPLAY
290
     0
  9
$INSUNITS
 70
     0
  9
$HYPERLINKBASE
  1

  9
$STYLESHEET
  1

  9
$XEDIT
290
     1
  9
$CEPSNTYPE
380
     0
  9
$PSTYLEMODE
290
     1
  9
$FINGERPRINTGUID
  2
{6C551284-AFF8-11D5-9ED5-00025574647A}
  9
$VERSIONGUID
  2
{CDB7ECAE-6717-11D6-8FCF-0050DA4C4468}
  9
$EXTNAMES
290
     1
  9
$PSVPSCALE
 40
0.0
  9
$OLESTARTUP
290
     0
  0
ENDSEC
  0
SECTION
  2
CLASSES
  0
CLASS
  1
LWPOLYLINE
  2
AcDbPolyline
  3
AutoCAD 2000
 90
    32768
280
     0
281
     1
  0
CLASS
  1
DICTIONARYVAR
  2
AcDbDictionaryVar
  3
AutoCAD 2000
 90
        0
280
     0
281
     0
  0
CLASS
  1
HATCH
  2
AcDbHatch
  3
AutoCAD 2000
 90
    32768
280
     0
281
     1
  0
CLASS
  1
ACDBDICTIONARYWDFLT
  2
AcDbDictionaryWithDefault
  3
AutoCAD 2000
 90
        0
280
     0
281
     0
  0
CLASS
  1
ACDBPLACEHOLDER
  2
AcDbPlaceHolder
  3
AutoCAD 2000
 90
        0
280
     0
281
     0
  0
CLASS
  1
LAYOUT
  2
AcDbLayout
  3
AutoCAD 2000
 90
        0
280
     0
281
     0
  0
CLASS
  1
LONG_TRANSACTION
  2
AcDbLongTransaction
  3
AutoCAD 2000
 90
    32768
280
     0
281
     0
  0
CLASS
  1
LWPOLYLINE
  2
AcDbPolyline
  3
AutoCAD 2000
 90
    32768
280
     0
281
     1
  0
CLASS
  1
HATCH
  2
AcDbHatch
  3
AutoCAD 2000
 90
    32768
280
     0
281
     1
  0
CLASS
  1
XRECORD
  2
AcDbXrecord
  3
AutoCAD 2000
 90
    32768
280
     0
281
     0
  0
CLASS
  1
LONG_TRANSACTION
  2
AcDbLongTransaction
  3
AutoCAD 2000
 90
    32768
280
     0
281
     0
  0
CLASS
  1
LWPOLYLINE
  2
AcDbPolyline
  3
AutoCAD 2000
 90
    32768
280
     0
281
     1
  0
CLASS
  1
HATCH
  2
AcDbHatch
  3
AutoCAD 2000
 90
    32768
280
     0
281
     1
  0
CLASS
  1
XRECORD
  2
AcDbXrecord
  3
AutoCAD 2000
 90
    32768
280
     0
281
     0
  0
CLASS
  1
LONG_TRANSACTION
  2
AcDbLongTransaction
  3
AutoCAD 2000
 90
    32768
280
     0
281
     0
  0
CLASS
  1
LWPOLYLINE
  2
AcDbPolyline
  3
AutoCAD 2000
 90
    32768
280
     0
281
     1
  0
CLASS
  1
HATCH
  2
AcDbHatch
  3
AutoCAD 2000
 90
    32768
280
     0
281
     1
  0
CLASS
  1
XRECORD
  2
AcDbXrecord
  3
AutoCAD 2000
 90
    32768
280
     0
281
     0
  0
CLASS
  1
LONG_TRANSACTION
  2
AcDbLongTransaction
  3
AutoCAD 2000
 90
    32768
280
     0
281
     0
  0
CLASS
  1
LWPOLYLINE
  2
AcDbPolyline
  3
AutoCAD 2000
 90
    32768
280
     0
281
     1
  0
CLASS
  1
HATCH
  2
AcDbHatch
  3
AutoCAD 2000
 90
    32768
280
     0
281
     1
  0
CLASS
  1
XRECORD
  2
AcDbXrecord
  3
AutoCAD 2000
 90
    32768
280
     0
281
     0
  0
CLASS
  1
LONG_TRANSACTION
  2
AcDbLongTransaction
  3
AutoCAD 2000
 90
    32768
280
     0
281
     0
  0
CLASS
  1
LWPOLYLINE
  2
AcDbPolyline
  3
AutoCAD 2000
 90
    32768
280
     0
281
     1
  0
CLASS
  1
HATCH
  2
AcDbHatch
  3
AutoCAD 2000
 90
    32768
280
     0
281
     1
  0
CLASS
  1
XRECORD
  2
AcDbXrecord
  3
AutoCAD 2000
 90
    32768
280
     0
281
     0
  0
CLASS
  1
LONG_TRANSACTION
  2
AcDbLongTransaction
  3
AutoCAD 2000
 90
    32768
280
     0
281
     0
  0
CLASS
  1
LWPOLYLINE
  2
AcDbPolyline
  3
AutoCAD 2000
 90
    32768
280
     0
281
     1
  0
CLASS
  1
HATCH
  2
AcDbHatch
  3
AutoCAD 2000
 90
    32768
280
     0
281
     1
  0
CLASS
  1
XRECORD
  2
AcDbXrecord
  3
AutoCAD 2000
 90
    32768
280
     0
281
     0
  0
CLASS
  1
LONG_TRANSACTION
  2
AcDbLongTransaction
  3
AutoCAD 2000
 90
    32768
280
     0
281
     0
  0
CLASS
  1
LWPOLYLINE
  2
AcDbPolyline
  3
AutoCAD 2000
 90
    32768
280
     0
281
     1
  0
CLASS
  1
HATCH
  2
AcDbHatch
  3
AutoCAD 2000
 90
    32768
280
     0
281
     1
  0
CLASS
  1
XRECORD
  2
AcDbXrecord
  3
AutoCAD 2000
 90
    32768
280
     0
281
     0
  0
ENDSEC
  0
SECTION
  2
TABLES
  0
TABLE
  2
VPORT
  5
8
330
0
100
AcDbSymbolTable
 70
     3
  0
VPORT
  5
4E5F
330
8
100
AcDbSymbolTableRecord
100
AcDbViewportTableRecord
  2
*Active
 70
     0
 10
0.0
 20
0.0
 11
1.0
 21
1.0
 12
2217.190914313294
 22
981.4710376778259
 13
0.0
 23
0.0
 14
20.0
 24
20.0
 15
10.0
 25
10.0
 16
0.0
 26
0.0
 36
1.0
 17
0.0
 27
0.0
 37
0.0
 40
323.2426880321709
 41
2.06084656084656
 42
50.0
 43
0.0
 44
0.0
 50
0.0
 51
0.0
 71
     0
 72
 20000
 73
     1
 74
     3
 75
     0
 76
     0
 77
     0
 78
     1
281
     0
 65
     1
110
-881.3725378634428
120
-169.8351068294423
130
0.0
111
1.0
121
0.0
131
0.0
112
0.0
122
1.0
132
0.0
 79
     0
146
0.0
  0
ENDTAB
  0
TABLE
  2
LTYPE
  5
5
330
0
100
AcDbSymbolTable
 70
     4
  0
LTYPE
  5
13
330
5
100
AcDbSymbolTableRecord
100
AcDbLinetypeTableRecord
  2
BYBLOCK
 70
     0
  3

 72
    65
 73
     0
 40
0.0
  0
LTYPE
  5
14
330
5
100
AcDbSymbolTableRecord
100
AcDbLinetypeTableRecord
  2
BYLAYER
 70
     0
  3

 72
    65
 73
     0
 40
0.0
  0
LTYPE
  5
15
330
5
100
AcDbSymbolTableRecord
100
AcDbLinetypeTableRecord
  2
CONTINUOUS
 70
     0
  3
Solid line
 72
    65
 73
     0
 40
0.0
  0
LTYPE
  5
2C
330
5
100
AcDbSymbolTableRecord
100
AcDbLinetypeTableRecord
  2
DASHED
 70
     0
  3
__ __ __ __ __ __ __ __ __ __ __ __ __ __ __
 72
    65
 73
     2
 40
0.75
 49
0.5
 74
     0
 49
-0.25
 74
     0
  0
LTYPE
  5
4BB8
330
5
100
AcDbSymbolTableRecord
100
AcDbLinetypeTableRecord
  2
HIDDEN
 70
     0
  3
_ _ _ _ _ _ _ _ _ _ _ _ _ _ _ _ _ _ _ _ _ _ _
 72
    65
 73
     2
 40
0.375
 49
0.25
 74
     0
 49
-0.125
 74
     0
  0
ENDTAB
  0
TABLE
  2
LAYER
  5
2
330
0
100
AcDbSymbolTable
 70
     7
  0
LAYER
  5
F
330
2
100
AcDbSymbolTableRecord
100
AcDbLayerTableRecord
  2
0
 70
     0
 62
    30
  6
CONTINUOUS
370
    -3
390
37B6
  0
LAYER
  5
30
330
2
100
AcDbSymbolTableRecord
100
AcDbLayerTableRecord
  2
1
 70
     0
 62
     7
  6
CONTINUOUS
370
    -3
390
37B6
  0
LAYER
  5
31
330
2
100
AcDbSymbolTableRecord
100
AcDbLayerTableRecord
  2
DEFPOINTS
 70
     0
 62
     6
  6
CONTINUOUS
290
     0
370
    -3
390
37B6
  0
LAYER
  5
F62
330
2
100
AcDbSymbolTableRecord
100
AcDbLayerTableRecord
  2
DIM
 70
     0
 62
     3
  6
CONTINUOUS
370
    -3
390
37B6
  0
ENDTAB
  0
TABLE
  2
STYLE
  5
3
330
0
100
AcDbSymbolTable
 70
     5
  0
STYLE
  5
10
330
3
100
AcDbSymbolTableRecord
100
AcDbTextStyleTableRecord
  2
STANDARD
 70
     0
 40
0.0
 41
1.0
 50
0.0
 71
     0
 42
19.71412580829621
  3
techl___.ttf
  4

1001
ACAD
1000
TechnicLite
1071
      514
  0
STYLE
  5
2B
330
3
100
AcDbSymbolTableRecord
100
AcDbTextStyleTableRecord
  2
ROMANC
 70
     0
 40
4.009999999999999
 41
1.0
 50
0.0
 71
     0
 42
4.009999999999999
  3
romanc
  4

  0
ENDTAB
  0
TABLE
  2
VIEW
  5
6
330
0
100
AcDbSymbolTable
 70
     1
  0
VIEW
  5
2B15
330
6
100
AcDbSymbolTableRecord
100
AcDbViewTableRecord
  2
P1
 70
     1
 40
195.7116207376954
 10
156.3078220645052
 20
105.1927068532014
 41
281.044737853693
 11
0.0
 21
0.0
 31
1.0
 12
0.0
 22
0.0
 32
0.0
 42
50.0
 43
0.0
 44
0.0
 50
0.0
 71
     0
281
     0
 72
     0
  0
ENDTAB
  0
TABLE
  2
UCS
  5
7
330
0
100
AcDbSymbolTable
 70
     0
  0
ENDTAB
  0
TABLE
  2
APPID
  5
9
330
0
100
AcDbSymbolTable
 70
     3
  0
APPID
  5
11
330
9
100
AcDbSymbolTableRecord
100
AcDbRegAppTableRecord
  2
ACAD
 70
     0
  0
APPID
  5
21B6
330
9
100
AcDbSymbolTableRecord
100
AcDbRegAppTableRecord
  2
CONTENTTABDATA
 70
     0
  0
APPID
  5
21B7
330
9
100
AcDbSymbolTableRecord
100
AcDbRegAppTableRecord
  2
CONTENTCURRENTTAB
 70
     0
  0
ENDTAB
  0
TABLE
  2
DIMSTYLE
  5
A
330
0
100
AcDbSymbolTable
 70
     1
100
AcDbDimStyleTable
 71
     1
340
AD6
  0
DIMSTYLE
105
AD6
102
{ACAD_REACTORS
330
476E
330
4B74
330
4B98
330
4C4F
102
}
330
A
100
AcDbSymbolTableRecord
100
AcDbDimStyleTableRecord
  2
STANDARD
 70
     0
340
10
  0
ENDTAB
  0
TABLE
  2
BLOCK_RECORD
  5
1
330
0
100
AcDbSymbolTable
 70
    16
  0
BLOCK_RECORD
  5
19
102
{ACAD_XDICTIONARY
360
391B
102
}
330
1
100
AcDbSymbolTableRecord
100
AcDbBlockTableRecord
  2
*MODEL_SPACE
340
37B9
  0
BLOCK_RECORD
  5
3E47
330
1
100
AcDbSymbolTableRecord
100
AcDbBlockTableRecord
  2
*Paper_Space
340
3E48
  0
BLOCK_RECORD
  5
3E5F
330
1
100
AcDbSymbolTableRecord
100
AcDbBlockTableRecord
  2
*X2
340
0
102
{BLKREFS
331
3FB6
331
3FD6
102
}
  0
BLOCK_RECORD
  5
3F90
330
1
100
AcDbSymbolTableRecord
100
AcDbBlockTableRecord
  2
foul air trap
340
0
310
28000000200000002000000001000800000000000004000000000000000000000000000000000000000000004000000080000000FF000000002000004020000080200000FF200000004000004040000080400000FF400000006000004060000080600000FF600000008000004080000080800000FF80000000A0000040A000
310
0080A00000FFA0000000C0000040C0000080C00000FFC0000000FF000040FF000080FF0000FFFF0000000020004000200080002000FF002000002020004020200080202000FF202000004020004040200080402000FF402000006020004060200080602000FF602000008020004080200080802000FF80200000A0200040A0
310
200080A02000FFA0200000C0200040C0200080C02000FFC0200000FF200040FF200080FF2000FFFF2000000040004000400080004000FF004000002040004020400080204000FF204000004040004040400080404000FF404000006040004060400080604000FF604000008040004080400080804000FF80400000A0400040
310
A0400080A04000FFA0400000C0400040C0400080C04000FFC0400000FF400040FF400080FF4000FFFF4000000060004000600080006000FF006000002060004020600080206000FF206000004060004040600080406000FF406000006060004060600080606000FF606000008060004080600080806000FF80600000A06000
310
40A0600080A06000FFA0600000C0600040C0600080C06000FFC0600000FF600040FF600080FF6000FFFF6000000080004000800080008000FF008000002080004020800080208000FF208000004080004040800080408000FF408000006080004060800080608000FF608000008080004080800080808000FF80800000A080
310
0040A0800080A08000FFA0800000C0800040C0800080C08000FFC0800000FF800040FF800080FF8000FFFF80000000A0004000A0008000A000FF00A0000020A0004020A0008020A000FF20A0000040A0004040A0008040A000FF40A0000060A0004060A0008060A000FF60A0000080A0004080A0008080A000FF80A00000A0
310
A00040A0A00080A0A000FFA0A00000C0A00040C0A00080C0A000FFC0A00000FFA00040FFA00080FFA000FFFFA0000000C0004000C0008000C000FF00C0000020C0004020C0008020C000FF20C0000040C0004040C0008040C000FF40C0000060C0004060C0008060C000FF60C0000080C0004080C0008080C000FF80C00000
310
A0C00040A0C00080A0C000FFA0C00000C0C00040C0C00080C0C000FFC0C00000FFC00040FFC00080FFC000FFFFC0000000FF004000FF008000FF00FF00FF000020FF004020FF008020FF00FF20FF000040FF004040FF008040FF00FF40FF000060FF004060FF008060FF00FF60FF000080FF004080FF008080FF00FF80FF00
310
00A0FF0040A0FF0080A0FF00FFA0FF0000C0FF0040C0FF0080C0FF00FFC0FF0000FFFF0040FFFF0080FFFF00FFFFFF00FFFFFFFFFFFFFFFFFFFFFFFFFFFFFFFFFFFFFFFFFFFFFFFFFFFFFFFFFFFFFFFFFFFFFFFFFFFFFFFFFFFFFFFFFFFFFFFFFFFFFFFFFFFFFFFFFFFFFFFFFFFFFFFFFFFFFFFFFFFFFFFF0000FFFFFFFFFF
310
FFFFFFFFFFFF0000FFFFFFFFFFFFFFFFFFFFFFFFFFFFFFFF00FFFF0000FFFFFFFFFFFFFF0000FFFF00FFFFFFFFFFFFFFFFFFFFFFFFFFFF00FFFFFFFFFF00000000000000FFFFFFFFFF00FFFFFFFFFFFFFFFFFFFFFFFF00FFFFFFFFFFFFFFFFFFFFFFFFFFFFFFFFFFFF0000FFFFFFFFFFFFFFFFFFFF00FFFFFFFFFFFFFFFFFF
310
FFFFFFFFFFFFFFFFFFFFFF000000FFFFFFFFFFFFFFFF00FFFFFFFF00000000000000000000000000FFFFFFFF0000FFFFFFFFFFFFFFFF00FFFFFFFF0000FFFFFFFFFFFFFFFFFFFF00FFFFFFFF0000FFFFFFFFFFFFFFFF00FFFFFFFF0000FFFFFFFFFFFFFFFFFFFF00FFFFFFFF0000FFFFFFFFFFFFFFFF00FFFFFFFF0000FFFF
310
FFFFFFFFFFFFFFFF00FFFFFFFF0000FFFFFFFFFFFFFFFF00FFFFFFFF0000FFFFFFFFFFFFFFFFFFFF00FFFFFFFF0000FFFFFFFFFFFFFFFF00FFFFFFFF0000FFFFFFFFFFFFFFFFFFFF00FFFFFFFF0000FFFFFFFFFFFFFFFF00FFFFFFFF0000FFFFFFFFFFFFFFFFFFFF00FFFFFFFF0000FFFFFFFFFFFFFFFF00FFFFFFFF0000FF
310
FFFFFFFFFFFFFFFFFF00FFFFFFFF0000FFFFFFFFFFFFFFFF00FFFFFFFF0000FFFFFFFFFFFFFFFFFFFF00FFFFFFFF0000FFFFFFFFFFFFFFFF00FFFFFFFF0000FFFFFFFFFFFFFFFFFFFF00FFFFFFFF0000FFFFFFFFFFFFFFFF00FFFFFFFF0000FFFFFFFFFFFFFFFFFFFF00FFFFFFFF0000FFFFFFFFFFFFFF0000FFFFFFFF0000
310
FFFFFFFFFFFFFFFFFFFF00FFFFFFFF000000FFFFFFFFFF000000000000000000FFFFFFFFFFFFFFFFFFFF0000000000000000FFFFFFFFFFFFFFFFFFFFFFFF0000FFFFFFFFFFFFFFFFFFFF00FFFFFFFFFFFFFFFFFFFFFFFFFFFFFFFFFFFFFF0000FFFFFFFFFFFFFFFFFFFF00FFFFFFFFFFFFFFFFFFFFFFFFFFFFFFFFFFFFFF00
310
00FFFFFFFFFFFFFFFFFFFF00FFFFFFFFFFFFFFFFFFFFFFFFFFFFFFFFFFFFFF0000000000000000000000000000FFFFFFFFFFFFFFFFFFFFFFFFFFFFFFFF0000FFFFFFFFFFFFFFFFFFFFFFFFFF000000FFFFFFFFFFFFFFFFFFFFFFFF0000FFFFFFFFFFFFFFFFFFFFFFFFFFFFFFFFFFFF0000FFFFFFFFFFFFFFFFFFFF00FFFFFF
310
FFFFFFFFFFFFFFFFFFFFFFFFFFFFFFFFFFFF00FFFFFFFFFFFFFFFF00FFFFFFFFFFFFFFFFFFFFFFFFFFFFFFFFFFFFFFFFFFFF00FFFFFFFFFFFFFF0000000000000000000000000000000000000000000000000000FFFFFFFF000000000000000000000000000000000000000000000000000000000000FFFFFFFFFFFFFFFFFF
310
FFFFFFFFFFFFFFFFFFFFFFFFFFFFFFFFFFFFFFFFFFFFFFFFFFFFFFFFFFFFFFFFFFFFFFFFFFFFFFFFFFFFFFFFFFFFFFFFFFFFFFFFFFFFFFFF
102
{BLKREFS
331
4723
102
}
  0
BLOCK_RECORD
  5
4172
330
1
100
AcDbSymbolTableRecord
100
AcDbBlockTableRecord
  2
WELD
340
0
102
{BLKREFS
331
4594
331
4692
331
4538
331
4545
102
}
  0
BLOCK_RECORD
  5
4177
330
1
100
AcDbSymbolTableRecord
100
AcDbBlockTableRecord
  2
*X6
340
0
102
{BLKREFS
331
4173
102
}
  0
BLOCK_RECORD
  5
476F
330
1
100
AcDbSymbolTableRecord
100
AcDbBlockTableRecord
  2
*D7
340
0
  0
BLOCK_RECORD
  5
47C9
330
1
100
AcDbSymbolTableRecord
100
AcDbBlockTableRecord
  2
*X8
340
0
102
{BLKREFS
331
4B30
331
4B4E
102
}
  0
BLOCK_RECORD
  5
4B14
330
1
100
AcDbSymbolTableRecord
100
AcDbBlockTableRecord
  2
BODY
340
0
310
28000000200000002000000001000800000000000004000000000000000000000000000000000000000000004000000080000000FF000000002000004020000080200000FF200000004000004040000080400000FF400000006000004060000080600000FF600000008000004080000080800000FF80000000A0000040A000
310
0080A00000FFA0000000C0000040C0000080C00000FFC0000000FF000040FF000080FF0000FFFF0000000020004000200080002000FF002000002020004020200080202000FF202000004020004040200080402000FF402000006020004060200080602000FF602000008020004080200080802000FF80200000A0200040A0
310
200080A02000FFA0200000C0200040C0200080C02000FFC0200000FF200040FF200080FF2000FFFF2000000040004000400080004000FF004000002040004020400080204000FF204000004040004040400080404000FF404000006040004060400080604000FF604000008040004080400080804000FF80400000A0400040
310
A0400080A04000FFA0400000C0400040C0400080C04000FFC0400000FF400040FF400080FF4000FFFF4000000060004000600080006000FF006000002060004020600080206000FF206000004060004040600080406000FF406000006060004060600080606000FF606000008060004080600080806000FF80600000A06000
310
40A0600080A06000FFA0600000C0600040C0600080C06000FFC0600000FF600040FF600080FF6000FFFF6000000080004000800080008000FF008000002080004020800080208000FF208000004080004040800080408000FF408000006080004060800080608000FF608000008080004080800080808000FF80800000A080
310
0040A0800080A08000FFA0800000C0800040C0800080C08000FFC0800000FF800040FF800080FF8000FFFF80000000A0004000A0008000A000FF00A0000020A0004020A0008020A000FF20A0000040A0004040A0008040A000FF40A0000060A0004060A0008060A000FF60A0000080A0004080A0008080A000FF80A00000A0
310
A00040A0A00080A0A000FFA0A00000C0A00040C0A00080C0A000FFC0A00000FFA00040FFA00080FFA000FFFFA0000000C0004000C0008000C000FF00C0000020C0004020C0008020C000FF20C0000040C0004040C0008040C000FF40C0000060C0004060C0008060C000FF60C0000080C0004080C0008080C000FF80C00000
310
A0C00040A0C00080A0C000FFA0C00000C0C00040C0C00080C0C000FFC0C00000FFC00040FFC00080FFC000FFFFC0000000FF004000FF008000FF00FF00FF000020FF004020FF008020FF00FF20FF000040FF004040FF008040FF00FF40FF000060FF004060FF008060FF00FF60FF000080FF004080FF008080FF00FF80FF00
310
00A0FF0040A0FF0080A0FF00FFA0FF0000C0FF0040C0FF0080C0FF00FFC0FF0000FFFF0040FFFF0080FFFF00FFFFFF00FFFFFFFFFFFFFFFFFFFFFFFFFFFFFFFFFFFFFFFFFFFFFFFFFFFFFFFFFFFFFFFFFFFFFFFFFFFFFF000000000000000000000000000000000000FFFFFFFFFFFFFFFFFFFFFFFFFFFF00FFFFFFFFFFFFFF
310
FFFFFFFFFFFFFFFFFF00FFFFFFFFFFFFFFFFFFFFFFFFFFFF00FFFFFFFFFFFFFFFFFFFFFFFFFFFFFFFF00FFFFFFFFFFFFFFFFFFFFFFFFFFFF00FFFFFFFFFFFFFFFFFFFFFFFFFFFFFFFF00FFFFFFFFFFFFFFFFFFFFFFFFFFFF00FFFFFFFFFFFFFFFFFFFFFFFFFFFFFFFF00FFFFFFFFFFFFFFFFFFFFFFFFFFFF00FFFFFFFFFFFF
310
FFFFFFFFFFFFFFFFFFFF00FFFFFFFFFFFFFFFFFFFFFFFFFFFF00FFFFFFFFFFFFFFFFFFFFFFFFFFFFFFFF00FFFFFFFFFFFFFFFFFFFFFFFFFFFF00FFFFFFFFFFFFFFFFFFFFFFFFFFFFFFFF00FFFFFFFFFFFFFFFFFFFFFFFFFFFF00FFFFFFFFFFFFFFFFFFFFFFFFFFFFFFFF00FFFFFFFFFFFFFFFFFFFFFFFFFFFF00FFFFFFFFFF
310
FFFFFFFFFFFFFFFFFFFFFF00FFFFFFFFFFFFFFFFFFFFFFFFFFFF00FFFFFFFFFFFFFFFFFFFFFFFFFFFFFFFF00FFFFFFFFFFFFFFFFFFFFFFFFFFFF00FFFFFFFFFFFFFFFFFFFFFFFFFFFFFFFF00FFFFFFFFFFFFFFFFFFFFFFFFFFFF00FFFFFFFFFFFFFFFFFFFFFFFFFFFFFFFF00FFFFFFFFFFFFFFFFFFFFFFFFFF0000FFFFFFFF
310
FFFFFFFFFFFFFFFFFFFFFFFF0000FFFFFFFFFFFFFFFFFFFF0000FFFFFFFFFFFFFFFFFFFFFFFFFFFFFFFFFFFFFFFF0000FFFFFFFFFFFFFFFF00FFFFFFFFFFFFFFFFFFFFFFFFFFFFFFFFFFFFFFFFFFFF00FFFFFFFFFFFFFFFF00FFFFFFFFFFFFFFFFFFFFFFFFFFFFFFFFFFFFFFFFFFFF00FFFFFFFFFFFFFFFF00FFFFFFFFFFFF
310
FFFFFFFFFFFFFFFFFFFFFFFFFFFFFFFF00FFFFFFFFFFFFFFFF00FFFFFFFFFFFFFFFFFFFFFFFFFFFFFFFFFFFFFFFFFFFF00FFFFFFFFFFFFFFFF00FFFFFFFFFFFFFFFFFFFFFFFFFFFFFFFFFFFFFFFFFFFF00FFFFFFFFFFFFFFFF00FFFFFFFFFFFFFFFFFFFFFFFFFFFFFFFFFFFFFFFFFFFF00FFFFFFFFFFFFFFFF00FFFFFFFFFF
310
FFFFFFFFFFFFFFFFFFFFFFFFFFFFFFFFFF00FFFFFFFFFFFFFFFF00FFFFFFFFFFFFFFFFFFFFFFFFFFFFFFFFFFFFFFFFFFFF00FFFFFFFFFFFFFFFF00FFFFFFFFFFFFFFFFFFFFFFFFFFFFFFFFFFFFFFFFFFFF00FFFFFFFFFFFFFFFF00FFFFFFFFFFFFFFFFFFFFFFFFFFFFFFFFFFFFFFFFFFFF00FFFFFFFFFFFFFFFF00FFFFFFFF
310
FFFFFFFFFFFFFFFFFFFFFFFFFFFFFFFFFFFF00FFFFFFFFFFFFFFFF00000000FFFFFFFFFFFFFFFFFFFFFFFFFFFFFFFF00000000FFFFFFFFFFFFFFFF00000000FFFFFFFFFFFFFFFFFFFFFFFFFFFFFFFF00000000FFFFFFFFFFFFFFFF00000000FFFFFFFFFFFFFFFFFFFFFFFFFFFFFFFF00000000FFFFFFFFFFFFFFFF00000000
310
FFFFFFFFFFFFFFFFFFFFFFFFFFFFFFFF00000000FFFFFFFFFFFFFFFFFFFFFFFFFFFFFFFFFFFFFFFFFFFFFFFFFFFFFFFFFFFFFFFFFFFFFFFF
102
{BLKREFS
331
4B68
102
}
  0
BLOCK_RECORD
  5
4B75
330
1
100
AcDbSymbolTableRecord
100
AcDbBlockTableRecord
  2
*D10
340
0
  0
BLOCK_RECORD
  5
4B99
330
1
100
AcDbSymbolTableRecord
100
AcDbBlockTableRecord
  2
*D11
340
0
  0
BLOCK_RECORD
  5
4C64
330
1
100
AcDbSymbolTableRecord
100
AcDbBlockTableRecord
  2
*D13
340
0
  0
BLOCK_RECORD
  5
4C93
330
1
100
AcDbSymbolTableRecord
100
AcDbBlockTableRecord
  2
*X14
340
0
102
{BLKREFS
331
4D4E
331
4DBB
102
}
  0
BLOCK_RECORD
  5
4CA0
330
1
100
AcDbSymbolTableRecord
100
AcDbBlockTableRecord
  2
*X15
340
0
102
{BLKREFS
331
4D5B
331
4D62
331
4DAB
331
4DB9
102
}
  0
ENDTAB
  0
ENDSEC
  0
SECTION
  2
BLOCKS
  0
BLOCK
  5
35
330
19
100
AcDbEntity
  8
0
100
AcDbBlockBegin
  2
*MODEL_SPACE
 70
     0
 10
0.0
 20
0.0
 30
0.0
  3
*MODEL_SPACE
  1

  0
ENDBLK
  5
36
330
19
100
AcDbEntity
  8
0
100
AcDbBlockEnd
  0
BLOCK
  5
3E49
330
3E47
100
AcDbEntity
 67
     1
  8
0
100
AcDbBlockBegin
  2
*Paper_Space
 70
     0
 10
0.0
 20
0.0
 30
0.0
  3
*Paper_Space
  1

  0
ENDBLK
  5
3E4A
330
3E47
100
AcDbEntity
 67
     1
  8
0
100
AcDbBlockEnd
  0
BLOCK
  5
3EC6
330
3E5F
100
AcDbEntity
  8
0
100
AcDbBlockBegin
  2
*X2
 70
     1
 10
0.0
 20
0.0
 30
0.0
  3
*X2
  1

  0
LINE
  5
3E60
330
3E5F
100
AcDbEntity
  8
0
 62
     0
100
AcDbLine
 10
-405.75
 20
360.7368135792118
 30
0.0
 11
-405.75
 21
361.8370122704502
 31
0.0
  0
LINE
  5
3E61
330
3E5F
100
AcDbEntity
  8
0
 62
     0
100
AcDbLine
 10
-406.0
 20
360.933384413112
 30
0.0
 11
-406.0
 21
361.8370122704502
 31
0.0
  0
LINE
  5
3E62
330
3E5F
100
AcDbEntity
  8
0
 62
     0
100
AcDbLine
 10
-406.25
 20
361.1395398149059
 30
0.0
 11
-406.25
 21
361.8370122704502
 31
0.0
  0
LINE
  5
3E63
330
3E5F
100
AcDbEntity
  8
0
 62
     0
100
AcDbLine
 10
-406.5
 20
361.2469848382478
 30
0.0
 11
-406.5
 21
361.8370122704502
 31
0.0
  0
LINE
  5
3E64
330
3E5F
100
AcDbEntity
  8
0
 62
     0
100
AcDbLine
 10
-406.7499999999999
 20
361.389534041392
 30
0.0
 11
-406.7499999999999
 21
361.8370122704502
 31
0.0
  0
LINE
  5
3E65
330
3E5F
100
AcDbEntity
  8
0
 62
     0
100
AcDbLine
 10
-407.0
 20
361.6300486768183
 30
0.0
 11
-407.0
 21
361.8370122704502
 31
0.0
  0
LINE
  5
3E66
330
3E5F
100
AcDbEntity
  8
0
 62
     0
100
AcDbLine
 10
-407.2499999999999
 20
361.7419786282082
 30
0.0
 11
-407.2499999999999
 21
361.8370122704502
 31
0.0
  0
LINE
  5
3E67
330
3E5F
100
AcDbEntity
  8
0
 62
     0
100
AcDbLine
 10
-407.5
 20
361.8321716164932
 30
0.0
 11
-407.5
 21
361.8370122704502
 31
0.0
  0
LINE
  5
3E68
330
3E5F
100
AcDbEntity
  8
0
 62
     0
100
AcDbLine
 10
-405.4999999999999
 20
360.5564276026421
 30
0.0
 11
-405.4999999999999
 21
361.8370122704502
 31
0.0
  0
LINE
  5
3E69
330
3E5F
100
AcDbEntity
  8
0
 62
     0
100
AcDbLine
 10
-405.25
 20
360.274289276432
 30
0.0
 11
-405.25
 21
361.8370122704502
 31
0.0
  0
LINE
  5
3E6A
330
3E5F
100
AcDbEntity
  8
0
 62
     0
100
AcDbLine
 10
-404.9999999999999
 20
359.9991459799346
 30
0.0
 11
-405.0
 21
361.8370122704502
 31
0.0
  0
LINE
  5
3E6B
330
3E5F
100
AcDbEntity
  8
0
 62
     0
100
AcDbLine
 10
-404.7499999999999
 20
359.6570949230565
 30
0.0
 11
-404.75
 21
361.8370122704502
 31
0.0
  0
LINE
  5
3E6C
330
3E5F
100
AcDbEntity
  8
0
 62
     0
100
AcDbLine
 10
-404.4999999999999
 20
358.6790058066241
 30
0.0
 11
-404.4999999999999
 21
361.8370122704502
 31
0.0
  0
LINE
  5
3E6D
330
3E5F
100
AcDbEntity
  8
0
 62
     0
100
AcDbLine
 10
-404.25
 20
358.3305332124405
 30
0.0
 11
-404.25
 21
361.8370122704502
 31
0.0
  0
LINE
  5
3E6E
330
3E5F
100
AcDbEntity
  8
0
 62
     0
100
AcDbLine
 10
-404.0
 20
358.1759166610952
 30
0.0
 11
-404.0
 21
361.8370122704502
 31
0.0
  0
LINE
  5
3E6F
330
3E5F
100
AcDbEntity
  8
0
 62
     0
100
AcDbLine
 10
-405.8749999999999
 20
360.830306712215
 30
0.0
 11
-405.8749999999999
 21
360.875
 31
0.0
  0
LINE
  5
3E70
330
3E5F
100
AcDbEntity
  8
0
 62
     0
100
AcDbLine
 10
-405.8749999999999
 20
361.0
 30
0.0
 11
-405.8749999999999
 21
361.125
 31
0.0
  0
LINE
  5
3E71
330
3E5F
100
AcDbEntity
  8
0
 62
     0
100
AcDbLine
 10
-405.8749999999999
 20
361.25
 30
0.0
 11
-405.8749999999999
 21
361.375
 31
0.0
  0
LINE
  5
3E72
330
3E5F
100
AcDbEntity
  8
0
 62
     0
100
AcDbLine
 10
-405.8749999999999
 20
361.5
 30
0.0
 11
-405.8749999999999
 21
361.6249999999999
 31
0.0
  0
LINE
  5
3E73
330
3E5F
100
AcDbEntity
  8
0
 62
     0
100
AcDbLine
 10
-405.8749999999999
 20
361.75
 30
0.0
 11
-405.8749999999999
 21
361.8370122704502
 31
0.0
  0
LINE
  5
3E74
330
3E5F
100
AcDbEntity
  8
0
 62
     0
100
AcDbLine
 10
-406.125
 20
361.036462114009
 30
0.0
 11
-406.125
 21
361.125
 31
0.0
  0
LINE
  5
3E75
330
3E5F
100
AcDbEntity
  8
0
 62
     0
100
AcDbLine
 10
-406.125
 20
361.25
 30
0.0
 11
-406.125
 21
361.375
 31
0.0
  0
LINE
  5
3E76
330
3E5F
100
AcDbEntity
  8
0
 62
     0
100
AcDbLine
 10
-406.125
 20
361.5
 30
0.0
 11
-406.125
 21
361.6249999999999
 31
0.0
  0
LINE
  5
3E77
330
3E5F
100
AcDbEntity
  8
0
 62
     0
100
AcDbLine
 10
-406.125
 20
361.75
 30
0.0
 11
-406.125
 21
361.8370122704502
 31
0.0
  0
LINE
  5
3E78
330
3E5F
100
AcDbEntity
  8
0
 62
     0
100
AcDbLine
 10
-406.3749999999999
 20
361.25
 30
0.0
 11
-406.3749999999999
 21
361.375
 31
0.0
  0
LINE
  5
3E79
330
3E5F
100
AcDbEntity
  8
0
 62
     0
100
AcDbLine
 10
-406.3749999999999
 20
361.5
 30
0.0
 11
-406.3749999999999
 21
361.6249999999999
 31
0.0
  0
LINE
  5
3E7A
330
3E5F
100
AcDbEntity
  8
0
 62
     0
100
AcDbLine
 10
-406.3749999999999
 20
361.75
 30
0.0
 11
-406.3749999999999
 21
361.8370122704502
 31
0.0
  0
LINE
  5
3E7B
330
3E5F
100
AcDbEntity
  8
0
 62
     0
100
AcDbLine
 10
-406.625
 20
361.2985236886963
 30
0.0
 11
-406.625
 21
361.375
 31
0.0
  0
LINE
  5
3E7C
330
3E5F
100
AcDbEntity
  8
0
 62
     0
100
AcDbLine
 10
-406.625
 20
361.5
 30
0.0
 11
-406.625
 21
361.6249999999999
 31
0.0
  0
LINE
  5
3E7D
330
3E5F
100
AcDbEntity
  8
0
 62
     0
100
AcDbLine
 10
-406.625
 20
361.75
 30
0.0
 11
-406.625
 21
361.8370122704502
 31
0.0
  0
LINE
  5
3E7E
330
3E5F
100
AcDbEntity
  8
0
 62
     0
100
AcDbLine
 10
-406.8749999999999
 20
361.5097913591051
 30
0.0
 11
-406.8749999999999
 21
361.6249999999999
 31
0.0
  0
LINE
  5
3E7F
330
3E5F
100
AcDbEntity
  8
0
 62
     0
100
AcDbLine
 10
-406.8749999999999
 20
361.75
 30
0.0
 11
-406.8749999999999
 21
361.8370122704502
 31
0.0
  0
LINE
  5
3E80
330
3E5F
100
AcDbEntity
  8
0
 62
     0
100
AcDbLine
 10
-407.125
 20
361.75
 30
0.0
 11
-407.125
 21
361.8370122704502
 31
0.0
  0
LINE
  5
3E81
330
3E5F
100
AcDbEntity
  8
0
 62
     0
100
AcDbLine
 10
-407.375
 20
361.7870751223508
 30
0.0
 11
-407.375
 21
361.8370122704502
 31
0.0
  0
LINE
  5
3E82
330
3E5F
100
AcDbEntity
  8
0
 62
     0
100
AcDbLine
 10
-405.625
 20
360.7499999999999
 30
0.0
 11
-405.625
 21
360.875
 31
0.0
  0
LINE
  5
3E83
330
3E5F
100
AcDbEntity
  8
0
 62
     0
100
AcDbLine
 10
-405.625
 20
361.0
 30
0.0
 11
-405.625
 21
361.125
 31
0.0
  0
LINE
  5
3E84
330
3E5F
100
AcDbEntity
  8
0
 62
     0
100
AcDbLine
 10
-405.625
 20
361.25
 30
0.0
 11
-405.625
 21
361.375
 31
0.0
  0
LINE
  5
3E85
330
3E5F
100
AcDbEntity
  8
0
 62
     0
100
AcDbLine
 10
-405.625
 20
361.5
 30
0.0
 11
-405.625
 21
361.6249999999999
 31
0.0
  0
LINE
  5
3E86
330
3E5F
100
AcDbEntity
  8
0
 62
     0
100
AcDbLine
 10
-405.625
 20
361.75
 30
0.0
 11
-405.625
 21
361.8370122704502
 31
0.0
  0
LINE
  5
3E87
330
3E5F
100
AcDbEntity
  8
0
 62
     0
100
AcDbLine
 10
-405.3749999999999
 20
360.4999999999999
 30
0.0
 11
-405.3749999999999
 21
360.625
 31
0.0
  0
LINE
  5
3E88
330
3E5F
100
AcDbEntity
  8
0
 62
     0
100
AcDbLine
 10
-405.3749999999999
 20
360.7499999999999
 30
0.0
 11
-405.3749999999999
 21
360.875
 31
0.0
  0
LINE
  5
3E89
330
3E5F
100
AcDbEntity
  8
0
 62
     0
100
AcDbLine
 10
-405.3749999999999
 20
361.0
 30
0.0
 11
-405.3749999999999
 21
361.125
 31
0.0
  0
LINE
  5
3E8A
330
3E5F
100
AcDbEntity
  8
0
 62
     0
100
AcDbLine
 10
-405.3749999999999
 20
361.25
 30
0.0
 11
-405.3749999999999
 21
361.375
 31
0.0
  0
LINE
  5
3E8B
330
3E5F
100
AcDbEntity
  8
0
 62
     0
100
AcDbLine
 10
-405.3749999999999
 20
361.5
 30
0.0
 11
-405.3749999999999
 21
361.6249999999999
 31
0.0
  0
LINE
  5
3E8C
330
3E5F
100
AcDbEntity
  8
0
 62
     0
100
AcDbLine
 10
-405.3749999999999
 20
361.75
 30
0.0
 11
-405.3749999999999
 21
361.8370122704502
 31
0.0
  0
LINE
  5
3E8D
330
3E5F
100
AcDbEntity
  8
0
 62
     0
100
AcDbLine
 10
-405.1249999999999
 20
360.25
 30
0.0
 11
-405.1249999999999
 21
360.375
 31
0.0
  0
LINE
  5
3E8E
330
3E5F
100
AcDbEntity
  8
0
 62
     0
100
AcDbLine
 10
-405.1249999999999
 20
360.4999999999999
 30
0.0
 11
-405.1249999999999
 21
360.625
 31
0.0
  0
LINE
  5
3E8F
330
3E5F
100
AcDbEntity
  8
0
 62
     0
100
AcDbLine
 10
-405.1249999999999
 20
360.7499999999999
 30
0.0
 11
-405.1249999999999
 21
360.875
 31
0.0
  0
LINE
  5
3E90
330
3E5F
100
AcDbEntity
  8
0
 62
     0
100
AcDbLine
 10
-405.1249999999999
 20
361.0
 30
0.0
 11
-405.1249999999999
 21
361.125
 31
0.0
  0
LINE
  5
3E91
330
3E5F
100
AcDbEntity
  8
0
 62
     0
100
AcDbLine
 10
-405.1249999999999
 20
361.25
 30
0.0
 11
-405.1249999999999
 21
361.375
 31
0.0
  0
LINE
  5
3E92
330
3E5F
100
AcDbEntity
  8
0
 62
     0
100
AcDbLine
 10
-405.1249999999999
 20
361.5
 30
0.0
 11
-405.1249999999999
 21
361.6249999999999
 31
0.0
  0
LINE
  5
3E93
330
3E5F
100
AcDbEntity
  8
0
 62
     0
100
AcDbLine
 10
-405.1249999999999
 20
361.75
 30
0.0
 11
-405.1249999999999
 21
361.8370122704502
 31
0.0
  0
LINE
  5
3E94
330
3E5F
100
AcDbEntity
  8
0
 62
     0
100
AcDbLine
 10
-404.8749999999999
 20
359.8374808996262
 30
0.0
 11
-404.8749999999999
 21
359.8749999999999
 31
0.0
  0
LINE
  5
3E95
330
3E5F
100
AcDbEntity
  8
0
 62
     0
100
AcDbLine
 10
-404.8749999999999
 20
360.0
 30
0.0
 11
-404.8749999999999
 21
360.125
 31
0.0
  0
LINE
  5
3E96
330
3E5F
100
AcDbEntity
  8
0
 62
     0
100
AcDbLine
 10
-404.8749999999999
 20
360.25
 30
0.0
 11
-404.8749999999999
 21
360.375
 31
0.0
  0
LINE
  5
3E97
330
3E5F
100
AcDbEntity
  8
0
 62
     0
100
AcDbLine
 10
-404.8749999999999
 20
360.4999999999999
 30
0.0
 11
-404.8749999999999
 21
360.625
 31
0.0
  0
LINE
  5
3E98
330
3E5F
100
AcDbEntity
  8
0
 62
     0
100
AcDbLine
 10
-404.8749999999999
 20
360.7499999999999
 30
0.0
 11
-404.8749999999999
 21
360.875
 31
0.0
  0
LINE
  5
3E99
330
3E5F
100
AcDbEntity
  8
0
 62
     0
100
AcDbLine
 10
-404.8749999999999
 20
361.0
 30
0.0
 11
-404.8749999999999
 21
361.125
 31
0.0
  0
LINE
  5
3E9A
330
3E5F
100
AcDbEntity
  8
0
 62
     0
100
AcDbLine
 10
-404.8749999999999
 20
361.25
 30
0.0
 11
-404.8749999999999
 21
361.375
 31
0.0
  0
LINE
  5
3E9B
330
3E5F
100
AcDbEntity
  8
0
 62
     0
100
AcDbLine
 10
-404.8749999999999
 20
361.5
 30
0.0
 11
-404.8749999999999
 21
361.6249999999999
 31
0.0
  0
LINE
  5
3E9C
330
3E5F
100
AcDbEntity
  8
0
 62
     0
100
AcDbLine
 10
-404.8749999999999
 20
361.75
 30
0.0
 11
-404.8749999999999
 21
361.8370122704502
 31
0.0
  0
LINE
  5
3E9D
330
3E5F
100
AcDbEntity
  8
0
 62
     0
100
AcDbLine
 10
-404.6249999999999
 20
359.0
 30
0.0
 11
-404.6249999999999
 21
359.125
 31
0.0
  0
LINE
  5
3E9E
330
3E5F
100
AcDbEntity
  8
0
 62
     0
100
AcDbLine
 10
-404.6249999999999
 20
359.25
 30
0.0
 11
-404.6249999999999
 21
359.375
 31
0.0
  0
LINE
  5
3E9F
330
3E5F
100
AcDbEntity
  8
0
 62
     0
100
AcDbLine
 10
-404.6249999999999
 20
359.5
 30
0.0
 11
-404.6249999999999
 21
359.6249999999999
 31
0.0
  0
LINE
  5
3EA0
330
3E5F
100
AcDbEntity
  8
0
 62
     0
100
AcDbLine
 10
-404.6249999999999
 20
359.75
 30
0.0
 11
-404.6249999999999
 21
359.8749999999999
 31
0.0
  0
LINE
  5
3EA1
330
3E5F
100
AcDbEntity
  8
0
 62
     0
100
AcDbLine
 10
-404.6249999999999
 20
360.0
 30
0.0
 11
-404.6249999999999
 21
360.125
 31
0.0
  0
LINE
  5
3EA2
330
3E5F
100
AcDbEntity
  8
0
 62
     0
100
AcDbLine
 10
-404.6249999999999
 20
360.25
 30
0.0
 11
-404.6249999999999
 21
360.375
 31
0.0
  0
LINE
  5
3EA3
330
3E5F
100
AcDbEntity
  8
0
 62
     0
100
AcDbLine
 10
-404.6249999999999
 20
360.4999999999999
 30
0.0
 11
-404.6249999999999
 21
360.625
 31
0.0
  0
LINE
  5
3EA4
330
3E5F
100
AcDbEntity
  8
0
 62
     0
100
AcDbLine
 10
-404.6249999999999
 20
360.7499999999999
 30
0.0
 11
-404.6249999999999
 21
360.875
 31
0.0
  0
LINE
  5
3EA5
330
3E5F
100
AcDbEntity
  8
0
 62
     0
100
AcDbLine
 10
-404.6249999999999
 20
361.0
 30
0.0
 11
-404.6249999999999
 21
361.125
 31
0.0
  0
LINE
  5
3EA6
330
3E5F
100
AcDbEntity
  8
0
 62
     0
100
AcDbLine
 10
-404.6249999999999
 20
361.25
 30
0.0
 11
-404.6249999999999
 21
361.375
 31
0.0
  0
LINE
  5
3EA7
330
3E5F
100
AcDbEntity
  8
0
 62
     0
100
AcDbLine
 10
-404.6249999999999
 20
361.5
 30
0.0
 11
-404.6249999999999
 21
361.6249999999999
 31
0.0
  0
LINE
  5
3EA8
330
3E5F
100
AcDbEntity
  8
0
 62
     0
100
AcDbLine
 10
-404.6249999999999
 20
361.75
 30
0.0
 11
-404.6249999999999
 21
361.8370122704502
 31
0.0
  0
LINE
  5
3EA9
330
3E5F
100
AcDbEntity
  8
0
 62
     0
100
AcDbLine
 10
-404.3749999999999
 20
358.4999999999999
 30
0.0
 11
-404.3749999999999
 21
358.625
 31
0.0
  0
LINE
  5
3EAA
330
3E5F
100
AcDbEntity
  8
0
 62
     0
100
AcDbLine
 10
-404.3749999999999
 20
358.7499999999999
 30
0.0
 11
-404.3749999999999
 21
358.875
 31
0.0
  0
LINE
  5
3EAB
330
3E5F
100
AcDbEntity
  8
0
 62
     0
100
AcDbLine
 10
-404.3749999999999
 20
359.0
 30
0.0
 11
-404.3749999999999
 21
359.125
 31
0.0
  0
LINE
  5
3EAC
330
3E5F
100
AcDbEntity
  8
0
 62
     0
100
AcDbLine
 10
-404.3749999999999
 20
359.25
 30
0.0
 11
-404.3749999999999
 21
359.375
 31
0.0
  0
LINE
  5
3EAD
330
3E5F
100
AcDbEntity
  8
0
 62
     0
100
AcDbLine
 10
-404.3749999999999
 20
359.5
 30
0.0
 11
-404.3749999999999
 21
359.6249999999999
 31
0.0
  0
LINE
  5
3EAE
330
3E5F
100
AcDbEntity
  8
0
 62
     0
100
AcDbLine
 10
-404.3749999999999
 20
359.75
 30
0.0
 11
-404.3749999999999
 21
359.8749999999999
 31
0.0
  0
LINE
  5
3EAF
330
3E5F
100
AcDbEntity
  8
0
 62
     0
100
AcDbLine
 10
-404.3749999999999
 20
360.0
 30
0.0
 11
-404.3749999999999
 21
360.125
 31
0.0
  0
LINE
  5
3EB0
330
3E5F
100
AcDbEntity
  8
0
 62
     0
100
AcDbLine
 10
-404.3749999999999
 20
360.25
 30
0.0
 11
-404.3749999999999
 21
360.375
 31
0.0
  0
LINE
  5
3EB1
330
3E5F
100
AcDbEntity
  8
0
 62
     0
100
AcDbLine
 10
-404.3749999999999
 20
360.4999999999999
 30
0.0
 11
-404.3749999999999
 21
360.625
 31
0.0
  0
LINE
  5
3EB2
330
3E5F
100
AcDbEntity
  8
0
 62
     0
100
AcDbLine
 10
-404.3749999999999
 20
360.7499999999999
 30
0.0
 11
-404.3749999999999
 21
360.875
 31
0.0
  0
LINE
  5
3EB3
330
3E5F
100
AcDbEntity
  8
0
 62
     0
100
AcDbLine
 10
-404.3749999999999
 20
361.0
 30
0.0
 11
-404.3749999999999
 21
361.125
 31
0.0
  0
LINE
  5
3EB4
330
3E5F
100
AcDbEntity
  8
0
 62
     0
100
AcDbLine
 10
-404.3749999999999
 20
361.25
 30
0.0
 11
-404.3749999999999
 21
361.375
 31
0.0
  0
LINE
  5
3EB5
330
3E5F
100
AcDbEntity
  8
0
 62
     0
100
AcDbLine
 10
-404.3749999999999
 20
361.5
 30
0.0
 11
-404.3749999999999
 21
361.6249999999999
 31
0.0
  0
LINE
  5
3EB6
330
3E5F
100
AcDbEntity
  8
0
 62
     0
100
AcDbLine
 10
-404.3749999999999
 20
361.75
 30
0.0
 11
-404.3749999999999
 21
361.8370122704502
 31
0.0
  0
LINE
  5
3EB7
330
3E5F
100
AcDbEntity
  8
0
 62
     0
100
AcDbLine
 10
-404.1249999999999
 20
358.2532249367679
 30
0.0
 11
-404.1249999999999
 21
358.375
 31
0.0
  0
LINE
  5
3EB8
330
3E5F
100
AcDbEntity
  8
0
 62
     0
100
AcDbLine
 10
-404.1249999999999
 20
358.4999999999999
 30
0.0
 11
-404.1249999999999
 21
358.625
 31
0.0
  0
LINE
  5
3EB9
330
3E5F
100
AcDbEntity
  8
0
 62
     0
100
AcDbLine
 10
-404.1249999999999
 20
358.7499999999999
 30
0.0
 11
-404.1249999999999
 21
358.875
 31
0.0
  0
LINE
  5
3EBA
330
3E5F
100
AcDbEntity
  8
0
 62
     0
100
AcDbLine
 10
-404.1249999999999
 20
359.0
 30
0.0
 11
-404.1249999999999
 21
359.125
 31
0.0
  0
LINE
  5
3EBB
330
3E5F
100
AcDbEntity
  8
0
 62
     0
100
AcDbLine
 10
-404.1249999999999
 20
359.25
 30
0.0
 11
-404.1249999999999
 21
359.375
 31
0.0
  0
LINE
  5
3EBC
330
3E5F
100
AcDbEntity
  8
0
 62
     0
100
AcDbLine
 10
-404.1249999999999
 20
359.5
 30
0.0
 11
-404.1249999999999
 21
359.6249999999999
 31
0.0
  0
LINE
  5
3EBD
330
3E5F
100
AcDbEntity
  8
0
 62
     0
100
AcDbLine
 10
-404.1249999999999
 20
359.75
 30
0.0
 11
-404.1249999999999
 21
359.8749999999999
 31
0.0
  0
LINE
  5
3EBE
330
3E5F
100
AcDbEntity
  8
0
 62
     0
100
AcDbLine
 10
-404.1249999999999
 20
360.0
 30
0.0
 11
-404.1249999999999
 21
360.125
 31
0.0
  0
LINE
  5
3EBF
330
3E5F
100
AcDbEntity
  8
0
 62
     0
100
AcDbLine
 10
-404.1249999999999
 20
360.25
 30
0.0
 11
-404.1249999999999
 21
360.375
 31
0.0
  0
LINE
  5
3EC0
330
3E5F
100
AcDbEntity
  8
0
 62
     0
100
AcDbLine
 10
-404.1249999999999
 20
360.4999999999999
 30
0.0
 11
-404.1249999999999
 21
360.625
 31
0.0
  0
LINE
  5
3EC1
330
3E5F
100
AcDbEntity
  8
0
 62
     0
100
AcDbLine
 10
-404.1249999999999
 20
360.7499999999999
 30
0.0
 11
-404.1249999999999
 21
360.875
 31
0.0
  0
LINE
  5
3EC2
330
3E5F
100
AcDbEntity
  8
0
 62
     0
100
AcDbLine
 10
-404.1249999999999
 20
361.0
 30
0.0
 11
-404.1249999999999
 21
361.125
 31
0.0
  0
LINE
  5
3EC3
330
3E5F
100
AcDbEntity
  8
0
 62
     0
100
AcDbLine
 10
-404.1249999999999
 20
361.25
 30
0.0
 11
-404.1249999999999
 21
361.375
 31
0.0
  0
LINE
  5
3EC4
330
3E5F
100
AcDbEntity
  8
0
 62
     0
100
AcDbLine
 10
-404.1249999999999
 20
361.5
 30
0.0
 11
-404.1249999999999
 21
361.6249999999999
 31
0.0
  0
LINE
  5
3EC5
330
3E5F
100
AcDbEntity
  8
0
 62
     0
100
AcDbLine
 10
-404.1249999999999
 20
361.75
 30
0.0
 11
-404.1249999999999
 21
361.8370122704502
 31
0.0
  0
ENDBLK
  5
3EC7
330
3E5F
100
AcDbEntity
  8
0
100
AcDbBlockEnd
  0
BLOCK
  5
3F91
330
3F90
100
AcDbEntity
  8
0
100
AcDbBlockBegin
  2
foul air trap
 70
     0
 10
0.0
 20
0.0
 30
0.0
  3
foul air trap
  1

  0
LINE
  5
3F93
330
3F90
100
AcDbEntity
  8
1
100
AcDbLine
 10
1208.491325910673
 20
1107.075306674516
 30
0.0
 11
1295.12942308226
 21
1107.075306674516
 31
0.0
  0
LINE
  5
3F94
330
3F90
100
AcDbEntity
  8
1
100
AcDbLine
 10
1201.090813605436
 20
1111.395306674516
 30
0.0
 11
1301.071511657789
 21
1111.395306674516
 31
0.0
  0
LINE
  5
3F95
330
3F90
100
AcDbEntity
  8
1
100
AcDbLine
 10
1232.045984437967
 20
1090.084261559292
 30
0.0
 11
1269.990977729441
 21
1090.084261559292
 31
0.0
  0
LINE
  5
3F96
330
3F90
100
AcDbEntity
  8
1
100
AcDbLine
 10
1232.045984437967
 20
1087.456409429085
 30
0.0
 11
1269.625868436242
 21
1087.456409429085
 31
0.0
  0
LINE
  5
3F97
330
3F90
100
AcDbEntity
  8
1
100
AcDbLine
 10
1228.335926437104
 20
1028.132369218754
 30
0.0
 11
1273.335926437104
 21
1028.132369218754
 31
0.0
  0
ARC
  5
3F98
330
3F90
100
AcDbEntity
  8
1
100
AcDbCircle
 10
1253.036451608067
 20
985.8193351931157
 30
0.0
 40
32.96637336539447
100
AcDbArc
 50
51.66227832045801
 51
81.30584230748334
  0
ARC
  5
3F99
330
3F90
100
AcDbEntity
  8
1
100
AcDbCircle
 10
1253.036451608067
 20
985.8193351931157
 30
0.0
 40
33.93862821539447
100
AcDbArc
 50
51.73541606254531
 51
81.43151591761863
  0
LINE
  5
3F9A
330
3F90
100
AcDbEntity
  8
1
100
AcDbLine
 10
1232.045984437967
 20
1087.456409429085
 30
0.0
 11
1232.045984437967
 21
1089.871131139661
 31
0.0
  0
LINE
  5
3F9B
330
3F90
100
AcDbEntity
  8
1
100
AcDbLine
 10
1230.245984437967
 20
1087.456409429085
 30
0.0
 11
1230.245984437967
 21
1089.389543793718
 31
0.0
  0
LINE
  5
3F9C
330
3F90
100
AcDbEntity
  8
1
100
AcDbLine
 10
1228.335926437104
 20
1028.132369218754
 30
0.0
 11
1228.335926437104
 21
1090.708360225801
 31
0.0
  0
ARC
  5
3F9D
330
3F90
100
AcDbEntity
  8
1
100
AcDbCircle
 10
1226.008606951122
 20
1028.129450528705
 30
0.0
 40
17.5005873
100
AcDbArc
 50
183.2361150823935
 51
268.054434265495
  0
LINE
  5
3F9E
330
3F90
100
AcDbEntity
  8
1
100
AcDbLine
 10
1209.435926437104
 20
1026.447911591659
 30
0.0
 11
1209.435926437104
 21
1074.862554575739
 31
0.0
  0
ARC
  5
3F9F
330
3F90
100
AcDbEntity
  8
1
100
AcDbCircle
 10
1225.878499240073
 20
1028.129450528705
 30
0.0
 40
16.52833245
100
AcDbArc
 50
185.8391894377785
 51
266.0563377827114
  0
ARC
  5
3FA0
330
3F90
100
AcDbEntity
  8
1
100
AcDbCircle
 10
1248.565759644177
 20
985.8193351931157
 30
0.0
 40
33.93862821539447
100
AcDbArc
 50
98.56848408238136
 51
128.2645839374547
  0
ARC
  5
3FA1
330
3F90
100
AcDbEntity
  8
1
100
AcDbCircle
 10
1248.565759644177
 20
985.8193351931157
 30
0.0
 40
32.96637336539447
100
AcDbArc
 50
98.69415769251665
 51
128.337721679542
  0
ARC
  5
3FA2
330
3F90
100
AcDbEntity
  8
1
100
AcDbCircle
 10
1225.139331173716
 20
1015.520065373245
 30
0.0
 40
3.8890194
100
AcDbArc
 50
266.0563377827114
 51
308.2645839374547
  0
ARC
  5
3FA3
330
3F90
100
AcDbEntity
  8
1
100
AcDbCircle
 10
1225.10143745401
 20
1015.490137478705
 30
0.0
 40
4.86127425
100
AcDbArc
 50
273.6919127553225
 51
308.3377216795419
  0
LINE
  5
3FA4
330
3F90
100
AcDbEntity
  8
1
100
AcDbLine
 10
1243.509194251122
 20
1019.379156878705
 30
0.0
 11
1258.093017001121
 21
1019.379156878705
 31
0.0
  0
LINE
  5
3FA5
330
3F90
100
AcDbEntity
  8
1
100
AcDbLine
 10
1243.509194251122
 20
1018.406902028704
 30
0.0
 11
1258.093017001121
 21
1018.406902028704
 31
0.0
  0
LINE
  5
3FA6
330
3F90
100
AcDbEntity
  8
1
100
AcDbLine
 10
1211.235926437104
 20
1074.862554575739
 30
0.0
 11
1228.335926437104
 21
1074.862554575739
 31
0.0
  0
LINE
  5
3FA7
330
3F90
100
AcDbEntity
  8
1
100
AcDbLine
 10
1206.432278019232
 20
1075.762554575739
 30
0.0
 11
1226.535926437104
 21
1075.762554575739
 31
0.0
  0
LINE
  5
3FA8
330
3F90
100
AcDbEntity
  8
1
100
AcDbLine
 10
1208.535926437104
 20
1027.141527707834
 30
0.0
 11
1208.535926437104
 21
1073.962554575738
 31
0.0
  0
LINE
  5
3FA9
330
3F90
100
AcDbEntity
  8
1
100
AcDbLine
 10
1210.335926437104
 20
1066.762554575739
 30
0.0
 11
1210.335926437104
 21
1073.962554575738
 31
0.0
  0
LINE
  5
3FAA
330
3F90
100
AcDbEntity
  8
1
100
AcDbLine
 10
1204.750938375634
 20
1073.526543741795
 30
0.0
 11
1208.509843233555
 21
1066.738838687578
 31
0.0
  0
LINE
  5
3FAB
330
3F90
100
AcDbEntity
  8
1
100
AcDbLine
 10
1203.135926437104
 20
1074.585126446083
 30
0.0
 11
1208.535926437104
 21
1064.83398650554
 31
0.0
  0
LINE
  5
3FAC
330
3F90
100
AcDbEntity
  8
1
100
AcDbLine
 10
1209.435926437104
 20
1066.762554575739
 30
0.0
 11
1210.335926437104
 21
1066.762554575739
 31
0.0
  0
LINE
  5
3FAD
330
3F90
100
AcDbEntity
  8
1
100
AcDbLine
 10
1206.432278019232
 20
1074.862554575739
 30
0.0
 11
1207.635926437104
 21
1074.862554575739
 31
0.0
  0
ARC
  5
3FAE
330
3F90
100
AcDbEntity
  8
1
100
AcDbCircle
 10
1208.535926437104
 20
1074.862554575739
 30
0.0
 40
0.9
100
AcDbArc
 50
0.0
 51
90.0
  0
ARC
  5
3FAF
330
3F90
100
AcDbEntity
  8
1
100
AcDbCircle
 10
1204.035926437104
 20
1074.862554575739
 30
0.0
 40
0.9
100
AcDbArc
 50
90.0
 51
180.0
  0
LINE
  5
3FB0
330
3F90
100
AcDbEntity
  8
1
100
AcDbLine
 10
1204.035926437104
 20
1075.762554575739
 30
0.0
 11
1208.535926437104
 21
1075.762554575739
 31
0.0
  0
LINE
  5
3FB1
330
3F90
100
AcDbEntity
  8
1
100
AcDbLine
 10
1205.538272201075
 20
1074.862554575739
 30
0.0
 11
1207.635926437104
 21
1074.862554575739
 31
0.0
  0
ARC
  5
3FB2
330
3F90
100
AcDbEntity
  8
1
100
AcDbCircle
 10
1205.538272201075
 20
1073.962554575738
 30
0.0
 40
0.9
100
AcDbArc
 50
90.0
 51
208.9768687366413
  0
ARC
  5
3FB3
330
3F90
100
AcDbEntity
  8
1
100
AcDbCircle
 10
1211.235926437104
 20
1073.962554575738
 30
0.0
 40
0.9
100
AcDbArc
 50
90.0
 51
180.0
  0
ARC
  5
3FB4
330
3F90
100
AcDbEntity
  8
1
100
AcDbCircle
 10
1207.635926437104
 20
1073.962554575738
 30
0.0
 40
0.9
100
AcDbArc
 50
0.0
 51
90.0
  0
LINE
  5
3FB5
330
3F90
100
AcDbEntity
  8
1
100
AcDbLine
 10
1230.135926437104
 20
1028.132369218754
 30
0.0
 11
1230.135926437104
 21
1076.303742262229
 31
0.0
  0
INSERT
  5
3FB6
330
3F90
100
AcDbEntity
  8
1
100
AcDbBlockReference
  2
*X2
 10
1591.922371740148
 20
749.2103183711959
 30
0.0
 41
0.8999999999999772
 42
0.9000000000000909
 43
0.9
  0
LINE
  5
3FB7
330
3F90
100
AcDbEntity
  8
1
100
AcDbLine
 10
1230.245984437967
 20
1087.456409429085
 30
0.0
 11
1232.045984437966
 21
1087.456409429085
 31
0.0
  0
LINE
  5
3FB8
330
3F90
100
AcDbEntity
  8
1
100
AcDbLine
 10
1227.435926437104
 20
1076.662554575739
 30
0.0
 11
1227.435926437104
 21
1084.762554575739
 31
0.0
  0
ARC
  5
3FB9
330
3F90
100
AcDbEntity
  8
1
100
AcDbCircle
 10
1226.535926437104
 20
1076.662554575739
 30
0.0
 40
0.9
100
AcDbArc
 50
270.0
 51
0.0
  0
LINE
  5
3FBA
330
3F90
100
AcDbEntity
  8
1
100
AcDbLine
 10
1227.435926437104
 20
1084.762554575739
 30
0.0
 11
1228.335926437104
 21
1084.762554575739
 31
0.0
  0
LINE
  5
3FBB
330
3F90
100
AcDbEntity
  8
1
100
AcDbLine
 10
1230.135926437104
 20
1077.03883416508
 30
0.0
 11
1230.135926437104
 21
1087.388767686756
 31
0.0
  0
LINE
  5
3FBC
330
3F90
100
AcDbEntity
  8
1
100
AcDbLine
 10
1212.626944424236
 20
1097.475223166107
 30
0.0
 11
1231.450062716213
 21
1090.718206343347
 31
0.0
  0
LINE
  5
3FBD
330
3F90
100
AcDbEntity
  8
1
100
AcDbLine
 10
1212.268326666004
 20
1096.476216553888
 30
0.0
 11
1229.650062716213
 21
1090.236618997403
 31
0.0
  0
LINE
  5
3FBE
330
3F90
100
AcDbEntity
  8
1
100
AcDbLine
 10
1208.41010697363
 20
1103.966163008732
 30
0.0
 11
1208.41010697363
 21
1103.469262839419
 31
0.0
  0
LINE
  5
3FBF
330
3F90
100
AcDbEntity
  8
1
100
AcDbLine
 10
1207.34868297363
 20
1103.966163008732
 30
0.0
 11
1207.34868297363
 21
1103.469262839418
 31
0.0
  0
ARC
  5
3FC0
330
3F90
100
AcDbEntity
  8
1
100
AcDbCircle
 10
1214.77865097363
 20
1103.469262839419
 30
0.0
 40
6.368543999999999
100
AcDbArc
 50
180.0
 51
250.2531633945705
  0
ARC
  5
3FC1
330
3F90
100
AcDbEntity
  8
1
100
AcDbCircle
 10
1214.77865097363
 20
1103.469262839418
 30
0.0
 40
7.429967999999997
100
AcDbArc
 50
180.0
 51
250.2531633945705
  0
LINE
  5
3FC2
330
3F90
100
AcDbEntity
  8
1
100
AcDbLine
 10
1199.268556683942
 20
1111.396131008732
 30
0.0
 11
1200.98013897363
 21
1111.396131008732
 31
0.0
  0
LINE
  5
3FC3
330
3F90
100
AcDbEntity
  8
1
100
AcDbLine
 10
1199.268556683942
 20
1110.334707008732
 30
0.0
 11
1200.98013897363
 21
1110.334707008732
 31
0.0
  0
LINE
  5
3FC4
330
3F90
100
AcDbEntity
  8
1
100
AcDbLine
 10
1199.268556683942
 20
1111.396131008732
 30
0.0
 11
1199.268556683942
 21
1110.334707008732
 31
0.0
  0
ARC
  5
3FC5
330
3F90
100
AcDbEntity
  8
1
100
AcDbCircle
 10
1200.98013897363
 20
1103.966163008732
 30
0.0
 40
6.368543999999999
100
AcDbArc
 50
0.0
 51
90.0
  0
ARC
  5
3FC6
330
3F90
100
AcDbEntity
  8
1
100
AcDbCircle
 10
1200.98013897363
 20
1103.966163008732
 30
0.0
 40
7.429967999999997
100
AcDbArc
 50
0.0
 51
90.0
  0
ARC
  5
3FC7
330
3F90
100
AcDbEntity
  8
1
100
AcDbCircle
 10
1201.743166891608
 20
1103.966163008732
 30
0.0
 40
7.429967999999997
100
AcDbArc
 50
24.73739265893866
 51
90.0
  0
ARC
  5
3FC8
330
3F90
100
AcDbEntity
  8
1
100
AcDbCircle
 10
1231.145984437967
 20
1089.871131139661
 30
0.0
 40
0.9
100
AcDbArc
 50
0.0
 51
70.25316339457774
  0
ARC
  5
3FC9
330
3F90
100
AcDbEntity
  8
1
100
AcDbCircle
 10
1229.345984437967
 20
1089.389543793718
 30
0.0
 40
0.9
100
AcDbArc
 50
0.0
 51
70.25316339457049
  0
LINE
  5
3FCA
330
3F90
100
AcDbEntity
  8
1
100
AcDbLine
 10
1269.625868436242
 20
1087.456409429085
 30
0.0
 11
1269.625868436242
 21
1089.147327345961
 31
0.0
  0
LINE
  5
3FCB
330
3F90
100
AcDbEntity
  8
1
100
AcDbLine
 10
1271.425868436242
 20
1087.456409429085
 30
0.0
 11
1271.425868436242
 21
1088.665740000018
 31
0.0
  0
LINE
  5
3FCC
330
3F90
100
AcDbEntity
  8
1
100
AcDbLine
 10
1271.535926437104
 20
1028.132369218754
 30
0.0
 11
1271.535926437104
 21
1089.097007478507
 31
0.0
  0
LINE
  5
3FCD
330
3F90
100
AcDbEntity
  8
1
100
AcDbLine
 10
1273.335926437104
 20
1028.132369218754
 30
0.0
 11
1273.335926437104
 21
1089.984556432101
 31
0.0
  0
ARC
  5
3FCE
330
3F90
100
AcDbEntity
  8
1
100
AcDbCircle
 10
1275.72371201217
 20
1028.129450528705
 30
0.0
 40
16.52833245
100
AcDbArc
 50
273.9436622172885
 51
0.0
  0
ARC
  5
3FCF
330
3F90
100
AcDbEntity
  8
1
100
AcDbCircle
 10
1275.593604301122
 20
1028.129450528705
 30
0.0
 40
17.5005873
100
AcDbArc
 50
271.9455657345049
 51
0.0
  0
LINE
  5
3FD0
330
3F90
100
AcDbEntity
  8
1
100
AcDbLine
 10
1293.060256799417
 20
1027.040135905333
 30
0.0
 11
1293.060256799417
 21
1074.142329839042
 31
0.0
  0
ARC
  5
3FD1
330
3F90
100
AcDbEntity
  8
1
100
AcDbCircle
 10
1276.462880078527
 20
1015.520065373245
 30
0.0
 40
3.8890194
100
AcDbArc
 50
231.7354160625453
 51
273.9436622172885
  0
ARC
  5
3FD2
330
3F90
100
AcDbEntity
  8
1
100
AcDbCircle
 10
1276.500773798233
 20
1015.490137478705
 30
0.0
 40
4.86127425
100
AcDbArc
 50
231.6622783204579
 51
266.3080872446775
  0
LINE
  5
3FD3
330
3F90
100
AcDbEntity
  8
1
100
AcDbLine
 10
1292.235926437104
 20
1027.39969141589
 30
0.0
 11
1292.235926437104
 21
1074.862554575739
 31
0.0
  0
LINE
  5
3FD4
330
3F90
100
AcDbEntity
  8
1
100
AcDbLine
 10
1275.135926437104
 20
1075.762554575739
 30
0.0
 11
1296.242513997039
 21
1075.762554575739
 31
0.0
  0
LINE
  5
3FD5
330
3F90
100
AcDbEntity
  8
1
100
AcDbLine
 10
1273.335926437104
 20
1074.862554575739
 30
0.0
 11
1290.435926437104
 21
1074.862554575739
 31
0.0
  0
INSERT
  5
3FD6
330
3F90
100
AcDbEntity
  8
1
100
AcDbBlockReference
  2
*X2
 10
909.7362896308206
 20
749.2103183711959
 30
0.0
 41
-0.8999999999999772
 42
0.9000000000000909
 43
0.9
  0
LINE
  5
3FD7
330
3F90
100
AcDbEntity
  8
1
100
AcDbLine
 10
1271.425868436242
 20
1087.456409429085
 30
0.0
 11
1269.625868436242
 21
1087.456409429085
 31
0.0
  0
LINE
  5
3FD8
330
3F90
100
AcDbEntity
  8
1
100
AcDbLine
 10
1274.235926437104
 20
1076.662554575739
 30
0.0
 11
1274.235926437104
 21
1084.762554575739
 31
0.0
  0
ARC
  5
3FD9
330
3F90
100
AcDbEntity
  8
1
100
AcDbCircle
 10
1275.135926437104
 20
1076.662554575739
 30
0.0
 40
0.9
100
AcDbArc
 50
180.0
 51
270.0
  0
LINE
  5
3FDA
330
3F90
100
AcDbEntity
  8
1
100
AcDbLine
 10
1273.335926437104
 20
1084.762554575739
 30
0.0
 11
1274.235926437104
 21
1084.762554575739
 31
0.0
  0
LINE
  5
3FDB
330
3F90
100
AcDbEntity
  8
1
100
AcDbLine
 10
1296.950070173883
 20
1073.526543741795
 30
0.0
 11
1293.060256799417
 21
1066.50244845346
 31
0.0
  0
LINE
  5
3FDC
330
3F90
100
AcDbEntity
  8
1
100
AcDbLine
 10
1291.335926437104
 20
1066.762554575739
 30
0.0
 11
1291.335926437104
 21
1073.962554575738
 31
0.0
  0
LINE
  5
3FDD
330
3F90
100
AcDbEntity
  8
1
100
AcDbLine
 10
1298.565082112412
 20
1074.585126446083
 30
0.0
 11
1293.060256799417
 21
1064.644696450665
 31
0.0
  0
LINE
  5
3FDE
330
3F90
100
AcDbEntity
  8
1
100
AcDbLine
 10
1291.335926437104
 20
1066.762554575739
 30
0.0
 11
1292.235926437104
 21
1066.762554575739
 31
0.0
  0
LINE
  5
3FDF
330
3F90
100
AcDbEntity
  8
1
100
AcDbLine
 10
1297.665082112413
 20
1075.762554575739
 30
0.0
 11
1293.165082112413
 21
1075.762554575739
 31
0.0
  0
ARC
  5
3FE0
330
3F90
100
AcDbEntity
  8
1
100
AcDbCircle
 10
1293.165082112413
 20
1074.862554575739
 30
0.0
 40
0.9
100
AcDbArc
 50
90.0
 51
180.0
  0
LINE
  5
3FE1
330
3F90
100
AcDbEntity
  8
1
100
AcDbLine
 10
1296.162736348442
 20
1074.862554575739
 30
0.0
 11
1294.065082112412
 21
1074.862554575739
 31
0.0
  0
ARC
  5
3FE2
330
3F90
100
AcDbEntity
  8
1
100
AcDbCircle
 10
1297.665082112413
 20
1074.862554575739
 30
0.0
 40
0.9
100
AcDbArc
 50
0.0
 51
90.0
  0
LINE
  5
3FE3
330
3F90
100
AcDbEntity
  8
1
100
AcDbLine
 10
1298.565082112412
 20
1074.585126446083
 30
0.0
 11
1298.565082112412
 21
1074.862554575739
 31
0.0
  0
ARC
  5
3FE4
330
3F90
100
AcDbEntity
  8
1
100
AcDbCircle
 10
1296.162736348442
 20
1073.962554575738
 30
0.0
 40
0.9
100
AcDbArc
 50
331.0231312633586
 51
90.0
  0
ARC
  5
3FE5
330
3F90
100
AcDbEntity
  8
1
100
AcDbCircle
 10
1293.942118951172
 20
1073.962554575738
 30
0.0
 40
0.9
100
AcDbArc
 50
83.52634024789486
 51
180.0
  0
ARC
  5
3FE6
330
3F90
100
AcDbEntity
  8
1
100
AcDbCircle
 10
1290.435926437104
 20
1073.962554575738
 30
0.0
 40
0.9
100
AcDbArc
 50
0.0
 51
90.0
  0
LINE
  5
3FE7
330
3F90
100
AcDbEntity
  8
1
100
AcDbLine
 10
1290.595634252651
 20
1097.308090173369
 30
0.0
 11
1270.221790157995
 21
1089.994402549646
 31
0.0
  0
LINE
  5
3FE8
330
3F90
100
AcDbEntity
  8
1
100
AcDbLine
 10
1290.954252010884
 20
1096.30908356115
 30
0.0
 11
1272.021790157995
 21
1089.512815203703
 31
0.0
  0
ARC
  5
3FE9
330
3F90
100
AcDbEntity
  8
1
100
AcDbCircle
 10
1270.525868436242
 20
1089.147327345961
 30
0.0
 40
0.9
100
AcDbArc
 50
109.7468366054294
 51
180.0
  0
ARC
  5
3FEA
330
3F90
100
AcDbEntity
  8
1
100
AcDbCircle
 10
1272.325868436242
 20
1088.665740000018
 30
0.0
 40
0.9
100
AcDbArc
 50
109.7468366054294
 51
180.0
  0
LINE
  5
3FEB
330
3F90
100
AcDbEntity
  8
1
100
AcDbLine
 10
1295.873895703258
 20
1103.799030015994
 30
0.0
 11
1295.873895703257
 21
1103.30212984668
 31
0.0
  0
LINE
  5
3FEC
330
3F90
100
AcDbEntity
  8
1
100
AcDbLine
 10
1294.812471703258
 20
1103.799030015994
 30
0.0
 11
1294.812471703258
 21
1103.30212984668
 31
0.0
  0
ARC
  5
3FED
330
3F90
100
AcDbEntity
  8
1
100
AcDbCircle
 10
1288.443927703257
 20
1103.30212984668
 30
0.0
 40
7.429967999999997
100
AcDbArc
 50
289.7468366054294
 51
0.0
  0
ARC
  5
3FEE
330
3F90
100
AcDbEntity
  8
1
100
AcDbCircle
 10
1288.443927703258
 20
1103.30212984668
 30
0.0
 40
6.368543999999999
100
AcDbArc
 50
289.7468366054294
 51
0.0
  0
ARC
  5
3FEF
330
3F90
100
AcDbEntity
  8
1
100
AcDbCircle
 10
1302.174743641883
 20
1103.8275830409
 30
0.0
 40
6.300912633968847
100
AcDbArc
 50
87.89156686214006
 51
180.2596407082099
  0
LINE
  5
3FF0
330
3F90
100
AcDbEntity
  8
1
100
AcDbLine
 10
1304.466416769479
 20
1111.184829556718
 30
0.0
 11
1301.433496179113
 21
1111.184829556718
 31
0.0
  0
ARC
  5
3FF1
330
3F90
100
AcDbEntity
  8
1
100
AcDbCircle
 10
1302.242439703257
 20
1103.799030015994
 30
0.0
 40
7.429967999999997
100
AcDbArc
 50
96.25051298958091
 51
180.0
  0
ARC
  5
3FF2
330
3F90
100
AcDbEntity
  8
1
100
AcDbCircle
 10
1301.898277976136
 20
1104.01148097669
 30
0.0
 40
7.429967999999997
100
AcDbArc
 50
96.25051298958091
 51
155.6467925743058
  0
LINE
  5
3FF3
330
3F90
100
AcDbEntity
  8
1
100
AcDbLine
 10
1304.466416769479
 20
1110.124229890934
 30
0.0
 11
1302.423286532922
 21
1110.124229890934
 31
0.0
  0
LINE
  5
3FF4
330
3F90
100
AcDbEntity
  8
1
100
AcDbLine
 10
1304.466416769479
 20
1111.185653890934
 30
0.0
 11
1304.466416769479
 21
1110.124229890934
 31
0.0
  0
ENDBLK
  5
3F92
330
3F90
100
AcDbEntity
  8
0
100
AcDbBlockEnd
  0
BLOCK
  5
4175
330
4172
100
AcDbEntity
  8
1
100
AcDbBlockBegin
  2
WELD
 70
     0
 10
0.0
 20
0.0
 30
0.0
  3
WELD
  1

  0
INSERT
  5
4173
330
4172
100
AcDbEntity
  8
1
100
AcDbBlockReference
  2
*X6
 10
1807.918320525746
 20
-1230.1583404367
 30
0.0
  0
LWPOLYLINE
  5
4174
330
4172
100
AcDbEntity
  8
1
100
AcDbPolyline
 90
        3
 70
     1
 43
0.0
 10
-0.7264291908145424
 20
0.4224310227373281
 10
1.894316483983402
 20
0.4224310227373281
 10
-0.7264291908145424
 20
-2.032451147131723
  0
ENDBLK
  5
4176
330
4172
100
AcDbEntity
  8
1
100
AcDbBlockEnd
  0
BLOCK
  5
4187
330
4177
100
AcDbEntity
  8
1
100
AcDbBlockBegin
  2
*X6
 70
     1
 10
0.0
 20
0.0
 30
0.0
  3
*X6
  1

  0
LINE
  5
4178
330
4177
100
AcDbEntity
  8
0
 62
     0
100
AcDbLine
 10
-1807.05572592346
 20
1229.614345882168
 30
0.0
 11
-1806.089300346191
 21
1230.580771459437
 31
0.0
  0
LINE
  5
4179
330
4177
100
AcDbEntity
  8
0
 62
     0
100
AcDbLine
 10
-1808.644749716561
 20
1228.202098784364
 30
0.0
 11
-1806.266077041487
 21
1230.580771459437
 31
0.0
  0
LINE
  5
417A
330
4177
100
AcDbEntity
  8
0
 62
     0
100
AcDbLine
 10
-1808.644749716561
 20
1228.37887547966
 30
0.0
 11
-1806.442853736784
 21
1230.580771459437
 31
0.0
  0
LINE
  5
417B
330
4177
100
AcDbEntity
  8
0
 62
     0
100
AcDbLine
 10
-1808.644749716561
 20
1228.555652174957
 30
0.0
 11
-1806.619630432081
 21
1230.580771459437
 31
0.0
  0
LINE
  5
417C
330
4177
100
AcDbEntity
  8
0
 62
     0
100
AcDbLine
 10
-1808.644749716561
 20
1228.732428870254
 30
0.0
 11
-1806.796407127377
 21
1230.580771459437
 31
0.0
  0
LINE
  5
417D
330
4177
100
AcDbEntity
  8
0
 62
     0
100
AcDbLine
 10
-1808.644749716561
 20
1228.909205565551
 30
0.0
 11
-1806.973183822674
 21
1230.580771459437
 31
0.0
  0
LINE
  5
417E
330
4177
100
AcDbEntity
  8
0
 62
     0
100
AcDbLine
 10
-1808.644749716561
 20
1229.085982260847
 30
0.0
 11
-1807.149960517971
 21
1230.580771459437
 31
0.0
  0
LINE
  5
417F
330
4177
100
AcDbEntity
  8
0
 62
     0
100
AcDbLine
 10
-1808.644749716561
 20
1229.262758956144
 30
0.0
 11
-1807.326737213267
 21
1230.580771459437
 31
0.0
  0
LINE
  5
4180
330
4177
100
AcDbEntity
  8
0
 62
     0
100
AcDbLine
 10
-1808.644749716561
 20
1229.43953565144
 30
0.0
 11
-1807.503513908564
 21
1230.580771459437
 31
0.0
  0
LINE
  5
4181
330
4177
100
AcDbEntity
  8
0
 62
     0
100
AcDbLine
 10
-1808.644749716561
 20
1229.616312346737
 30
0.0
 11
-1807.68029060386
 21
1230.580771459437
 31
0.0
  0
LINE
  5
4182
330
4177
100
AcDbEntity
  8
0
 62
     0
100
AcDbLine
 10
-1808.644749716561
 20
1229.793089042034
 30
0.0
 11
-1807.857067299157
 21
1230.580771459437
 31
0.0
  0
LINE
  5
4183
330
4177
100
AcDbEntity
  8
0
 62
     0
100
AcDbLine
 10
-1808.644749716561
 20
1229.96986573733
 30
0.0
 11
-1808.033843994454
 21
1230.580771459437
 31
0.0
  0
LINE
  5
4184
330
4177
100
AcDbEntity
  8
0
 62
     0
100
AcDbLine
 10
-1808.644749716561
 20
1230.146642432627
 30
0.0
 11
-1808.210620689751
 21
1230.580771459437
 31
0.0
  0
LINE
  5
4185
330
4177
100
AcDbEntity
  8
0
 62
     0
100
AcDbLine
 10
-1808.644749716561
 20
1230.323419127923
 30
0.0
 11
-1808.387397385047
 21
1230.580771459437
 31
0.0
  0
LINE
  5
4186
330
4177
100
AcDbEntity
  8
0
 62
     0
100
AcDbLine
 10
-1808.644749716561
 20
1230.50019582322
 30
0.0
 11
-1808.564174080344
 21
1230.580771459437
 31
0.0
  0
ENDBLK
  5
4188
330
4177
100
AcDbEntity
  8
1
100
AcDbBlockEnd
  0
BLOCK
  5
4779
330
476F
100
AcDbEntity
  8
0
100
AcDbBlockBegin
  2
*D7
 70
     1
 10
0.0
 20
0.0
 30
0.0
  3
*D7
  1

  0
LINE
  5
4B6B
330
476F
100
AcDbEntity
  8
1
 62
     0
370
    -2
100
AcDbLine
 10
1941.130076671105
 20
1113.859369078113
 30
0.0
 11
1941.130076671105
 21
1133.658118974455
 31
0.0
  0
LINE
  5
4B6C
330
476F
100
AcDbEntity
  8
1
 62
     0
370
    -2
100
AcDbLine
 10
2166.024188505644
 20
1113.859369078113
 30
0.0
 11
2166.024188505644
 21
1133.658118974455
 31
0.0
  0
LINE
  5
4B6D
330
476F
100
AcDbEntity
  8
1
 62
     0
370
    -2
100
AcDbLine
 10
1948.030076671105
 20
1128.258118974455
 30
0.0
 11
2159.124188505644
 21
1128.258118974455
 31
0.0
  0
SOLID
  5
4B6E
330
476F
100
AcDbEntity
  8
1
 62
     0
100
AcDbTrace
 10
1948.030076671105
 20
1129.408118974455
 30
0.0
 11
1948.030076671105
 21
1127.108118974454
 31
0.0
 12
1941.130076671105
 22
1128.258118974455
 32
0.0
 13
1941.130076671105
 23
1128.258118974455
 33
0.0
  0
SOLID
  5
4B6F
330
476F
100
AcDbEntity
  8
1
 62
     0
100
AcDbTrace
 10
2159.124188505644
 20
1129.408118974455
 30
0.0
 11
2159.124188505644
 21
1127.108118974454
 31
0.0
 12
2166.024188505644
 22
1128.258118974455
 32
0.0
 13
2166.024188505644
 23
1128.258118974455
 33
0.0
  0
MTEXT
  5
4B70
330
476F
100
AcDbEntity
  8
1
 62
     0
100
AcDbMText
 10
2053.577132588374
 20
1134.725882132349
 30
0.0
 40
6.899999999999999
 41
0.0
 71
     5
 72
     1
  1
\A1;%%C225
 73
     1
 44
1.0
  0
POINT
  5
4B71
330
476F
100
AcDbEntity
  8
DEFPOINTS
 62
     0
100
AcDbPoint
 10
1941.130076671105
 20
1110.259369078113
 30
0.0
  0
POINT
  5
4B72
330
476F
100
AcDbEntity
  8
DEFPOINTS
 62
     0
100
AcDbPoint
 10
2166.024188505644
 20
1110.259369078113
 30
0.0
  0
POINT
  5
4B73
330
476F
100
AcDbEntity
  8
DEFPOINTS
 62
     0
100
AcDbPoint
 10
2166.024188505644
 20
1128.258118974455
 30
0.0
  0
ENDBLK
  5
477A
330
476F
100
AcDbEntity
  8
0
100
AcDbBlockEnd
  0
BLOCK
  5
47E1
330
47C9
100
AcDbEntity
  8
0
100
AcDbBlockBegin
  2
*X8
 70
     1
 10
0.0
 20
0.0
 30
0.0
  3
*X8
  1

  0
LINE
  5
47CA
330
47C9
100
AcDbEntity
  8
0
 62
     0
100
AcDbLine
 10
-623.9302995495728
 20
381.5755432976977
 30
0.0
 11
-614.5617905610542
 21
390.9440522862163
 31
0.0
  0
LINE
  5
47CB
330
47C9
100
AcDbEntity
  8
0
 62
     0
100
AcDbLine
 10
-613.8056723237488
 20
391.7001705235218
 30
0.0
 11
-612.8808332083372
 21
392.6250096389334
 31
0.0
  0
LINE
  5
47CC
330
47C9
100
AcDbEntity
  8
0
 62
     0
100
AcDbLine
 10
-628.4449997445888
 20
383.4248041333607
 30
0.0
 11
-615.423555435972
 21
396.4462484419775
 31
0.0
  0
LINE
  5
47CD
330
47C9
100
AcDbEntity
  8
0
 62
     0
100
AcDbLine
 10
-629.5370516436562
 20
388.6967132649721
 30
0.0
 11
-621.7875164666509
 21
396.4462484419775
 31
0.0
  0
LINE
  5
47CE
330
47C9
100
AcDbEntity
  8
0
 62
     0
100
AcDbLine
 10
-628.4449997445888
 20
396.1527261947185
 30
0.0
 11
-628.1514774973299
 21
396.4462484419775
 31
0.0
  0
LINE
  5
47CF
330
47C9
100
AcDbEntity
  8
0
 62
     0
100
AcDbLine
 10
-617.5663385188937
 20
381.5755432976978
 30
0.0
 11
-615.0268103541512
 21
384.1150714624404
 31
0.0
  0
LINE
  5
47D0
330
47C9
100
AcDbEntity
  8
0
 62
     0
100
AcDbLine
 10
-622.8696393795728
 20
381.5755432976978
 30
0.0
 11
-614.8545140772688
 21
389.5906686000015
 31
0.0
  0
LINE
  5
47D1
330
47C9
100
AcDbEntity
  8
0
 62
     0
100
AcDbLine
 10
-614.1429190600059
 20
390.3022636172646
 30
0.0
 11
-612.5160076678881
 21
391.9291750093825
 31
0.0
  0
LINE
  5
47D2
330
47C9
100
AcDbEntity
  8
0
 62
     0
100
AcDbLine
 10
-628.4449997445888
 20
382.3641439633607
 30
0.0
 11
-614.6206702372349
 21
396.1884734707144
 31
0.0
  0
LINE
  5
47D3
330
47C9
100
AcDbEntity
  8
0
 62
     0
100
AcDbLine
 10
-629.5370516436562
 20
387.6360530949721
 30
0.0
 11
-620.7268562966508
 21
396.4462484419775
 31
0.0
  0
LINE
  5
47D4
330
47C9
100
AcDbEntity
  8
0
 62
     0
100
AcDbLine
 10
-628.4449997445888
 20
395.0920660247185
 30
0.0
 11
-627.0908173273299
 21
396.4462484419775
 31
0.0
  0
LINE
  5
47D5
330
47C9
100
AcDbEntity
  8
0
 62
     0
100
AcDbLine
 10
-616.5056783488937
 20
381.5755432976978
 30
0.0
 11
-615.265230655631
 21
382.8159909909605
 31
0.0
  0
LINE
  5
47D6
330
47C9
100
AcDbEntity
  8
0
 62
     0
100
AcDbLine
 10
-628.1729402342518
 20
381.5755432976976
 30
0.0
 11
-614.4213801978793
 21
395.3271033340702
 31
0.0
  0
LINE
  5
47D7
330
47C9
100
AcDbEntity
  8
0
 62
     0
100
AcDbLine
 10
-628.6793799970198
 20
387.4330645656086
 30
0.0
 11
-619.6661961206509
 21
396.4462484419775
 31
0.0
  0
LINE
  5
47D8
330
47C9
100
AcDbEntity
  8
0
 62
     0
100
AcDbLine
 10
-628.4449997445889
 20
394.0314058487185
 30
0.0
 11
-626.0301571513299
 21
396.4462484419775
 31
0.0
  0
LINE
  5
47D9
330
47C9
100
AcDbEntity
  8
0
 62
     0
100
AcDbLine
 10
-621.8089792035729
 20
381.5755432976978
 30
0.0
 11
-615.0348342961568
 21
388.3496882051137
 31
0.0
  0
LINE
  5
47DA
330
47C9
100
AcDbEntity
  8
0
 62
     0
100
AcDbLine
 10
-614.480165798171
 20
388.9043567030997
 30
0.0
 11
-612.8532407135801
 21
390.5312817876904
 31
0.0
  0
LINE
  5
47DB
330
47C9
100
AcDbEntity
  8
0
 62
     0
100
AcDbLine
 10
-615.4450181728938
 20
381.5755432976978
 30
0.0
 11
-615.1101886743479
 21
381.9103727962438
 31
0.0
  0
LINE
  5
47DC
330
47C9
100
AcDbEntity
  8
0
 62
     0
100
AcDbLine
 10
-627.1122800642518
 20
381.5755432976976
 30
0.0
 11
-614.2220901596509
 21
394.4657332022986
 31
0.0
  0
LINE
  5
47DD
330
47C9
100
AcDbEntity
  8
0
 62
     0
100
AcDbLine
 10
-628.4449997445888
 20
386.6067846480396
 30
0.0
 11
-618.6055359506509
 21
396.4462484419775
 31
0.0
  0
LINE
  5
47DE
330
47C9
100
AcDbEntity
  8
0
 62
     0
100
AcDbLine
 10
-628.4449997445889
 20
392.9707456787186
 30
0.0
 11
-624.9694969813299
 21
396.4462484419775
 31
0.0
  0
LINE
  5
47DF
330
47C9
100
AcDbEntity
  8
0
 62
     0
100
AcDbLine
 10
-620.7483190335728
 20
381.5755432976978
 30
0.0
 11
-614.9847325819527
 21
387.3391297493179
 31
0.0
  0
LINE
  5
47E0
330
47C9
100
AcDbEntity
  8
0
 62
     0
100
AcDbLine
 10
-614.8174125344281
 20
387.5064497968425
 30
0.0
 11
-613.1904874498374
 21
389.1333748814332
 31
0.0
  0
ENDBLK
  5
47E2
330
47C9
100
AcDbEntity
  8
0
100
AcDbBlockEnd
  0
BLOCK
  5
4B15
330
4B14
100
AcDbEntity
  8
0
100
AcDbBlockBegin
  2
BODY
 70
     0
 10
0.0
 20
0.0
 30
0.0
  3
BODY
  1

  0
LINE
  5
4B17
330
4B14
100
AcDbEntity
  8
1
100
AcDbLine
 10
2879.449670451817
 20
1037.376563944991
 30
0.0
 11
2879.449670451819
 21
963.461743449452
 31
0.0
  0
LINE
  5
4B18
330
4B14
100
AcDbEntity
  8
1
100
AcDbLine
 10
2880.949670451817
 20
1037.376563944991
 30
0.0
 11
2880.949670451819
 21
963.4617434494513
 31
0.0
  0
LINE
  5
4B19
330
4B14
100
AcDbEntity
  8
1
100
AcDbLine
 10
2988.949670451818
 20
1037.376563944991
 30
0.0
 11
2988.949670451816
 21
963.3957679859951
 31
0.0
  0
LINE
  5
4B1A
330
4B14
100
AcDbEntity
  8
1
100
AcDbLine
 10
2990.449670451818
 20
1037.376563944991
 30
0.0
 11
2990.449670451815
 21
963.3957679859953
 31
0.0
  0
LINE
  5
4B1B
330
4B14
100
AcDbEntity
  8
1
100
AcDbLine
 10
2881.90156175463
 20
956.4581037357163
 30
0.0
 11
2988.020876377255
 21
956.4581037357163
 31
0.0
  0
LINE
  5
4B1C
330
4B14
100
AcDbEntity
  8
1
100
AcDbLine
 10
2880.949670451819
 20
963.461743449452
 30
0.0
 11
2883.40156175463
 21
956.4581037357163
 31
0.0
  0
LINE
  5
4B1D
330
4B14
100
AcDbEntity
  8
1
100
AcDbLine
 10
2879.449670451819
 20
963.461743449452
 30
0.0
 11
2881.90156175463
 21
956.4581037357163
 31
0.0
  0
LINE
  5
4B1E
330
4B14
100
AcDbEntity
  8
1
100
AcDbLine
 10
2988.961219065941
 20
963.4287557177232
 30
0.0
 11
2986.520876377255
 21
956.4581037357163
 31
0.0
  0
LINE
  5
4B1F
330
4B14
100
AcDbEntity
  8
1
100
AcDbLine
 10
2990.449670451815
 20
963.3957679859953
 30
0.0
 11
2988.020876377255
 21
956.4581037357163
 31
0.0
  0
LINE
  5
4B20
330
4B14
100
AcDbEntity
  8
1
100
AcDbLine
 10
2859.949670451817
 20
1140.87656394499
 30
0.0
 11
2859.949670451817
 21
1046.876563944991
 31
0.0
  0
LINE
  5
4B21
330
4B14
100
AcDbEntity
  8
1
100
AcDbLine
 10
2860.949670451818
 20
1140.87656394499
 30
0.0
 11
2860.949670451818
 21
1047.521747808954
 31
0.0
  0
LINE
  5
4B22
330
4B14
100
AcDbEntity
  8
1
100
AcDbLine
 10
2860.949670451818
 20
1047.521747808954
 30
0.0
 11
2881.949670451818
 21
1038.021747808954
 31
0.0
  0
LINE
  5
4B23
330
4B14
100
AcDbEntity
  8
1
100
AcDbLine
 10
2859.949670451817
 20
1046.876563944991
 30
0.0
 11
2880.949670451817
 21
1037.376563944991
 31
0.0
  0
LINE
  5
4B24
330
4B14
100
AcDbEntity
  8
1
100
AcDbLine
 10
2881.949670451818
 20
1038.021747808954
 30
0.0
 11
2881.949670451818
 21
1029.87656394499
 31
0.0
  0
LINE
  5
4B25
330
4B14
100
AcDbEntity
  8
1
100
AcDbLine
 10
2880.949670451817
 20
1037.376563944991
 30
0.0
 11
2879.449670451817
 21
1037.376563944991
 31
0.0
  0
LINE
  5
4B26
330
4B14
100
AcDbEntity
  8
1
100
AcDbLine
 10
3008.949670451817
 20
1140.87656394499
 30
0.0
 11
3008.949670451817
 21
1047.521747808954
 31
0.0
  0
LINE
  5
4B27
330
4B14
100
AcDbEntity
  8
1
100
AcDbLine
 10
3009.949670451817
 20
1140.87656394499
 30
0.0
 11
3009.949670451817
 21
1046.876563944991
 31
0.0
  0
LINE
  5
4B28
330
4B14
100
AcDbEntity
  8
1
100
AcDbLine
 10
3009.949670451817
 20
1046.876563944991
 30
0.0
 11
2988.949670451818
 21
1037.376563944991
 31
0.0
  0
LINE
  5
4B29
330
4B14
100
AcDbEntity
  8
1
100
AcDbLine
 10
3008.949670451817
 20
1047.521747808954
 30
0.0
 11
2987.949670451818
 21
1038.021747808954
 31
0.0
  0
LINE
  5
4B2A
330
4B14
100
AcDbEntity
  8
1
100
AcDbLine
 10
2988.949670451818
 20
1037.376563944991
 30
0.0
 11
2990.449670451818
 21
1037.376563944991
 31
0.0
  0
LINE
  5
4B2B
330
4B14
100
AcDbEntity
  8
1
100
AcDbLine
 10
2987.949670451818
 20
1038.021747808954
 30
0.0
 11
2987.949670451818
 21
1029.87656394499
 31
0.0
  0
LWPOLYLINE
  5
4B2C
330
4B14
100
AcDbEntity
  8
1
100
AcDbPolyline
 90
        5
 70
     0
 43
0.0
 10
2876.798522128624
 20
1128.495116010886
 10
2875.60113468058
 20
1126.770002547996
 10
2875.60113468058
 20
1125.973348407993
 10
2875.60113468058
 20
1125.375857802991
 10
2875.867325671747
 20
1124.573973951903
  0
LINE
  5
4B2D
330
4B14
100
AcDbEntity
  8
1
100
AcDbLine
 10
2861.245195599236
 20
1124.200043446556
 30
0.0
 11
2861.245195599236
 21
1130.200043446556
 31
0.0
  0
LINE
  5
4B2E
330
4B14
100
AcDbEntity
  8
1
100
AcDbLine
 10
2862.131361557112
 20
1124.700043446556
 30
0.0
 11
2862.131361557112
 21
1130.200043446556
 31
0.0
  0
LINE
  5
4B2F
330
4B14
100
AcDbEntity
  8
1
100
AcDbLine
 10
2862.421365591623
 20
1124.573973951903
 30
0.0
 11
2862.421365591623
 21
1130.431495219814
 31
0.0
  0
INSERT
  5
4B30
330
4B14
100
AcDbEntity
  8
1
100
AcDbBlockReference
  2
*X8
 10
3490.866365336211
 20
742.9984306542055
 30
0.0
  0
LINE
  5
4B31
330
4B14
100
AcDbEntity
  8
1
100
AcDbLine
 10
2877.972065105573
 20
1123.200043446556
 30
0.0
 11
2862.245195599236
 21
1123.200043446556
 31
0.0
  0
LINE
  5
4B32
330
4B14
100
AcDbEntity
  8
1
100
AcDbLine
 10
2877.972065105573
 20
1124.200043446556
 30
0.0
 11
2862.631361557112
 21
1124.200043446556
 31
0.0
  0
LINE
  5
4B33
330
4B14
100
AcDbEntity
  8
1
100
AcDbLine
 10
2862.421365591623
 20
1124.573973951903
 30
0.0
 11
2875.867325671747
 21
1124.573973951903
 31
0.0
  0
ARC
  5
4B34
330
4B14
100
AcDbEntity
  8
1
100
AcDbCircle
 10
2862.631361557112
 20
1124.700043446556
 30
0.0
 40
0.5
100
AcDbArc
 50
180.0
 51
270.0
  0
ARC
  5
4B35
330
4B14
100
AcDbEntity
  8
1
100
AcDbCircle
 10
2862.245195599236
 20
1124.200043446556
 30
0.0
 40
1.0
100
AcDbArc
 50
180.0
 51
270.0
  0
LINE
  5
4B36
330
4B14
100
AcDbEntity
  8
1
100
AcDbLine
 10
2877.972065105573
 20
1124.200043446556
 30
0.0
 11
2877.972065105573
 21
1123.200043446556
 31
0.0
  0
LINE
  5
4B37
330
4B14
100
AcDbEntity
  8
1
100
AcDbLine
 10
2862.421365591623
 20
1139.444679096183
 30
0.0
 11
2876.186055250807
 21
1139.444679096183
 31
0.0
  0
LINE
  5
4B38
330
4B14
100
AcDbEntity
  8
1
100
AcDbLine
 10
2877.972065105572
 20
1139.849975431699
 30
0.0
 11
2862.631361557112
 21
1139.849975431699
 31
0.0
  0
LINE
  5
4B39
330
4B14
100
AcDbEntity
  8
1
100
AcDbLine
 10
2877.972065105572
 20
1140.849975431699
 30
0.0
 11
2862.245195599236
 21
1140.849975431699
 31
0.0
  0
LINE
  5
4B3A
330
4B14
100
AcDbEntity
  8
1
100
AcDbLine
 10
2859.949670451817
 20
1140.87656394499
 30
0.0
 11
2860.949670451818
 21
1140.87656394499
 31
0.0
  0
LINE
  5
4B3B
330
4B14
100
AcDbEntity
  8
1
100
AcDbLine
 10
2862.421365591623
 20
1139.444679096183
 30
0.0
 11
2862.421365591623
 21
1133.624189639103
 31
0.0
  0
LINE
  5
4B3C
330
4B14
100
AcDbEntity
  8
1
100
AcDbLine
 10
2861.245195599236
 20
1139.849975431699
 30
0.0
 11
2861.245195599236
 21
1133.849975431699
 31
0.0
  0
LINE
  5
4B3D
330
4B14
100
AcDbEntity
  8
1
100
AcDbLine
 10
2862.131361557112
 20
1139.349975431699
 30
0.0
 11
2862.131361557112
 21
1133.849975431699
 31
0.0
  0
LINE
  5
4B3E
330
4B14
100
AcDbEntity
  8
1
100
AcDbLine
 10
2862.421365591623
 20
1133.624189639103
 30
0.0
 11
2861.329313692555
 21
1133.624189639103
 31
0.0
  0
LINE
  5
4B3F
330
4B14
100
AcDbEntity
  8
1
100
AcDbLine
 10
2862.131361557112
 20
1133.849975431699
 30
0.0
 11
2861.245195599236
 21
1133.849975431699
 31
0.0
  0
ARC
  5
4B40
330
4B14
100
AcDbEntity
  8
1
100
AcDbCircle
 10
2862.631361557112
 20
1139.349975431699
 30
0.0
 40
0.5
100
AcDbArc
 50
90.0
 51
180.0
  0
LINE
  5
4B41
330
4B14
100
AcDbEntity
  8
1
100
AcDbLine
 10
2862.131361557112
 20
1130.200043446556
 30
0.0
 11
2861.245195599236
 21
1130.200043446556
 31
0.0
  0
LINE
  5
4B42
330
4B14
100
AcDbEntity
  8
1
100
AcDbLine
 10
2862.421365591623
 20
1130.431495219814
 30
0.0
 11
2861.329313692555
 21
1130.431495219814
 31
0.0
  0
LINE
  5
4B43
330
4B14
100
AcDbEntity
  8
1
100
AcDbLine
 10
2861.329313692555
 20
1133.624189639103
 30
0.0
 11
2861.329313692555
 21
1130.431495219814
 31
0.0
  0
ARC
  5
4B44
330
4B14
100
AcDbEntity
  8
1
100
AcDbCircle
 10
2862.245195599236
 20
1139.849975431699
 30
0.0
 40
1.0
100
AcDbArc
 50
90.0
 51
180.0
  0
ARC
  5
4B45
330
4B14
100
AcDbEntity
  8
1
100
AcDbCircle
 10
2877.766284690739
 20
1135.064932852368
 30
0.0
 40
0.5999999999999909
100
AcDbArc
 50
346.43650119414
 51
166.4365011941463
  0
LWPOLYLINE
  5
4B46
330
4B14
100
AcDbEntity
  8
1
100
AcDbPolyline
 90
        7
 70
     0
 43
0.0
 10
2876.186055250807
 20
1139.444679096183
 10
2876.660957934162
 20
1137.392057748035
 10
2876.753116477951
 20
1135.533198088028
 10
2876.154085943319
 20
1133.408787048021
 10
2875.831531040054
 20
1131.549927388014
 10
2875.831531040054
 20
1130.55410971301
 10
2875.943781744325
 20
1130.068940435167
  0
LINE
  5
4B47
330
4B14
100
AcDbEntity
  8
1
100
AcDbLine
 10
2875.943781744325
 20
1130.068940435167
 30
0.0
 11
2877.18301832811
 21
1135.205646569629
 31
0.0
  0
LINE
  5
4B48
330
4B14
100
AcDbEntity
  8
1
100
AcDbLine
 10
2876.798522128624
 20
1128.495116010886
 30
0.0
 11
2878.349551053368
 21
1134.924219135106
 31
0.0
  0
LINE
  5
4B49
330
4B14
100
AcDbEntity
  8
1
100
AcDbLine
 10
2877.972065105572
 20
1140.849975431699
 30
0.0
 11
2877.972065105572
 21
1139.849975431699
 31
0.0
  0
LINE
  5
4B4A
330
4B14
100
AcDbEntity
  8
1
100
AcDbLine
 10
3007.477975312012
 20
1124.573973951903
 30
0.0
 11
3007.477975312012
 21
1130.431495219814
 31
0.0
  0
LINE
  5
4B4B
330
4B14
100
AcDbEntity
  8
1
100
AcDbLine
 10
3008.654145304399
 20
1124.200043446556
 30
0.0
 11
3008.654145304399
 21
1130.200043446556
 31
0.0
  0
LINE
  5
4B4C
330
4B14
100
AcDbEntity
  8
1
100
AcDbLine
 10
3007.767979346523
 20
1124.700043446556
 30
0.0
 11
3007.767979346523
 21
1130.200043446556
 31
0.0
  0
LWPOLYLINE
  5
4B4D
330
4B14
100
AcDbEntity
  8
1
100
AcDbPolyline
 90
        5
 70
     0
 43
0.0
 10
2993.100818775011
 20
1128.495116010886
 10
2994.298206223054
 20
1126.770002547996
 10
2994.298206223054
 20
1125.973348407993
 10
2994.298206223054
 20
1125.375857802991
 10
2994.032015231888
 20
1124.573973951903
  0
INSERT
  5
4B4E
330
4B14
100
AcDbEntity
  8
1
100
AcDbBlockReference
  2
*X8
 10
2379.032975567422
 20
742.9984306542055
 30
0.0
 41
-1.0
  0
ARC
  5
4B4F
330
4B14
100
AcDbEntity
  8
1
100
AcDbCircle
 10
3007.267979346523
 20
1124.700043446556
 30
0.0
 40
0.5
100
AcDbArc
 50
270.0
 51
0.0
  0
LINE
  5
4B50
330
4B14
100
AcDbEntity
  8
1
100
AcDbLine
 10
2991.927275798062
 20
1124.200043446556
 30
0.0
 11
2991.927275798062
 21
1123.200043446556
 31
0.0
  0
LINE
  5
4B51
330
4B14
100
AcDbEntity
  8
1
100
AcDbLine
 10
3007.477975312012
 20
1124.573973951903
 30
0.0
 11
2994.032015231888
 21
1124.573973951903
 31
0.0
  0
LINE
  5
4B52
330
4B14
100
AcDbEntity
  8
1
100
AcDbLine
 10
2991.927275798062
 20
1123.200043446556
 30
0.0
 11
3007.654145304399
 21
1123.200043446556
 31
0.0
  0
LINE
  5
4B53
330
4B14
100
AcDbEntity
  8
1
100
AcDbLine
 10
2991.927275798062
 20
1124.200043446556
 30
0.0
 11
3007.267979346523
 21
1124.200043446556
 31
0.0
  0
ARC
  5
4B54
330
4B14
100
AcDbEntity
  8
1
100
AcDbCircle
 10
3007.654145304399
 20
1124.200043446556
 30
0.0
 40
1.0
100
AcDbArc
 50
270.0
 51
0.0
  0
LINE
  5
4B55
330
4B14
100
AcDbEntity
  8
1
100
AcDbLine
 10
3009.949670451817
 20
1140.87656394499
 30
0.0
 11
3008.949670451817
 21
1140.87656394499
 31
0.0
  0
LINE
  5
4B56
330
4B14
100
AcDbEntity
  8
1
100
AcDbLine
 10
2991.927275798062
 20
1140.849975431699
 30
0.0
 11
3007.654145304399
 21
1140.849975431699
 31
0.0
  0
LINE
  5
4B57
330
4B14
100
AcDbEntity
  8
1
100
AcDbLine
 10
3007.477975312012
 20
1139.444679096183
 30
0.0
 11
3007.477975312012
 21
1133.624189639103
 31
0.0
  0
LINE
  5
4B58
330
4B14
100
AcDbEntity
  8
1
100
AcDbLine
 10
3007.767979346523
 20
1139.349975431699
 30
0.0
 11
3007.767979346523
 21
1133.849975431699
 31
0.0
  0
LINE
  5
4B59
330
4B14
100
AcDbEntity
  8
1
100
AcDbLine
 10
3008.654145304399
 20
1139.849975431699
 30
0.0
 11
3008.654145304399
 21
1133.849975431699
 31
0.0
  0
LINE
  5
4B5A
330
4B14
100
AcDbEntity
  8
1
100
AcDbLine
 10
3007.477975312012
 20
1133.624189639103
 30
0.0
 11
3008.57002721108
 21
1133.624189639103
 31
0.0
  0
LINE
  5
4B5B
330
4B14
100
AcDbEntity
  8
1
100
AcDbLine
 10
3007.767979346523
 20
1133.849975431699
 30
0.0
 11
3008.654145304399
 21
1133.849975431699
 31
0.0
  0
ARC
  5
4B5C
330
4B14
100
AcDbEntity
  8
1
100
AcDbCircle
 10
3007.267979346523
 20
1139.349975431699
 30
0.0
 40
0.5
100
AcDbArc
 50
0.0
 51
90.0
  0
LINE
  5
4B5D
330
4B14
100
AcDbEntity
  8
1
100
AcDbLine
 10
3007.477975312012
 20
1130.431495219814
 30
0.0
 11
3008.57002721108
 21
1130.431495219814
 31
0.0
  0
LINE
  5
4B5E
330
4B14
100
AcDbEntity
  8
1
100
AcDbLine
 10
3007.767979346523
 20
1130.200043446556
 30
0.0
 11
3008.654145304399
 21
1130.200043446556
 31
0.0
  0
LINE
  5
4B5F
330
4B14
100
AcDbEntity
  8
1
100
AcDbLine
 10
3008.57002721108
 20
1133.624189639103
 30
0.0
 11
3008.57002721108
 21
1130.431495219814
 31
0.0
  0
ARC
  5
4B60
330
4B14
100
AcDbEntity
  8
1
100
AcDbCircle
 10
2992.133056212896
 20
1135.064932852368
 30
0.0
 40
0.5999999999999909
100
AcDbArc
 50
13.56349880585365
 51
193.56349880586
  0
LWPOLYLINE
  5
4B61
330
4B14
100
AcDbEntity
  8
1
100
AcDbPolyline
 90
        7
 70
     0
 43
0.0
 10
2993.713285652829
 20
1139.444679096183
 10
2993.238382969473
 20
1137.392057748035
 10
2993.146224425683
 20
1135.533198088028
 10
2993.745254960316
 20
1133.408787048021
 10
2994.06780986358
 20
1131.549927388014
 10
2994.06780986358
 20
1130.55410971301
 10
2993.95555915931
 20
1130.068940435167
  0
LINE
  5
4B62
330
4B14
100
AcDbEntity
  8
1
100
AcDbLine
 10
2993.95555915931
 20
1130.068940435167
 30
0.0
 11
2992.716322575525
 21
1135.205646569629
 31
0.0
  0
LINE
  5
4B63
330
4B14
100
AcDbEntity
  8
1
100
AcDbLine
 10
2993.100818775011
 20
1128.495116010886
 30
0.0
 11
2991.549789850267
 21
1134.924219135106
 31
0.0
  0
LINE
  5
4B64
330
4B14
100
AcDbEntity
  8
1
100
AcDbLine
 10
3007.477975312012
 20
1139.444679096183
 30
0.0
 11
2993.713285652829
 21
1139.444679096183
 31
0.0
  0
LINE
  5
4B65
330
4B14
100
AcDbEntity
  8
1
100
AcDbLine
 10
2991.927275798062
 20
1139.849975431699
 30
0.0
 11
3007.267979346523
 21
1139.849975431699
 31
0.0
  0
LINE
  5
4B66
330
4B14
100
AcDbEntity
  8
1
100
AcDbLine
 10
2991.927275798062
 20
1140.849975431699
 30
0.0
 11
2991.927275798062
 21
1139.849975431699
 31
0.0
  0
ARC
  5
4B67
330
4B14
100
AcDbEntity
  8
1
100
AcDbCircle
 10
3007.654145304399
 20
1139.849975431699
 30
0.0
 40
1.0
100
AcDbArc
 50
0.0
 51
90.0
  0
ENDBLK
  5
4B16
330
4B14
100
AcDbEntity
  8
0
100
AcDbBlockEnd
  0
BLOCK
  5
4B7F
330
4B75
100
AcDbEntity
  8
0
100
AcDbBlockBegin
  2
*D10
 70
     1
 10
0.0
 20
0.0
 30
0.0
  3
*D10
  1

  0
LINE
  5
4B81
330
4B75
100
AcDbEntity
  8
1
 62
     0
370
    -2
100
AcDbLine
 10
1998.077132588377
 20
890.7536922798684
 30
0.0
 11
1998.077132588377
 21
856.0734950576346
 31
0.0
  0
LINE
  5
4B82
330
4B75
100
AcDbEntity
  8
1
 62
     0
370
    -2
100
AcDbLine
 10
2109.077132588372
 20
890.6877168164118
 30
0.0
 11
2109.077132588372
 21
856.0734950576346
 31
0.0
  0
LINE
  5
4B83
330
4B75
100
AcDbEntity
  8
1
 62
     0
370
    -2
100
AcDbLine
 10
2004.977132588376
 20
861.4734950576346
 30
0.0
 11
2102.177132588372
 21
861.4734950576346
 31
0.0
  0
SOLID
  5
4B84
330
4B75
100
AcDbEntity
  8
1
 62
     0
100
AcDbTrace
 10
2004.977132588376
 20
862.6234950576346
 30
0.0
 11
2004.977132588376
 21
860.3234950576347
 31
0.0
 12
1998.077132588377
 22
861.4734950576346
 32
0.0
 13
1998.077132588377
 23
861.4734950576346
 33
0.0
  0
SOLID
  5
4B85
330
4B75
100
AcDbEntity
  8
1
 62
     0
100
AcDbTrace
 10
2102.177132588372
 20
862.6234950576346
 30
0.0
 11
2102.177132588372
 21
860.3234950576347
 31
0.0
 12
2109.077132588372
 22
861.4734950576346
 32
0.0
 13
2109.077132588372
 23
861.4734950576346
 33
0.0
  0
MTEXT
  5
4B86
330
4B75
100
AcDbEntity
  8
1
 62
     0
100
AcDbMText
 10
2053.577132588374
 20
867.9412582155293
 30
0.0
 40
6.899999999999999
 41
0.0
 71
     5
 72
     1
  1
\A1;%%c110
 73
     1
 44
1.0
  0
POINT
  5
4B87
330
4B75
100
AcDbEntity
  8
DEFPOINTS
 62
     0
100
AcDbPoint
 10
1998.077132588377
 20
894.3536922798685
 30
0.0
  0
POINT
  5
4B88
330
4B75
100
AcDbEntity
  8
DEFPOINTS
 62
     0
100
AcDbPoint
 10
2109.077132588372
 20
894.2877168164118
 30
0.0
  0
POINT
  5
4B89
330
4B75
100
AcDbEntity
  8
DEFPOINTS
 62
     0
100
AcDbPoint
 10
2109.077132588372
 20
861.4734950576346
 30
0.0
  0
ENDBLK
  5
4B80
330
4B75
100
AcDbEntity
  8
0
100
AcDbBlockEnd
  0
BLOCK
  5
4BA4
330
4B99
100
AcDbEntity
  8
0
100
AcDbBlockBegin
  2
*D11
 70
     1
 10
0.0
 20
0.0
 30
0.0
  3
*D11
  1

  0
LINE
  5
4BA6
330
4B99
100
AcDbEntity
  8
1
 62
     0
370
    -2
100
AcDbLine
 10
1937.530076671105
 20
1110.259369078113
 30
0.0
 11
1909.699282448801
 21
1110.259369078113
 31
0.0
  0
LINE
  5
4BA7
330
4B99
100
AcDbEntity
  8
1
 62
     0
370
    -2
100
AcDbLine
 10
1996.929023891187
 20
887.3500525661325
 30
0.0
 11
1909.699282448801
 21
887.3500525661325
 31
0.0
  0
LINE
  5
4BA8
330
4B99
100
AcDbEntity
  8
1
 62
     0
370
    -2
100
AcDbLine
 10
1915.099282448801
 20
1103.359369078113
 30
0.0
 11
1915.099282448801
 21
1016.530368716859
 31
0.0
  0
LINE
  5
4BA9
330
4B99
100
AcDbEntity
  8
1
 62
     0
370
    -2
100
AcDbLine
 10
1915.099282448801
 20
894.2500525661325
 30
0.0
 11
1915.099282448801
 21
981.0790529273862
 31
0.0
  0
SOLID
  5
4BAA
330
4B99
100
AcDbEntity
  8
1
 62
     0
100
AcDbTrace
 10
1913.9492824488
 20
1103.359369078113
 30
0.0
 11
1916.249282448801
 21
1103.359369078113
 31
0.0
 12
1915.099282448801
 22
1110.259369078113
 32
0.0
 13
1915.099282448801
 23
1110.259369078113
 33
0.0
  0
SOLID
  5
4BAB
330
4B99
100
AcDbEntity
  8
1
 62
     0
100
AcDbTrace
 10
1913.9492824488
 20
894.2500525661325
 30
0.0
 11
1916.249282448801
 21
894.2500525661325
 31
0.0
 12
1915.099282448801
 22
887.3500525661325
 32
0.0
 13
1915.099282448801
 23
887.3500525661325
 33
0.0
  0
MTEXT
  5
4BAC
330
4B99
100
AcDbEntity
  8
1
 62
     0
100
AcDbMText
 10
1915.0992824488
 20
998.8047108221234
 30
0.0
 40
6.899999999999999
 41
0.0
 71
     5
 72
     1
  1
\A1;200\PTO\P250
 73
     1
 44
1.0
  0
POINT
  5
4BAD
330
4B99
100
AcDbEntity
  8
DEFPOINTS
 62
     0
100
AcDbPoint
 10
1941.130076671105
 20
1110.259369078113
 30
0.0
  0
POINT
  5
4BAE
330
4B99
100
AcDbEntity
  8
DEFPOINTS
 62
     0
100
AcDbPoint
 10
2000.529023891187
 20
887.3500525661325
 30
0.0
  0
POINT
  5
4BAF
330
4B99
100
AcDbEntity
  8
DEFPOINTS
 62
     0
100
AcDbPoint
 10
1915.099282448801
 20
887.3500525661325
 30
0.0
  0
ENDBLK
  5
4BA5
330
4B99
100
AcDbEntity
  8
0
100
AcDbBlockEnd
  0
BLOCK
  5
4C6F
330
4C64
100
AcDbEntity
  8
0
100
AcDbBlockBegin
  2
*D13
 70
     1
 10
0.0
 20
0.0
 30
0.0
  3
*D13
  1

  0
LINE
  5
4DBC
330
4C64
100
AcDbEntity
  8
1
 62
     0
370
    -2
100
AcDbLine
 10
2168.664906948195
 20
990.9004967642317
 30
0.0
 11
2193.996600737107
 21
990.9004967642317
 31
0.0
  0
LINE
  5
4DBD
330
4C64
100
AcDbEntity
  8
1
 62
     0
370
    -2
100
AcDbLine
 10
2168.664906948195
 20
1044.900496764231
 30
0.0
 11
2193.996600737108
 21
1044.900496764231
 31
0.0
  0
LINE
  5
4DBE
330
4C64
100
AcDbEntity
  8
1
 62
     0
370
    -2
100
AcDbLine
 10
2188.596600737108
 20
997.8004967642318
 30
0.0
 11
2188.596600737108
 21
1012.368445570982
 31
0.0
  0
LINE
  5
4DBF
330
4C64
100
AcDbEntity
  8
1
 62
     0
370
    -2
100
AcDbLine
 10
2188.596600737108
 20
1038.000496764231
 30
0.0
 11
2188.596600737108
 21
1024.91055083414
 31
0.0
  0
SOLID
  5
4DC0
330
4C64
100
AcDbEntity
  8
1
 62
     0
100
AcDbTrace
 10
2187.446600737108
 20
997.8004967642318
 30
0.0
 11
2189.746600737108
 21
997.8004967642318
 31
0.0
 12
2188.596600737108
 22
990.9004967642317
 32
0.0
 13
2188.596600737108
 23
990.9004967642317
 33
0.0
  0
SOLID
  5
4DC1
330
4C64
100
AcDbEntity
  8
1
 62
     0
100
AcDbTrace
 10
2187.446600737108
 20
1038.000496764231
 30
0.0
 11
2189.746600737108
 21
1038.000496764231
 31
0.0
 12
2188.596600737108
 22
1044.900496764231
 32
0.0
 13
2188.596600737108
 23
1044.900496764231
 33
0.0
  0
MTEXT
  5
4DC2
330
4C64
100
AcDbEntity
  8
1
 62
     0
100
AcDbMText
 10
2188.596600737108
 20
1018.639498202561
 30
0.0
 40
6.899999999999999
 41
0.0
 71
     5
 72
     1
  1
\A1;1.5" BSP
 73
     1
 44
1.0
  0
POINT
  5
4DC3
330
4C64
100
AcDbEntity
  8
DEFPOINTS
 62
     0
100
AcDbPoint
 10
2165.064906948196
 20
990.9004967642317
 30
0.0
  0
POINT
  5
4DC4
330
4C64
100
AcDbEntity
  8
DEFPOINTS
 62
     0
100
AcDbPoint
 10
2165.064906948196
 20
1044.900496764231
 30
0.0
  0
POINT
  5
4DC5
330
4C64
100
AcDbEntity
  8
DEFPOINTS
 62
     0
100
AcDbPoint
 10
2188.596600737108
 20
1044.900496764231
 30
0.0
  0
ENDBLK
  5
4C70
330
4C64
100
AcDbEntity
  8
0
100
AcDbBlockEnd
  0
BLOCK
  5
4C9E
330
4C93
100
AcDbEntity
  8
0
100
AcDbBlockBegin
  2
*X14
 70
     1
 10
0.0
 20
0.0
 30
0.0
  3
*X14
  1

  0
LINE
  5
4C94
330
4C93
100
AcDbEntity
  8
0
 62
     0
100
AcDbLine
 10
-650.153379952022
 20
437.4652378605365
 30
0.0
 11
-649.1647996537116
 21
438.4538181588469
 31
0.0
  0
LINE
  5
4C95
330
4C93
100
AcDbEntity
  8
0
 62
     0
100
AcDbLine
 10
-650.3922663497237
 20
437.6682932010764
 30
0.0
 11
-649.6067413919531
 21
438.4538181588469
 31
0.0
  0
LINE
  5
4C96
330
4C93
100
AcDbEntity
  8
0
 62
     0
100
AcDbLine
 10
-650.6311527474253
 20
437.8713485416162
 30
0.0
 11
-650.0486831301947
 21
438.4538181588469
 31
0.0
  0
LINE
  5
4C97
330
4C93
100
AcDbEntity
  8
0
 62
     0
100
AcDbLine
 10
-650.870039145127
 20
438.0744038821561
 30
0.0
 11
-650.4906248684363
 21
438.4538181588469
 31
0.0
  0
LINE
  5
4C98
330
4C93
100
AcDbEntity
  8
0
 62
     0
100
AcDbLine
 10
-651.1089255428288
 20
438.277459222696
 30
0.0
 11
-650.9325666066779
 21
438.4538181588469
 31
0.0
  0
LINE
  5
4C99
330
4C93
100
AcDbEntity
  8
0
 62
     0
100
AcDbLine
 10
-651.3745083449195
 20
438.4538181588469
 30
0.0
 11
-651.3478119405305
 21
438.4805145632358
 31
0.0
  0
LINE
  5
4C9A
330
4C93
100
AcDbEntity
  8
0
 62
     0
100
AcDbLine
 10
-649.9144935543203
 20
437.2621825199965
 30
0.0
 11
-649.0848307404241
 21
438.0918453338927
 31
0.0
  0
LINE
  5
4C9B
330
4C93
100
AcDbEntity
  8
0
 62
     0
100
AcDbLine
 10
-649.6756071566185
 20
437.0591271794567
 30
0.0
 11
-649.0848307404241
 21
437.6499035956511
 31
0.0
  0
LINE
  5
4C9C
330
4C93
100
AcDbEntity
  8
0
 62
     0
100
AcDbLine
 10
-649.4367207589168
 20
436.8560718389169
 30
0.0
 11
-649.0848307404241
 21
437.2079618574096
 31
0.0
  0
LINE
  5
4C9D
330
4C93
100
AcDbEntity
  8
0
 62
     0
100
AcDbLine
 10
-649.197834361215
 20
436.6530164983769
 30
0.0
 11
-649.0848307404241
 21
436.766020119168
 31
0.0
  0
ENDBLK
  5
4C9F
330
4C93
100
AcDbEntity
  8
0
100
AcDbBlockEnd
  0
BLOCK
  5
4CAE
330
4CA0
100
AcDbEntity
  8
0
100
AcDbBlockBegin
  2
*X15
 70
     1
 10
0.0
 20
0.0
 30
0.0
  3
*X15
  1

  0
LINE
  5
4CA1
330
4CA0
100
AcDbEntity
  8
0
 62
     0
100
AcDbLine
 10
-674.5172693334621
 20
437.9384741682738
 30
0.0
 11
-674.0523376987631
 21
438.4034058029728
 31
0.0
  0
LINE
  5
4CA2
330
4CA0
100
AcDbEntity
  8
0
 62
     0
100
AcDbLine
 10
-674.6176990937306
 20
438.0148211033019
 30
0.0
 11
-674.2291143940597
 21
438.4034058029728
 31
0.0
  0
LINE
  5
4CA3
330
4CA0
100
AcDbEntity
  8
0
 62
     0
100
AcDbLine
 10
-674.718128853999
 20
438.0911680383301
 30
0.0
 11
-674.4058910893564
 21
438.4034058029728
 31
0.0
  0
LINE
  5
4CA4
330
4CA0
100
AcDbEntity
  8
0
 62
     0
100
AcDbLine
 10
-674.8185586142674
 20
438.1675149733584
 30
0.0
 11
-674.582667784653
 21
438.4034058029728
 31
0.0
  0
LINE
  5
4CA5
330
4CA0
100
AcDbEntity
  8
0
 62
     0
100
AcDbLine
 10
-674.9189883745359
 20
438.2438619083865
 30
0.0
 11
-674.7594444799497
 21
438.4034058029728
 31
0.0
  0
LINE
  5
4CA6
330
4CA0
100
AcDbEntity
  8
0
 62
     0
100
AcDbLine
 10
-675.0194181348043
 20
438.3202088434146
 30
0.0
 11
-674.9362211752464
 21
438.4034058029728
 31
0.0
  0
LINE
  5
4CA7
330
4CA0
100
AcDbEntity
  8
0
 62
     0
100
AcDbLine
 10
-675.1198478950727
 20
438.3965557784429
 30
0.0
 11
-675.1129978705429
 21
438.4034058029728
 31
0.0
  0
LINE
  5
4CA8
330
4CA0
100
AcDbEntity
  8
0
 62
     0
100
AcDbLine
 10
-674.4168395731937
 20
437.8621272332456
 30
0.0
 11
-673.9007159006065
 21
438.3782509058328
 31
0.0
  0
LINE
  5
4CA9
330
4CA0
100
AcDbEntity
  8
0
 62
     0
100
AcDbLine
 10
-674.3164098129252
 20
437.7857802982173
 30
0.0
 11
-673.9007159006065
 21
438.2014742105361
 31
0.0
  0
LINE
  5
4CAA
330
4CA0
100
AcDbEntity
  8
0
 62
     0
100
AcDbLine
 10
-674.2159800526568
 20
437.7094333631892
 30
0.0
 11
-673.9007159006065
 21
438.0246975152394
 31
0.0
  0
LINE
  5
4CAB
330
4CA0
100
AcDbEntity
  8
0
 62
     0
100
AcDbLine
 10
-674.1155502923882
 20
437.633086428161
 30
0.0
 11
-673.9007159006065
 21
437.8479208199428
 31
0.0
  0
LINE
  5
4CAC
330
4CA0
100
AcDbEntity
  8
0
 62
     0
100
AcDbLine
 10
-674.0151205321199
 20
437.5567394931328
 30
0.0
 11
-673.9007159006065
 21
437.6711441246462
 31
0.0
  0
LINE
  5
4CAD
330
4CA0
100
AcDbEntity
  8
0
 62
     0
100
AcDbLine
 10
-673.9146907718515
 20
437.4803925581046
 30
0.0
 11
-673.9007159006065
 21
437.4943674293496
 31
0.0
  0
ENDBLK
  5
4CAF
330
4CA0
100
AcDbEntity
  8
0
100
AcDbBlockEnd
  0
ENDSEC
  0
SECTION
  2
ENTITIES
  0
LINE
  5
4495
330
19
100
AcDbEntity
  8
1
100
AcDbLine
 10
1997.577522301519
 20
1094.731735449434
 30
0.0
 11
2109.576743068668
 21
1094.731735449434
 31
0.0
  0
LINE
  5
4496
330
19
100
AcDbEntity
  8
1
100
AcDbLine
 10
1989.57033582848
 20
1108.524273283404
 30
0.0
 11
2053.570335828479
 21
1108.524273283404
 31
0.0
  0
LINE
  5
4497
330
19
100
AcDbEntity
  8
1
100
AcDbLine
 10
1989.57033582848
 20
1106.524273283404
 30
0.0
 11
2053.570335828479
 21
1106.524273283404
 31
0.0
  0
LINE
  5
4498
330
19
100
AcDbEntity
  8
1
100
AcDbLine
 10
1999.990113220837
 20
1091.059369078114
 30
0.0
 11
2053.577132588374
 21
1091.059369078114
 31
0.0
  0
LINE
  5
4499
330
19
100
AcDbEntity
  8
1
100
AcDbLine
 10
1999.990113220837
 20
1083.059369078113
 30
0.0
 11
2053.577132588374
 21
1083.059369078113
 31
0.0
  0
LINE
  5
44A4
330
19
100
AcDbEntity
  8
1
100
AcDbLine
 10
1992.558964946103
 20
1073.891558569361
 30
0.0
 11
1992.558964946103
 21
1089.891558569361
 31
0.0
  0
LINE
  5
44A5
330
19
100
AcDbEntity
  8
1
100
AcDbLine
 10
1984.558964946103
 20
1089.891558569361
 30
0.0
 11
1984.558964946103
 21
1073.891558569361
 31
0.0
  0
LINE
  5
44A6
330
19
100
AcDbEntity
  8
1
100
AcDbLine
 10
1986.558964946103
 20
1088.641558569361
 30
0.0
 11
1986.558964946103
 21
1075.617397263987
 31
0.0
  0
LINE
  5
44A7
330
19
100
AcDbEntity
  8
1
100
AcDbLine
 10
1990.558964946103
 20
1088.641558569361
 30
0.0
 11
1990.558964946103
 21
1075.617397263987
 31
0.0
  0
LINE
  5
44A8
330
19
100
AcDbEntity
  8
0
 62
     0
100
AcDbLine
 10
1992.558964946103
 20
1077.944083207861
 30
0.0
 11
1990.875920146845
 21
1079.627128007117
 31
0.0
  0
LINE
  5
44A9
330
19
100
AcDbEntity
  8
0
 62
     0
100
AcDbLine
 10
1992.558964946103
 20
1077.236976426674
 30
0.0
 11
1990.558964946103
 21
1079.236976426674
 31
0.0
  0
LINE
  5
44AA
330
19
100
AcDbEntity
  8
0
 62
     0
100
AcDbLine
 10
1992.558964946103
 20
1076.529869645487
 30
0.0
 11
1990.558964946103
 21
1078.529869645487
 31
0.0
  0
LINE
  5
44AB
330
19
100
AcDbEntity
  8
0
 62
     0
100
AcDbLine
 10
1986.558964946103
 20
1078.287228958368
 30
0.0
 11
1984.558964946103
 21
1080.287228958368
 31
0.0
  0
LINE
  5
44AC
330
19
100
AcDbEntity
  8
0
 62
     0
100
AcDbLine
 10
1986.558964946103
 20
1077.580122177182
 30
0.0
 11
1984.558964946103
 21
1079.580122177182
 31
0.0
  0
LINE
  5
44AD
330
19
100
AcDbEntity
  8
0
 62
     0
100
AcDbLine
 10
1986.558964946103
 20
1076.873015395995
 30
0.0
 11
1984.558964946103
 21
1078.873015395995
 31
0.0
  0
LINE
  5
44D6
330
19
100
AcDbEntity
  8
0
 62
     0
100
AcDbLine
 10
1992.558964946103
 20
1075.822762864301
 30
0.0
 11
1990.558964946103
 21
1077.822762864301
 31
0.0
  0
LINE
  5
44D7
330
19
100
AcDbEntity
  8
0
 62
     0
100
AcDbLine
 10
1992.558964946103
 20
1075.115656083114
 30
0.0
 11
1990.558964946103
 21
1077.115656083114
 31
0.0
  0
LINE
  5
44D8
330
19
100
AcDbEntity
  8
0
 62
     0
100
AcDbLine
 10
1992.558964946103
 20
1074.408549301928
 30
0.0
 11
1990.558964946103
 21
1076.408549301928
 31
0.0
  0
LINE
  5
44D9
330
19
100
AcDbEntity
  8
0
 62
     0
100
AcDbLine
 10
1992.463906921793
 20
1073.796500545051
 30
0.0
 11
1990.558964946103
 21
1075.701442520741
 31
0.0
  0
LINE
  5
44DA
330
19
100
AcDbEntity
  8
0
 62
     0
100
AcDbLine
 10
1992.110353531199
 20
1073.442947154458
 30
0.0
 11
1990.10181278544
 21
1075.451487900217
 31
0.0
  0
LINE
  5
44DB
330
19
100
AcDbEntity
  8
1
100
AcDbLine
 10
1991.558964946102
 20
1072.891558569361
 30
0.0
 11
1992.558964946103
 21
1073.891558569361
 31
0.0
  0
LINE
  5
44DC
330
19
100
AcDbEntity
  8
1
100
AcDbLine
 10
1985.558964946103
 20
1072.891558569361
 30
0.0
 11
1991.558964946102
 21
1072.891558569361
 31
0.0
  0
LINE
  5
44DD
330
19
100
AcDbEntity
  8
0
 62
     0
100
AcDbLine
 10
1989.126208210364
 20
1072.891558569361
 30
0.0
 11
1984.558964946103
 21
1077.458801833622
 31
0.0
  0
LINE
  5
44DE
330
19
100
AcDbEntity
  8
0
 62
     0
100
AcDbLine
 10
1988.419101429177
 20
1072.891558569361
 30
0.0
 11
1984.558964946103
 21
1076.751695052436
 31
0.0
  0
LINE
  5
44DF
330
19
100
AcDbEntity
  8
0
 62
     0
100
AcDbLine
 10
1987.71199464799
 20
1072.891558569361
 30
0.0
 11
1984.558964946103
 21
1076.044588271249
 31
0.0
  0
LINE
  5
44E0
330
19
100
AcDbEntity
  8
0
 62
     0
100
AcDbLine
 10
1987.004887866804
 20
1072.891558569361
 30
0.0
 11
1984.558964946103
 21
1075.337481490062
 31
0.0
  0
LINE
  5
44E1
330
19
100
AcDbEntity
  8
0
 62
     0
100
AcDbLine
 10
1986.558964946103
 20
1076.165908614808
 30
0.0
 11
1984.558964946103
 21
1078.165908614808
 31
0.0
  0
LINE
  5
44E2
330
19
100
AcDbEntity
  8
0
 62
     0
100
AcDbLine
 10
1986.297781085617
 20
1072.891558569361
 30
0.0
 11
1984.558964946103
 21
1074.630374708876
 31
0.0
  0
LINE
  5
44E3
330
19
100
AcDbEntity
  8
0
 62
     0
100
AcDbLine
 10
1985.590674304431
 20
1072.891558569361
 30
0.0
 11
1984.558964946103
 21
1073.923267927689
 31
0.0
  0
LINE
  5
44E4
330
19
100
AcDbEntity
  8
1
100
AcDbLine
 10
1985.558964946103
 20
1072.891558569361
 30
0.0
 11
1984.558964946103
 21
1073.891558569361
 31
0.0
  0
LINE
  5
44E5
330
19
100
AcDbEntity
  8
1
100
AcDbLine
 10
1988.558964946103
 20
1074.891558569361
 30
0.0
 11
1986.558964946103
 21
1075.617397263987
 31
0.0
  0
LINE
  5
44E6
330
19
100
AcDbEntity
  8
1
100
AcDbLine
 10
1988.558964946103
 20
1074.891558569361
 30
0.0
 11
1990.558964946103
 21
1075.617397263987
 31
0.0
  0
LINE
  5
44E7
330
19
100
AcDbEntity
  8
0
 62
     0
100
AcDbLine
 10
1991.756800140606
 20
1073.089393763865
 30
0.0
 11
1989.582995011974
 21
1075.263198892496
 31
0.0
  0
LINE
  5
44E8
330
19
100
AcDbEntity
  8
0
 62
     0
100
AcDbLine
 10
1991.247528553923
 20
1072.891558569361
 30
0.0
 11
1989.064177238509
 21
1075.074909884776
 31
0.0
  0
LINE
  5
44E9
330
19
100
AcDbEntity
  8
0
 62
     0
100
AcDbLine
 10
1990.540421772737
 20
1072.891558569361
 30
0.0
 11
1988.529858469101
 21
1074.902121872997
 31
0.0
  0
LINE
  5
44EA
330
19
100
AcDbEntity
  8
0
 62
     0
100
AcDbLine
 10
1989.83331499155
 20
1072.891558569361
 30
0.0
 11
1987.419941258141
 21
1075.30493230277
 31
0.0
  0
LINE
  5
44F4
330
19
100
AcDbEntity
  8
1
100
AcDbLine
 10
1977.226686474418
 20
1108.260775872909
 30
0.0
 11
1988.142558395332
 21
1108.260775872909
 31
0.0
  0
LWPOLYLINE
  5
44F5
330
19
100
AcDbEntity
  8
1
100
AcDbPolyline
 90
        4
 70
     0
 43
0.0
 10
1999.990113220837
 20
1091.059369078113
 10
1979.630076671105
 20
1091.059369078113
 10
1962.630076671105
 20
1108.059369078113
 10
1941.130076671105
 20
1108.059369078113
  0
LWPOLYLINE
  5
44F6
330
19
100
AcDbEntity
  8
1
100
AcDbPolyline
 90
        4
 70
     0
 43
0.0
 10
1998.211333242303
 20
1093.259369078113
 10
1980.541346508325
 20
1093.259369078113
 10
1963.541346508326
 20
1110.259369078113
 10
1941.130076671105
 20
1110.259369078113
  0
ARC
  5
44F7
330
19
100
AcDbEntity
  8
1
100
AcDbCircle
 10
1986.716686474419
 20
1101.721735449434
 30
0.0
 40
6.99
100
AcDbArc
 50
180.0
 51
270.0
  0
ARC
  5
44F8
330
19
100
AcDbEntity
  8
1
100
AcDbCircle
 10
1986.716686474419
 20
1101.721735449434
 30
0.0
 40
7.99
100
AcDbArc
 50
180.0
 51
270.0
  0
LINE
  5
44F9
330
19
100
AcDbEntity
  8
1
100
AcDbLine
 10
1979.215863108732
 20
1090.059369078113
 30
0.0
 11
1998.990113220837
 21
1090.059369078113
 31
0.0
  0
LINE
  5
44FB
330
19
100
AcDbEntity
  8
1
100
AcDbLine
 10
1941.130076671105
 20
1107.059369078113
 30
0.0
 11
1962.215863108731
 21
1107.059369078113
 31
0.0
  0
LINE
  5
44FD
330
19
100
AcDbEntity
  8
1
100
AcDbLine
 10
1941.130076671105
 20
1108.059369078113
 30
0.0
 11
1941.130076671105
 21
1110.259369078113
 31
0.0
  0
LINE
  5
44FE
330
19
100
AcDbEntity
  8
1
100
AcDbLine
 10
1941.130076671105
 20
1108.059369078113
 30
0.0
 11
1941.130076671105
 21
1107.059369078113
 31
0.0
  0
LINE
  5
44FF
330
19
100
AcDbEntity
  8
1
100
AcDbLine
 10
1979.215863108732
 20
1090.059369078113
 30
0.0
 11
1962.215863108731
 21
1107.059369078113
 31
0.0
  0
LINE
  5
4500
330
19
100
AcDbEntity
  8
1
100
AcDbLine
 10
1967.042850344878
 20
1108.260775872909
 30
0.0
 11
1977.226686474418
 21
1108.260775872909
 31
0.0
  0
LINE
  5
4501
330
19
100
AcDbEntity
  8
1
100
AcDbLine
 10
1967.042850344878
 20
1107.260775872909
 30
0.0
 11
1977.226686474418
 21
1107.260775872909
 31
0.0
  0
LINE
  5
4502
330
19
100
AcDbEntity
  8
1
100
AcDbLine
 10
1967.042850344878
 20
1108.260775872909
 30
0.0
 11
1967.042850344878
 21
1107.260775872909
 31
0.0
  0
LINE
  5
4503
330
19
100
AcDbEntity
  8
1
100
AcDbLine
 10
1979.726686474419
 20
1105.760777394871
 30
0.0
 11
1979.726686474419
 21
1101.721735449434
 31
0.0
  0
LINE
  5
4504
330
19
100
AcDbEntity
  8
1
100
AcDbLine
 10
1978.726686474418
 20
1105.760781478281
 30
0.0
 11
1978.726686474418
 21
1101.731735449434
 31
0.0
  0
ARC
  5
4505
330
19
100
AcDbEntity
  8
1
100
AcDbCircle
 10
1977.226686474418
 20
1105.760775872909
 30
0.0
 40
2.5
100
AcDbArc
 50
0.0
 51
90.0
  0
ARC
  5
4506
330
19
100
AcDbEntity
  8
1
100
AcDbCircle
 10
1977.226686474418
 20
1105.760775872909
 30
0.0
 40
1.5
100
AcDbArc
 50
0.0
 51
90.0
  0
ARC
  5
4509
330
19
100
AcDbEntity
  8
1
100
AcDbCircle
 10
1997.57752451894
 20
1092.231735449434
 30
0.0
 40
2.5
100
AcDbArc
 50
0.0
 51
90.0
  0
LINE
  5
450A
330
19
100
AcDbEntity
  8
1
100
AcDbLine
 10
1994.093707999871
 20
1094.900635249105
 30
0.0
 11
1994.093707999871
 21
1093.900635249105
 31
0.0
  0
LINE
  5
450B
330
19
100
AcDbEntity
  8
1
100
AcDbLine
 10
1989.793707999871
 20
1094.900635249105
 30
0.0
 11
1989.793707999871
 21
1093.900635249105
 31
0.0
  0
LINE
  5
450C
330
19
100
AcDbEntity
  8
0
 62
     0
100
AcDbLine
 10
1994.093707999871
 20
1094.327397557855
 30
0.0
 11
1992.385518959189
 21
1096.035586598538
 31
0.0
  0
LINE
  5
450D
330
19
100
AcDbEntity
  8
0
 62
     0
100
AcDbLine
 10
1993.813363527434
 20
1093.900635249105
 30
0.0
 11
1991.756040367658
 21
1095.957958408882
 31
0.0
  0
LINE
  5
450E
330
19
100
AcDbEntity
  8
0
 62
     0
100
AcDbLine
 10
1993.106256746248
 20
1093.900635249105
 30
0.0
 11
1990.737960714058
 21
1096.268931281296
 31
0.0
  0
LINE
  5
450F
330
19
100
AcDbEntity
  8
0
 62
     0
100
AcDbLine
 10
1992.399149965061
 20
1093.900635249105
 30
0.0
 11
1987.943707999871
 21
1098.356077214295
 31
0.0
  0
LINE
  5
4510
330
19
100
AcDbEntity
  8
0
 62
     0
100
AcDbLine
 10
1991.692043183875
 20
1093.900635249105
 30
0.0
 11
1987.943707999871
 21
1097.648970433109
 31
0.0
  0
LINE
  5
4511
330
19
100
AcDbEntity
  8
0
 62
     0
100
AcDbLine
 10
1990.984936402688
 20
1093.900635249105
 30
0.0
 11
1987.943707999871
 21
1096.941863651922
 31
0.0
  0
LINE
  5
4512
330
19
100
AcDbEntity
  8
1
100
AcDbLine
 10
1986.716686474419
 20
1093.731735449434
 30
0.0
 11
1997.577526736361
 21
1093.731735449434
 31
0.0
  0
LINE
  5
4513
330
19
100
AcDbEntity
  8
1
100
AcDbLine
 10
1989.793707999871
 20
1093.900635249105
 30
0.0
 11
1994.093707999871
 21
1093.900635249105
 31
0.0
  0
LINE
  5
4514
330
19
100
AcDbEntity
  8
1
100
AcDbLine
 10
1992.558964946103
 20
1089.891558569361
 30
0.0
 11
1984.558964946103
 21
1089.891558569361
 31
0.0
  0
LINE
  5
4515
330
19
100
AcDbEntity
  8
0
 62
     0
100
AcDbLine
 10
1992.558964946103
 20
1078.651189989047
 30
0.0
 11
1991.058964946103
 21
1080.151189989047
 31
0.0
  0
LINE
  5
4516
330
19
100
AcDbEntity
  8
0
 62
     0
100
AcDbLine
 10
1992.558964946103
 20
1079.358296770234
 30
0.0
 11
1991.058964946103
 21
1080.858296770234
 31
0.0
  0
LINE
  5
4517
330
19
100
AcDbEntity
  8
0
 62
     0
100
AcDbLine
 10
1992.558964946103
 20
1080.06540355142
 30
0.0
 11
1991.058964946103
 21
1081.56540355142
 31
0.0
  0
LINE
  5
4518
330
19
100
AcDbEntity
  8
0
 62
     0
100
AcDbLine
 10
1992.558964946103
 20
1080.772510332607
 30
0.0
 11
1991.058964946103
 21
1082.272510332606
 31
0.0
  0
LINE
  5
4519
330
19
100
AcDbEntity
  8
0
 62
     0
100
AcDbLine
 10
1992.558964946103
 20
1081.479617113793
 30
0.0
 11
1991.058964946103
 21
1082.979617113793
 31
0.0
  0
LINE
  5
451A
330
19
100
AcDbEntity
  8
0
 62
     0
100
AcDbLine
 10
1992.558964946103
 20
1082.18672389498
 30
0.0
 11
1991.058964946103
 21
1083.68672389498
 31
0.0
  0
LINE
  5
451B
330
19
100
AcDbEntity
  8
0
 62
     0
100
AcDbLine
 10
1992.558964946103
 20
1082.893830676167
 30
0.0
 11
1991.058964946103
 21
1084.393830676167
 31
0.0
  0
LINE
  5
451C
330
19
100
AcDbEntity
  8
0
 62
     0
100
AcDbLine
 10
1992.558964946103
 20
1083.600937457353
 30
0.0
 11
1991.058964946103
 21
1085.100937457353
 31
0.0
  0
LINE
  5
451D
330
19
100
AcDbEntity
  8
0
 62
     0
100
AcDbLine
 10
1992.558964946103
 20
1084.308044238539
 30
0.0
 11
1991.058964946103
 21
1085.808044238539
 31
0.0
  0
LINE
  5
451E
330
19
100
AcDbEntity
  8
0
 62
     0
100
AcDbLine
 10
1992.558964946103
 20
1085.015151019726
 30
0.0
 11
1991.058964946102
 21
1086.515151019726
 31
0.0
  0
LINE
  5
451F
330
19
100
AcDbEntity
  8
0
 62
     0
100
AcDbLine
 10
1992.558964946103
 20
1085.722257800913
 30
0.0
 11
1991.058964946102
 21
1087.222257800913
 31
0.0
  0
LINE
  5
4520
330
19
100
AcDbEntity
  8
0
 62
     0
100
AcDbLine
 10
1992.558964946103
 20
1086.429364582099
 30
0.0
 11
1991.058964946102
 21
1087.929364582099
 31
0.0
  0
LINE
  5
4521
330
19
100
AcDbEntity
  8
0
 62
     0
100
AcDbLine
 10
1992.558964946103
 20
1087.136471363286
 30
0.0
 11
1991.058964946102
 21
1088.636471363286
 31
0.0
  0
LINE
  5
4522
330
19
100
AcDbEntity
  8
0
 62
     0
100
AcDbLine
 10
1992.558964946103
 20
1087.843578144472
 30
0.0
 11
1991.159974733658
 21
1089.242568356917
 31
0.0
  0
LINE
  5
4523
330
19
100
AcDbEntity
  8
0
 62
     0
100
AcDbLine
 10
1992.558964946103
 20
1088.550684925659
 30
0.0
 11
1991.513528124252
 21
1089.59612174751
 31
0.0
  0
LINE
  5
4524
330
19
100
AcDbEntity
  8
0
 62
     0
100
AcDbLine
 10
1992.558964946103
 20
1089.257791706845
 30
0.0
 11
1991.925198083587
 21
1089.891558569361
 31
0.0
  0
LINE
  5
4525
330
19
100
AcDbEntity
  8
1
100
AcDbLine
 10
1986.058964946103
 20
1089.141558569361
 30
0.0
 11
1986.058964946103
 21
1079.891558569361
 31
0.0
  0
LINE
  5
4526
330
19
100
AcDbEntity
  8
1
100
AcDbLine
 10
1991.058964946102
 20
1089.141558569361
 30
0.0
 11
1991.058964946103
 21
1079.891558569361
 31
0.0
  0
LINE
  5
4527
330
19
100
AcDbEntity
  8
0
 62
     0
100
AcDbLine
 10
1986.058964946103
 20
1085.151189989047
 30
0.0
 11
1984.558964946103
 21
1086.651189989047
 31
0.0
  0
LINE
  5
4528
330
19
100
AcDbEntity
  8
0
 62
     0
100
AcDbLine
 10
1986.058964946103
 20
1085.858296770234
 30
0.0
 11
1984.558964946103
 21
1087.358296770234
 31
0.0
  0
LINE
  5
4529
330
19
100
AcDbEntity
  8
1
100
AcDbLine
 10
1988.558964946103
 20
1079.891558569361
 30
0.0
 11
1986.058964946103
 21
1079.891558569361
 31
0.0
  0
LINE
  5
452A
330
19
100
AcDbEntity
  8
1
100
AcDbLine
 10
1986.058964946103
 20
1079.891558569361
 30
0.0
 11
1986.558964946103
 21
1079.169247519507
 31
0.0
  0
LINE
  5
452B
330
19
100
AcDbEntity
  8
0
 62
     0
100
AcDbLine
 10
1986.558964946103
 20
1078.994335739555
 30
0.0
 11
1984.558964946103
 21
1080.994335739555
 31
0.0
  0
LINE
  5
452C
330
19
100
AcDbEntity
  8
0
 62
     0
100
AcDbLine
 10
1986.058964946103
 20
1082.322762864301
 30
0.0
 11
1984.558964946103
 21
1083.822762864301
 31
0.0
  0
LINE
  5
452D
330
19
100
AcDbEntity
  8
0
 62
     0
100
AcDbLine
 10
1986.058964946103
 20
1083.029869645487
 30
0.0
 11
1984.558964946103
 21
1084.529869645487
 31
0.0
  0
LINE
  5
452E
330
19
100
AcDbEntity
  8
0
 62
     0
100
AcDbLine
 10
1986.058964946103
 20
1081.615656083114
 30
0.0
 11
1984.558964946103
 21
1083.115656083115
 31
0.0
  0
LINE
  5
452F
330
19
100
AcDbEntity
  8
0
 62
     0
100
AcDbLine
 10
1986.058964946103
 20
1080.908549301928
 30
0.0
 11
1984.558964946103
 21
1082.408549301928
 31
0.0
  0
LINE
  5
4530
330
19
100
AcDbEntity
  8
0
 62
     0
100
AcDbLine
 10
1986.058964946103
 20
1083.736976426674
 30
0.0
 11
1984.558964946103
 21
1085.236976426674
 31
0.0
  0
LINE
  5
4531
330
19
100
AcDbEntity
  8
0
 62
     0
100
AcDbLine
 10
1986.058964946103
 20
1084.44408320786
 30
0.0
 11
1984.558964946103
 21
1085.944083207861
 31
0.0
  0
LINE
  5
4532
330
19
100
AcDbEntity
  8
0
 62
     0
100
AcDbLine
 10
1986.058964946103
 20
1080.201442520741
 30
0.0
 11
1984.558964946103
 21
1081.701442520741
 31
0.0
  0
LINE
  5
4533
330
19
100
AcDbEntity
  8
1
100
AcDbLine
 10
1988.558964946103
 20
1079.169247519507
 30
0.0
 11
1986.558964946103
 21
1079.169247519507
 31
0.0
  0
LINE
  5
4534
330
19
100
AcDbEntity
  8
1
100
AcDbLine
 10
1991.058964946103
 20
1079.891558569361
 30
0.0
 11
1990.558964946103
 21
1079.169247519507
 31
0.0
  0
LINE
  5
4535
330
19
100
AcDbEntity
  8
1
100
AcDbLine
 10
1988.558964946103
 20
1079.169247519507
 30
0.0
 11
1990.558964946103
 21
1079.169247519507
 31
0.0
  0
LINE
  5
4536
330
19
100
AcDbEntity
  8
1
100
AcDbLine
 10
1988.558964946103
 20
1079.891558569361
 30
0.0
 11
1991.058964946103
 21
1079.891558569361
 31
0.0
  0
LINE
  5
4537
330
19
100
AcDbEntity
  8
1
100
AcDbLine
 10
1985.308964946103
 20
1089.891558569361
 30
0.0
 11
1986.558964946103
 21
1088.641558569361
 31
0.0
  0
INSERT
  5
4538
330
19
100
AcDbEntity
  8
1
100
AcDbBlockReference
  2
WELD
 10
1983.946225101231
 20
1089.615956284987
 30
0.0
 41
-0.7000000000000455
 42
0.6999999999999887
 43
0.7
  0
LINE
  5
4539
330
19
100
AcDbEntity
  8
0
 62
     0
100
AcDbLine
 10
1986.058964946103
 20
1087.272510332607
 30
0.0
 11
1984.558964946103
 21
1088.772510332607
 31
0.0
  0
LINE
  5
453A
330
19
100
AcDbEntity
  8
0
 62
     0
100
AcDbLine
 10
1986.058964946103
 20
1086.56540355142
 30
0.0
 11
1984.558964946103
 21
1088.06540355142
 31
0.0
  0
LINE
  5
453B
330
19
100
AcDbEntity
  8
0
 62
     0
100
AcDbLine
 10
1986.058964946103
 20
1087.979617113793
 30
0.0
 11
1984.558964946103
 21
1089.479617113793
 31
0.0
  0
LINE
  5
453C
330
19
100
AcDbEntity
  8
0
 62
     0
100
AcDbLine
 10
1986.058964946103
 20
1088.68672389498
 30
0.0
 11
1984.854130271721
 21
1089.891558569361
 31
0.0
  0
LINE
  5
453D
330
19
100
AcDbEntity
  8
0
 62
     0
100
AcDbLine
 10
1990.277829621502
 20
1093.900635249105
 30
0.0
 11
1989.793707999871
 21
1094.384756870736
 31
0.0
  0
LINE
  5
453E
330
19
100
AcDbEntity
  8
1
100
AcDbLine
 10
1986.558964946103
 20
1088.641558569361
 30
0.0
 11
1988.558964946103
 21
1088.641558569361
 31
0.0
  0
LINE
  5
453F
330
19
100
AcDbEntity
  8
1
100
AcDbLine
 10
1990.558964946103
 20
1088.641558569361
 30
0.0
 11
1988.558964946103
 21
1088.641558569361
 31
0.0
  0
LINE
  5
4540
330
19
100
AcDbEntity
  8
1
100
AcDbLine
 10
1991.808964946103
 20
1089.891558569361
 30
0.0
 11
1990.558964946103
 21
1088.641558569361
 31
0.0
  0
LINE
  5
4541
330
19
100
AcDbEntity
  8
1
100
AcDbLine
 10
1998.990113220837
 20
1090.059369078113
 30
0.0
 11
1998.990113220837
 21
1083.059369078113
 31
0.0
  0
LINE
  5
4542
330
19
100
AcDbEntity
  8
1
100
AcDbLine
 10
1999.990113220837
 20
1091.059369078113
 30
0.0
 11
1999.990113220837
 21
1083.059369078113
 31
0.0
  0
LINE
  5
4543
330
19
100
AcDbEntity
  8
1
100
AcDbLine
 10
1999.990113220837
 20
1083.059369078113
 30
0.0
 11
1998.990113220837
 21
1083.059369078113
 31
0.0
  0
INSERT
  5
4545
330
19
100
AcDbEntity
  8
1
100
AcDbBlockReference
  2
WELD
 10
1993.26854349897
 20
1089.615956284987
 30
0.0
 41
0.7000000000000455
 42
0.6999999999999887
 43
0.7
  0
LINE
  5
4546
330
19
100
AcDbEntity
  8
1
100
AcDbLine
 10
2000.07752451894
 20
1092.231735449434
 30
0.0
 11
2000.07752451894
 21
1091.231735449434
 31
0.0
  0
LINE
  5
4547
330
19
100
AcDbEntity
  8
1
100
AcDbLine
 10
1999.07752451894
 20
1092.231735449434
 30
0.0
 11
1999.07752451894
 21
1091.231735449434
 31
0.0
  0
ARC
  5
4548
330
19
100
AcDbEntity
  8
1
100
AcDbCircle
 10
1997.57752451894
 20
1092.231735449434
 30
0.0
 40
1.5
100
AcDbArc
 50
0.0
 51
90.0
  0
LINE
  5
4549
330
19
100
AcDbEntity
  8
1
100
AcDbLine
 10
1999.07752451894
 20
1091.231735449434
 30
0.0
 11
2000.07752451894
 21
1091.231735449434
 31
0.0
  0
LINE
  5
454A
330
19
100
AcDbEntity
  8
1
100
AcDbLine
 10
1998.910241555881
 20
1092.079173452573
 30
0.0
 11
1998.910241555881
 21
1091.059369078113
 31
0.0
  0
LINE
  5
454B
330
19
100
AcDbEntity
  8
1
100
AcDbLine
 10
1998.685472377047
 20
1092.790476255097
 30
0.0
 11
1998.910241555881
 21
1092.079173452573
 31
0.0
  0
LINE
  5
454C
330
19
100
AcDbEntity
  8
1
100
AcDbLine
 10
1998.211333242303
 20
1093.259369078113
 30
0.0
 11
1998.685472377047
 21
1092.790476255097
 31
0.0
  0
LINE
  5
454D
330
19
100
AcDbEntity
  8
1
100
AcDbLine
 10
1995.643707999871
 20
1106.400635249105
 30
0.0
 11
1988.243707999871
 21
1106.400635249105
 31
0.0
  0
LINE
  5
454E
330
19
100
AcDbEntity
  8
1
100
AcDbLine
 10
1995.943707999871
 20
1094.900635249105
 30
0.0
 11
1987.943707999871
 21
1094.900635249105
 31
0.0
  0
LINE
  5
454F
330
19
100
AcDbEntity
  8
1
100
AcDbLine
 10
1991.943707999872
 20
1095.900635249105
 30
0.0
 11
1993.543707999871
 21
1096.389355944095
 31
0.0
  0
LINE
  5
4550
330
19
100
AcDbEntity
  8
1
100
AcDbLine
 10
1991.943707999872
 20
1097.426672752663
 30
0.0
 11
1993.543707999871
 21
1097.426672752663
 31
0.0
  0
LINE
  5
4551
330
19
100
AcDbEntity
  8
1
100
AcDbLine
 10
1991.943707999872
 20
1097.900635249105
 30
0.0
 11
1993.943707999871
 21
1097.900635249105
 31
0.0
  0
LINE
  5
4552
330
19
100
AcDbEntity
  8
1
100
AcDbLine
 10
1993.543707999871
 20
1105.000635249105
 30
0.0
 11
1991.943707999872
 21
1105.000635249105
 31
0.0
  0
LINE
  5
4553
330
19
100
AcDbEntity
  8
1
100
AcDbLine
 10
1987.943707999871
 20
1106.100635249106
 30
0.0
 11
1987.943707999871
 21
1094.900635249105
 31
0.0
  0
LINE
  5
4554
330
19
100
AcDbEntity
  8
1
100
AcDbLine
 10
1990.343707999871
 20
1105.000635249105
 30
0.0
 11
1990.343707999871
 21
1096.389355944095
 31
0.0
  0
LINE
  5
4555
330
19
100
AcDbEntity
  8
1
100
AcDbLine
 10
1989.943707999871
 20
1105.400635249105
 30
0.0
 11
1989.943707999871
 21
1097.900635249106
 31
0.0
  0
LINE
  5
4556
330
19
100
AcDbEntity
  8
0
 62
     0
100
AcDbLine
 10
1989.943707999871
 20
1102.012931463788
 30
0.0
 11
1987.943707999871
 21
1104.012931463788
 31
0.0
  0
LINE
  5
4557
330
19
100
AcDbEntity
  8
0
 62
     0
100
AcDbLine
 10
1989.943707999871
 20
1101.305824682601
 30
0.0
 11
1987.943707999871
 21
1103.305824682601
 31
0.0
  0
LINE
  5
4558
330
19
100
AcDbEntity
  8
0
 62
     0
100
AcDbLine
 10
1989.943707999871
 20
1100.598717901415
 30
0.0
 11
1987.943707999871
 21
1102.598717901414
 31
0.0
  0
LINE
  5
4559
330
19
100
AcDbEntity
  8
1
100
AcDbLine
 10
1985.07752451894
 20
1094.731735449434
 30
0.0
 11
1985.06752451894
 21
1094.731735449434
 31
0.0
  0
LINE
  5
455A
330
19
100
AcDbEntity
  8
1
100
AcDbLine
 10
1986.716682906096
 20
1094.731735449434
 30
0.0
 11
1989.793707999871
 21
1094.731735449434
 31
0.0
  0
LINE
  5
455B
330
19
100
AcDbEntity
  8
1
100
AcDbLine
 10
1991.943707999871
 20
1097.900635249105
 30
0.0
 11
1989.943707999871
 21
1097.900635249105
 31
0.0
  0
LINE
  5
455C
330
19
100
AcDbEntity
  8
1
100
AcDbLine
 10
1991.943707999871
 20
1097.426672752663
 30
0.0
 11
1990.343707999871
 21
1097.426672752663
 31
0.0
  0
LINE
  5
455D
330
19
100
AcDbEntity
  8
1
100
AcDbLine
 10
1989.943707999871
 20
1097.900635249105
 30
0.0
 11
1990.343707999871
 21
1097.426672752663
 31
0.0
  0
LINE
  5
455E
330
19
100
AcDbEntity
  8
1
100
AcDbLine
 10
1991.943707999871
 20
1095.900635249105
 30
0.0
 11
1990.343707999871
 21
1096.389355944095
 31
0.0
  0
LINE
  5
455F
330
19
100
AcDbEntity
  8
0
 62
     0
100
AcDbLine
 10
1989.943707999871
 20
1099.891611120228
 30
0.0
 11
1987.943707999871
 21
1101.891611120228
 31
0.0
  0
LINE
  5
4560
330
19
100
AcDbEntity
  8
0
 62
     0
100
AcDbLine
 10
1989.943707999871
 20
1099.184504339042
 30
0.0
 11
1987.943707999871
 21
1101.184504339042
 31
0.0
  0
LINE
  5
4561
330
19
100
AcDbEntity
  8
0
 62
     0
100
AcDbLine
 10
1989.943707999871
 20
1098.477397557855
 30
0.0
 11
1987.943707999871
 21
1100.477397557855
 31
0.0
  0
LINE
  5
4562
330
19
100
AcDbEntity
  8
0
 62
     0
100
AcDbLine
 10
1990.520470308621
 20
1097.900635249105
 30
0.0
 11
1990.343707999871
 21
1098.077397557855
 31
0.0
  0
LINE
  5
4563
330
19
100
AcDbEntity
  8
0
 62
     0
100
AcDbLine
 10
1990.343707999871
 20
1097.370290776668
 30
0.0
 11
1987.943707999871
 21
1099.770290776668
 31
0.0
  0
LINE
  5
4564
330
19
100
AcDbEntity
  8
0
 62
     0
100
AcDbLine
 10
1990.343707999871
 20
1096.663183995482
 30
0.0
 11
1987.943707999871
 21
1099.063183995482
 31
0.0
  0
LINE
  5
4565
330
19
100
AcDbEntity
  8
0
 62
     0
100
AcDbLine
 10
1989.277829621502
 20
1094.900635249105
 30
0.0
 11
1987.943707999871
 21
1096.234756870736
 31
0.0
  0
LINE
  5
4566
330
19
100
AcDbEntity
  8
0
 62
     0
100
AcDbLine
 10
1988.570722840315
 20
1094.900635249105
 30
0.0
 11
1987.943707999871
 21
1095.527650089549
 31
0.0
  0
LINE
  5
4567
330
19
100
AcDbEntity
  8
1
100
AcDbLine
 10
1985.570335828479
 20
1103.524273283404
 30
0.0
 11
1987.570335828479
 21
1103.524273283404
 31
0.0
  0
ARC
  5
4568
330
19
100
AcDbEntity
  8
1
100
AcDbCircle
 10
1989.57033582848
 20
1104.524273283404
 30
0.0
 40
4.0
100
AcDbArc
 50
90.0
 51
180.0
  0
LINE
  5
4569
330
19
100
AcDbEntity
  8
1
100
AcDbLine
 10
1985.570335828479
 20
1104.524273283404
 30
0.0
 11
1985.570335828479
 21
1103.524273283404
 31
0.0
  0
LINE
  5
456A
330
19
100
AcDbEntity
  8
1
100
AcDbLine
 10
1987.570335828479
 20
1104.524273283404
 30
0.0
 11
1987.570335828479
 21
1103.524273283404
 31
0.0
  0
ARC
  5
456B
330
19
100
AcDbEntity
  8
1
100
AcDbCircle
 10
1989.57033582848
 20
1104.524273283404
 30
0.0
 40
2.0
100
AcDbArc
 50
90.0
 51
180.0
  0
LINE
  5
456C
330
19
100
AcDbEntity
  8
1
100
AcDbLine
 10
1988.943707999871
 20
1106.400635249105
 30
0.0
 11
1990.343707999871
 21
1105.000635249105
 31
0.0
  0
LINE
  5
456D
330
19
100
AcDbEntity
  8
1
100
AcDbLine
 10
1990.343707999871
 20
1105.000635249105
 30
0.0
 11
1991.943707999871
 21
1105.000635249105
 31
0.0
  0
LINE
  5
456E
330
19
100
AcDbEntity
  8
1
100
AcDbLine
 10
1988.243707999871
 20
1106.400635249105
 30
0.0
 11
1987.943707999871
 21
1106.100635249106
 31
0.0
  0
LINE
  5
456F
330
19
100
AcDbEntity
  8
0
 62
     0
100
AcDbLine
 10
1989.943707999871
 20
1102.720038244974
 30
0.0
 11
1987.943707999871
 21
1104.720038244974
 31
0.0
  0
LINE
  5
4570
330
19
100
AcDbEntity
  8
0
 62
     0
100
AcDbLine
 10
1989.943707999871
 20
1103.427145026161
 30
0.0
 11
1987.943707999871
 21
1105.427145026161
 31
0.0
  0
LINE
  5
4571
330
19
100
AcDbEntity
  8
0
 62
     0
100
AcDbLine
 10
1989.943707999871
 20
1104.134251807348
 30
0.0
 11
1987.960516278992
 21
1106.117443528226
 31
0.0
  0
LINE
  5
4572
330
19
100
AcDbEntity
  8
0
 62
     0
100
AcDbLine
 10
1989.943707999871
 20
1104.841358588534
 30
0.0
 11
1988.3844313393
 21
1106.400635249105
 31
0.0
  0
LINE
  5
4573
330
19
100
AcDbEntity
  8
1
100
AcDbLine
 10
1995.943707999871
 20
1094.900635249105
 30
0.0
 11
1995.943707999871
 21
1106.100635249106
 31
0.0
  0
LINE
  5
4574
330
19
100
AcDbEntity
  8
1
100
AcDbLine
 10
1993.943707999871
 20
1105.400635249105
 30
0.0
 11
1993.943707999871
 21
1097.900635249106
 31
0.0
  0
LINE
  5
4575
330
19
100
AcDbEntity
  8
1
100
AcDbLine
 10
1993.543707999871
 20
1105.000635249105
 30
0.0
 11
1993.543707999871
 21
1096.389355944095
 31
0.0
  0
LINE
  5
4576
330
19
100
AcDbEntity
  8
0
 62
     0
100
AcDbLine
 10
1995.943707999871
 20
1100.962678932094
 30
0.0
 11
1993.943707999871
 21
1102.962678932093
 31
0.0
  0
LINE
  5
4577
330
19
100
AcDbEntity
  8
0
 62
     0
100
AcDbLine
 10
1995.943707999871
 20
1101.66978571328
 30
0.0
 11
1993.943707999871
 21
1103.66978571328
 31
0.0
  0
LINE
  5
4578
330
19
100
AcDbEntity
  8
0
 62
     0
100
AcDbLine
 10
1995.943707999871
 20
1102.376892494467
 30
0.0
 11
1993.943707999871
 21
1104.376892494467
 31
0.0
  0
LINE
  5
4579
330
19
100
AcDbEntity
  8
1
100
AcDbLine
 10
1994.093707999871
 20
1094.731735449434
 30
0.0
 11
1997.57752451894
 21
1094.731735449434
 31
0.0
  0
LINE
  5
457A
330
19
100
AcDbEntity
  8
1
100
AcDbLine
 10
1993.943707999871
 20
1097.900635249105
 30
0.0
 11
1993.543707999871
 21
1097.426672752663
 31
0.0
  0
LINE
  5
457B
330
19
100
AcDbEntity
  8
0
 62
     0
100
AcDbLine
 10
1995.943707999871
 20
1096.720038244974
 30
0.0
 11
1993.943707999871
 21
1098.720038244974
 31
0.0
  0
LINE
  5
457C
330
19
100
AcDbEntity
  8
0
 62
     0
100
AcDbLine
 10
1995.943707999871
 20
1096.012931463788
 30
0.0
 11
1993.943707999871
 21
1098.012931463788
 31
0.0
  0
LINE
  5
457D
330
19
100
AcDbEntity
  8
0
 62
     0
100
AcDbLine
 10
1995.943707999871
 20
1095.305824682601
 30
0.0
 11
1993.671471802586
 21
1097.578060879887
 31
0.0
  0
LINE
  5
457E
330
19
100
AcDbEntity
  8
0
 62
     0
100
AcDbLine
 10
1995.64179065218
 20
1094.900635249105
 30
0.0
 11
1993.543707999871
 21
1096.998717901414
 31
0.0
  0
LINE
  5
457F
330
19
100
AcDbEntity
  8
0
 62
     0
100
AcDbLine
 10
1994.934683870994
 20
1094.900635249105
 30
0.0
 11
1993.46883359538
 21
1096.36648552472
 31
0.0
  0
LINE
  5
4580
330
19
100
AcDbEntity
  8
0
 62
     0
100
AcDbLine
 10
1994.227577089807
 20
1094.900635249105
 30
0.0
 11
1992.927176277284
 21
1096.201036061629
 31
0.0
  0
LINE
  5
4581
330
19
100
AcDbEntity
  8
0
 62
     0
100
AcDbLine
 10
1995.943707999871
 20
1097.427145026161
 30
0.0
 11
1993.943707999871
 21
1099.427145026161
 31
0.0
  0
LINE
  5
4582
330
19
100
AcDbEntity
  8
0
 62
     0
100
AcDbLine
 10
1995.943707999871
 20
1098.134251807348
 30
0.0
 11
1993.943707999871
 21
1100.134251807347
 31
0.0
  0
LINE
  5
4583
330
19
100
AcDbEntity
  8
0
 62
     0
100
AcDbLine
 10
1995.943707999871
 20
1098.841358588534
 30
0.0
 11
1993.943707999871
 21
1100.841358588534
 31
0.0
  0
LINE
  5
4584
330
19
100
AcDbEntity
  8
0
 62
     0
100
AcDbLine
 10
1995.943707999871
 20
1099.54846536972
 30
0.0
 11
1993.943707999871
 21
1101.54846536972
 31
0.0
  0
LINE
  5
4585
330
19
100
AcDbEntity
  8
0
 62
     0
100
AcDbLine
 10
1995.943707999871
 20
1100.255572150907
 30
0.0
 11
1993.943707999871
 21
1102.255572150907
 31
0.0
  0
LINE
  5
4586
330
19
100
AcDbEntity
  8
1
100
AcDbLine
 10
1995.643707999871
 20
1106.400635249105
 30
0.0
 11
1995.943707999871
 21
1106.100635249106
 31
0.0
  0
LINE
  5
4587
330
19
100
AcDbEntity
  8
1
100
AcDbLine
 10
1994.943707999871
 20
1106.400635249105
 30
0.0
 11
1993.543707999871
 21
1105.000635249105
 31
0.0
  0
LINE
  5
4588
330
19
100
AcDbEntity
  8
0
 62
     0
100
AcDbLine
 10
1995.943707999871
 20
1103.083999275653
 30
0.0
 11
1993.943707999871
 21
1105.083999275653
 31
0.0
  0
LINE
  5
4589
330
19
100
AcDbEntity
  8
0
 62
     0
100
AcDbLine
 10
1995.943707999871
 20
1103.79110605684
 30
0.0
 11
1994.138943403739
 21
1105.595870652972
 31
0.0
  0
LINE
  5
458A
330
19
100
AcDbEntity
  8
0
 62
     0
100
AcDbLine
 10
1995.943707999871
 20
1104.498212838026
 30
0.0
 11
1994.492496794332
 21
1105.949424043566
 31
0.0
  0
LINE
  5
458B
330
19
100
AcDbEntity
  8
0
 62
     0
100
AcDbLine
 10
1995.943707999871
 20
1105.205319619213
 30
0.0
 11
1994.748392369978
 21
1106.400635249105
 31
0.0
  0
LINE
  5
458C
330
19
100
AcDbEntity
  8
0
 62
     0
100
AcDbLine
 10
1995.943707999871
 20
1105.912426400399
 30
0.0
 11
1995.455499151165
 21
1106.400635249105
 31
0.0
  0
INSERT
  5
4594
330
19
100
AcDbEntity
  8
1
100
AcDbBlockReference
  2
WELD
 10
2113.799885335528
 20
1089.615956284987
 30
0.0
 41
-0.7000000000000455
 42
0.6999999999999887
 43
0.7
  0
LINE
  5
4595
330
19
100
AcDbEntity
  8
1
100
AcDbLine
 10
2127.938402068017
 20
1090.059369078113
 30
0.0
 11
2108.164151955912
 21
1090.059369078113
 31
0.0
  0
LINE
  5
4596
330
19
100
AcDbEntity
  8
0
 62
     0
100
AcDbLine
 10
2113.340901649315
 20
1093.900635249105
 30
0.0
 11
2115.398224809091
 21
1095.957958408882
 31
0.0
  0
LINE
  5
4597
330
19
100
AcDbEntity
  8
0
 62
     0
100
AcDbLine
 10
2113.060557176877
 20
1094.327397557855
 30
0.0
 11
2114.76874621756
 21
1096.035586598538
 31
0.0
  0
LINE
  5
4598
330
19
100
AcDbEntity
  8
0
 62
     0
100
AcDbLine
 10
2112.926688086941
 20
1094.900635249105
 30
0.0
 11
2114.227088899464
 21
1096.201036061629
 31
0.0
  0
LINE
  5
4599
330
19
100
AcDbEntity
  8
0
 62
     0
100
AcDbLine
 10
2112.219581305755
 20
1094.900635249105
 30
0.0
 11
2113.68543158137
 21
1096.36648552472
 31
0.0
  0
LINE
  5
459A
330
19
100
AcDbEntity
  8
0
 62
     0
100
AcDbLine
 10
2111.512474524568
 20
1094.900635249105
 30
0.0
 11
2113.610557176877
 21
1096.998717901414
 31
0.0
  0
LINE
  5
459B
330
19
100
AcDbEntity
  8
0
 62
     0
100
AcDbLine
 10
2111.210557176878
 20
1095.305824682601
 30
0.0
 11
2113.482793374163
 21
1097.578060879887
 31
0.0
  0
LINE
  5
459C
330
19
100
AcDbEntity
  8
1
100
AcDbLine
 10
2112.210557176878
 20
1106.400635249105
 30
0.0
 11
2113.610557176877
 21
1105.000635249105
 31
0.0
  0
LINE
  5
459D
330
19
100
AcDbEntity
  8
1
100
AcDbLine
 10
2115.210557176877
 20
1097.900635249105
 30
0.0
 11
2113.210557176878
 21
1097.900635249105
 31
0.0
  0
LINE
  5
459E
330
19
100
AcDbEntity
  8
1
100
AcDbLine
 10
2113.210557176878
 20
1097.900635249105
 30
0.0
 11
2113.610557176877
 21
1097.426672752663
 31
0.0
  0
LINE
  5
459F
330
19
100
AcDbEntity
  8
1
100
AcDbLine
 10
2111.210557176878
 20
1094.900635249105
 30
0.0
 11
2119.210557176878
 21
1094.900635249105
 31
0.0
  0
LINE
  5
45A0
330
19
100
AcDbEntity
  8
1
100
AcDbLine
 10
2111.510557176878
 20
1106.400635249105
 30
0.0
 11
2118.910557176878
 21
1106.400635249105
 31
0.0
  0
LINE
  5
45A1
330
19
100
AcDbEntity
  8
1
100
AcDbLine
 10
2117.360557176877
 20
1093.900635249105
 30
0.0
 11
2113.060557176877
 21
1093.900635249105
 31
0.0
  0
LINE
  5
45A2
330
19
100
AcDbEntity
  8
1
100
AcDbLine
 10
2120.43757870233
 20
1093.731735449434
 30
0.0
 11
2109.576738440388
 21
1093.731735449434
 31
0.0
  0
LWPOLYLINE
  5
45A3
330
19
100
AcDbEntity
  8
1
100
AcDbPolyline
 90
        4
 70
     0
 43
0.0
 10
2108.942931934446
 20
1093.259369078113
 10
2126.612918668424
 20
1093.259369078113
 10
2143.612918668423
 20
1110.259369078113
 10
2166.024188505644
 20
1110.259369078113
  0
LWPOLYLINE
  5
45A4
330
19
100
AcDbEntity
  8
1
100
AcDbPolyline
 90
        4
 70
     0
 43
0.0
 10
2107.164151955912
 20
1091.059369078113
 10
2127.524188505644
 20
1091.059369078113
 10
2144.524188505644
 20
1108.059369078113
 10
2166.024188505644
 20
1108.059369078113
  0
LINE
  5
45A5
330
19
100
AcDbEntity
  8
1
100
AcDbLine
 10
2117.583929348269
 20
1106.524273283404
 30
0.0
 11
2053.583929348269
 21
1106.524273283404
 31
0.0
  0
LINE
  5
45A6
330
19
100
AcDbEntity
  8
1
100
AcDbLine
 10
2117.583929348269
 20
1108.524273283404
 30
0.0
 11
2053.583929348269
 21
1108.524273283404
 31
0.0
  0
LINE
  5
4619
330
19
100
AcDbEntity
  8
1
100
AcDbLine
 10
2107.164151955912
 20
1083.059369078113
 30
0.0
 11
2053.577132588374
 21
1083.059369078113
 31
0.0
  0
LINE
  5
461A
330
19
100
AcDbEntity
  8
1
100
AcDbLine
 10
2107.164151955912
 20
1091.059369078114
 30
0.0
 11
2053.577132588374
 21
1091.059369078114
 31
0.0
  0
LINE
  5
461B
330
19
100
AcDbEntity
  8
0
 62
     0
100
AcDbLine
 10
2052.705075654363
 20
1093.900635249105
 30
0.0
 11
2049.663847251547
 21
1096.941863651922
 31
0.0
  0
LINE
  5
461C
330
19
100
AcDbEntity
  8
0
 62
     0
100
AcDbLine
 10
2053.41218243555
 20
1093.900635249105
 30
0.0
 11
2049.663847251547
 21
1097.648970433109
 31
0.0
  0
LINE
  5
461D
330
19
100
AcDbEntity
  8
0
 62
     0
100
AcDbLine
 10
2054.119289216736
 20
1093.900635249105
 30
0.0
 11
2049.663847251547
 21
1098.356077214295
 31
0.0
  0
LINE
  5
461E
330
19
100
AcDbEntity
  8
0
 62
     0
100
AcDbLine
 10
2054.826395997923
 20
1093.900635249105
 30
0.0
 11
2049.663847251547
 21
1099.063183995482
 31
0.0
  0
LINE
  5
461F
330
19
100
AcDbEntity
  8
0
 62
     0
100
AcDbLine
 10
2055.533502779109
 20
1093.900635249105
 30
0.0
 11
2049.663847251547
 21
1099.770290776669
 31
0.0
  0
LINE
  5
4620
330
19
100
AcDbEntity
  8
0
 62
     0
100
AcDbLine
 10
2055.813847251546
 20
1094.327397557855
 30
0.0
 11
2049.663847251547
 21
1100.477397557855
 31
0.0
  0
LINE
  5
4621
330
19
100
AcDbEntity
  8
1
100
AcDbLine
 10
2051.513847251547
 20
1094.900635249105
 30
0.0
 11
2051.513847251547
 21
1093.900635249105
 31
0.0
  0
LINE
  5
4622
330
19
100
AcDbEntity
  8
1
100
AcDbLine
 10
2055.813847251546
 20
1094.900635249105
 30
0.0
 11
2055.813847251546
 21
1093.900635249105
 31
0.0
  0
LINE
  5
4623
330
19
100
AcDbEntity
  8
1
100
AcDbLine
 10
2051.513847251547
 20
1093.900635249105
 30
0.0
 11
2055.813847251546
 21
1093.900635249105
 31
0.0
  0
LINE
  5
4624
330
19
100
AcDbEntity
  8
0
 62
     0
100
AcDbLine
 10
2051.997968873177
 20
1093.900635249105
 30
0.0
 11
2051.513847251547
 21
1094.384756870736
 31
0.0
  0
LINE
  5
4625
330
19
100
AcDbEntity
  8
0
 62
     0
100
AcDbLine
 10
2057.663847251546
 20
1102.376892494467
 30
0.0
 11
2053.640104496908
 21
1106.400635249105
 31
0.0
  0
LINE
  5
4626
330
19
100
AcDbEntity
  8
0
 62
     0
100
AcDbLine
 10
2057.663847251546
 20
1101.66978571328
 30
0.0
 11
2052.932997715721
 21
1106.400635249105
 31
0.0
  0
LINE
  5
4627
330
19
100
AcDbEntity
  8
0
 62
     0
100
AcDbLine
 10
2057.663847251546
 20
1100.962678932094
 30
0.0
 11
2052.225890934535
 21
1106.400635249105
 31
0.0
  0
LINE
  5
4628
330
19
100
AcDbEntity
  8
0
 62
     0
100
AcDbLine
 10
2057.663847251546
 20
1100.255572150907
 30
0.0
 11
2051.518784153349
 21
1106.400635249105
 31
0.0
  0
LINE
  5
4629
330
19
100
AcDbEntity
  8
0
 62
     0
100
AcDbLine
 10
2057.663847251546
 20
1099.54846536972
 30
0.0
 11
2050.811677372162
 21
1106.400635249105
 31
0.0
  0
LINE
  5
462A
330
19
100
AcDbEntity
  8
0
 62
     0
100
AcDbLine
 10
2057.663847251546
 20
1098.841358588534
 30
0.0
 11
2050.104570590975
 21
1106.400635249105
 31
0.0
  0
LINE
  5
462B
330
19
100
AcDbEntity
  8
0
 62
     0
100
AcDbLine
 10
2057.663847251546
 20
1098.134251807348
 30
0.0
 11
2049.680655530667
 21
1106.117443528226
 31
0.0
  0
LINE
  5
462C
330
19
100
AcDbEntity
  8
0
 62
     0
100
AcDbLine
 10
2057.663847251546
 20
1097.427145026161
 30
0.0
 11
2049.663847251547
 21
1105.427145026161
 31
0.0
  0
LINE
  5
462D
330
19
100
AcDbEntity
  8
0
 62
     0
100
AcDbLine
 10
2057.361929903856
 20
1094.900635249105
 30
0.0
 11
2049.663847251547
 21
1102.598717901414
 31
0.0
  0
LINE
  5
462E
330
19
100
AcDbEntity
  8
0
 62
     0
100
AcDbLine
 10
2057.663847251546
 20
1095.305824682601
 30
0.0
 11
2049.663847251547
 21
1103.305824682601
 31
0.0
  0
LINE
  5
462F
330
19
100
AcDbEntity
  8
0
 62
     0
100
AcDbLine
 10
2057.663847251546
 20
1096.012931463788
 30
0.0
 11
2049.663847251547
 21
1104.012931463788
 31
0.0
  0
LINE
  5
4630
330
19
100
AcDbEntity
  8
0
 62
     0
100
AcDbLine
 10
2057.663847251546
 20
1096.720038244974
 30
0.0
 11
2049.663847251547
 21
1104.720038244975
 31
0.0
  0
LINE
  5
4631
330
19
100
AcDbEntity
  8
1
100
AcDbLine
 10
2049.663847251547
 20
1106.100635249106
 30
0.0
 11
2049.663847251547
 21
1094.900635249105
 31
0.0
  0
LINE
  5
4632
330
19
100
AcDbEntity
  8
1
100
AcDbLine
 10
2057.663847251546
 20
1094.900635249105
 30
0.0
 11
2057.663847251546
 21
1106.100635249106
 31
0.0
  0
LINE
  5
4633
330
19
100
AcDbEntity
  8
0
 62
     0
100
AcDbLine
 10
2055.947716341483
 20
1094.900635249105
 30
0.0
 11
2049.663847251547
 21
1101.184504339042
 31
0.0
  0
LINE
  5
4634
330
19
100
AcDbEntity
  8
0
 62
     0
100
AcDbLine
 10
2056.65482312267
 20
1094.900635249105
 30
0.0
 11
2049.663847251547
 21
1101.891611120228
 31
0.0
  0
LINE
  5
4635
330
19
100
AcDbEntity
  8
1
100
AcDbLine
 10
2057.663847251546
 20
1094.900635249105
 30
0.0
 11
2049.663847251547
 21
1094.900635249105
 31
0.0
  0
LINE
  5
4636
330
19
100
AcDbEntity
  8
0
 62
     0
100
AcDbLine
 10
2050.29086209199
 20
1094.900635249105
 30
0.0
 11
2049.663847251547
 21
1095.527650089549
 31
0.0
  0
LINE
  5
4637
330
19
100
AcDbEntity
  8
0
 62
     0
100
AcDbLine
 10
2050.997968873177
 20
1094.900635249105
 30
0.0
 11
2049.663847251547
 21
1096.234756870736
 31
0.0
  0
LINE
  5
4638
330
19
100
AcDbEntity
  8
0
 62
     0
100
AcDbLine
 10
2052.240609560296
 20
1097.900635249105
 30
0.0
 11
2052.063847251546
 21
1098.077397557855
 31
0.0
  0
LINE
  5
4639
330
19
100
AcDbEntity
  8
1
100
AcDbLine
 10
2057.363847251547
 20
1106.400635249105
 30
0.0
 11
2049.963847251546
 21
1106.400635249105
 31
0.0
  0
LINE
  5
463A
330
19
100
AcDbEntity
  8
1
100
AcDbLine
 10
2049.963847251546
 20
1106.400635249105
 30
0.0
 11
2049.663847251547
 21
1106.100635249106
 31
0.0
  0
LINE
  5
463B
330
19
100
AcDbEntity
  8
0
 62
     0
100
AcDbLine
 10
2057.663847251546
 20
1105.912426400399
 30
0.0
 11
2057.17563840284
 21
1106.400635249105
 31
0.0
  0
LINE
  5
463C
330
19
100
AcDbEntity
  8
0
 62
     0
100
AcDbLine
 10
2057.663847251546
 20
1105.205319619213
 30
0.0
 11
2056.468531621654
 21
1106.400635249105
 31
0.0
  0
LINE
  5
463D
330
19
100
AcDbEntity
  8
0
 62
     0
100
AcDbLine
 10
2057.663847251546
 20
1104.498212838026
 30
0.0
 11
2055.761424840468
 21
1106.400635249105
 31
0.0
  0
LINE
  5
463E
330
19
100
AcDbEntity
  8
0
 62
     0
100
AcDbLine
 10
2057.663847251546
 20
1103.79110605684
 30
0.0
 11
2055.054318059281
 21
1106.400635249105
 31
0.0
  0
LINE
  5
463F
330
19
100
AcDbEntity
  8
0
 62
     0
100
AcDbLine
 10
2057.663847251546
 20
1103.083999275653
 30
0.0
 11
2054.347211278094
 21
1106.400635249105
 31
0.0
  0
LINE
  5
4640
330
19
100
AcDbEntity
  8
1
100
AcDbLine
 10
2057.363847251547
 20
1106.400635249105
 30
0.0
 11
2057.663847251546
 21
1106.100635249106
 31
0.0
  0
LINE
  5
4642
330
19
100
AcDbEntity
  8
1
100
AcDbLine
 10
2113.060557176877
 20
1094.900635249105
 30
0.0
 11
2113.060557176877
 21
1093.900635249105
 31
0.0
  0
ARC
  5
4643
330
19
100
AcDbEntity
  8
1
100
AcDbCircle
 10
2109.576740657809
 20
1092.231735449434
 30
0.0
 40
2.5
100
AcDbArc
 50
90.0
 51
180.0
  0
LINE
  5
4644
330
19
100
AcDbEntity
  8
1
100
AcDbLine
 10
2107.164151955912
 20
1091.059369078113
 30
0.0
 11
2107.164151955912
 21
1083.059369078113
 31
0.0
  0
LINE
  5
4645
330
19
100
AcDbEntity
  8
1
100
AcDbLine
 10
2108.164151955912
 20
1090.059369078113
 30
0.0
 11
2108.164151955912
 21
1083.059369078113
 31
0.0
  0
LINE
  5
4646
330
19
100
AcDbEntity
  8
1
100
AcDbLine
 10
2107.164151955912
 20
1083.059369078113
 30
0.0
 11
2108.164151955912
 21
1083.059369078113
 31
0.0
  0
LINE
  5
4647
330
19
100
AcDbEntity
  8
1
100
AcDbLine
 10
2108.076740657809
 20
1091.231735449434
 30
0.0
 11
2107.076740657809
 21
1091.231735449434
 31
0.0
  0
ARC
  5
4648
330
19
100
AcDbEntity
  8
1
100
AcDbCircle
 10
2109.576740657809
 20
1092.231735449434
 30
0.0
 40
1.5
100
AcDbArc
 50
90.0
 51
180.0
  0
LINE
  5
4649
330
19
100
AcDbEntity
  8
1
100
AcDbLine
 10
2107.076740657809
 20
1092.231735449434
 30
0.0
 11
2107.076740657809
 21
1091.231735449434
 31
0.0
  0
LINE
  5
464A
330
19
100
AcDbEntity
  8
1
100
AcDbLine
 10
2108.942931934446
 20
1093.259369078113
 30
0.0
 11
2108.468792799702
 21
1092.790476255097
 31
0.0
  0
LINE
  5
464B
330
19
100
AcDbEntity
  8
1
100
AcDbLine
 10
2108.468792799702
 20
1092.790476255097
 30
0.0
 11
2108.244023620868
 21
1092.079173452573
 31
0.0
  0
LINE
  5
464C
330
19
100
AcDbEntity
  8
1
100
AcDbLine
 10
2108.244023620868
 20
1092.079173452573
 30
0.0
 11
2108.244023620868
 21
1091.059369078113
 31
0.0
  0
LINE
  5
464D
330
19
100
AcDbEntity
  8
1
100
AcDbLine
 10
2108.076740657809
 20
1092.231735449434
 30
0.0
 11
2108.076740657809
 21
1091.231735449434
 31
0.0
  0
LINE
  5
464F
330
19
100
AcDbEntity
  8
0
 62
     0
100
AcDbLine
 10
2111.210557176878
 20
1102.376892494467
 30
0.0
 11
2113.210557176878
 21
1104.376892494467
 31
0.0
  0
LINE
  5
4650
330
19
100
AcDbEntity
  8
0
 62
     0
100
AcDbLine
 10
2111.210557176878
 20
1101.66978571328
 30
0.0
 11
2113.210557176878
 21
1103.66978571328
 31
0.0
  0
LINE
  5
4651
330
19
100
AcDbEntity
  8
0
 62
     0
100
AcDbLine
 10
2111.210557176878
 20
1100.962678932094
 30
0.0
 11
2113.210557176878
 21
1102.962678932093
 31
0.0
  0
LINE
  5
4652
330
19
100
AcDbEntity
  8
1
100
AcDbLine
 10
2113.210557176878
 20
1105.400635249105
 30
0.0
 11
2113.210557176878
 21
1097.900635249106
 31
0.0
  0
LINE
  5
4653
330
19
100
AcDbEntity
  8
1
100
AcDbLine
 10
2111.210557176878
 20
1094.900635249105
 30
0.0
 11
2111.210557176878
 21
1106.100635249106
 31
0.0
  0
LINE
  5
4654
330
19
100
AcDbEntity
  8
0
 62
     0
100
AcDbLine
 10
2111.210557176878
 20
1100.255572150907
 30
0.0
 11
2113.210557176878
 21
1102.255572150907
 31
0.0
  0
LINE
  5
4655
330
19
100
AcDbEntity
  8
0
 62
     0
100
AcDbLine
 10
2111.210557176878
 20
1099.54846536972
 30
0.0
 11
2113.210557176878
 21
1101.54846536972
 31
0.0
  0
LINE
  5
4656
330
19
100
AcDbEntity
  8
0
 62
     0
100
AcDbLine
 10
2111.210557176878
 20
1098.841358588534
 30
0.0
 11
2113.210557176878
 21
1100.841358588534
 31
0.0
  0
LINE
  5
4657
330
19
100
AcDbEntity
  8
0
 62
     0
100
AcDbLine
 10
2111.210557176878
 20
1098.134251807348
 30
0.0
 11
2113.210557176878
 21
1100.134251807347
 31
0.0
  0
LINE
  5
4658
330
19
100
AcDbEntity
  8
0
 62
     0
100
AcDbLine
 10
2111.210557176878
 20
1097.427145026161
 30
0.0
 11
2113.210557176878
 21
1099.427145026161
 31
0.0
  0
LINE
  5
4659
330
19
100
AcDbEntity
  8
0
 62
     0
100
AcDbLine
 10
2111.210557176878
 20
1096.012931463788
 30
0.0
 11
2113.210557176878
 21
1098.012931463788
 31
0.0
  0
LINE
  5
465A
330
19
100
AcDbEntity
  8
0
 62
     0
100
AcDbLine
 10
2111.210557176878
 20
1096.720038244974
 30
0.0
 11
2113.210557176878
 21
1098.720038244974
 31
0.0
  0
LINE
  5
465B
330
19
100
AcDbEntity
  8
1
100
AcDbLine
 10
2113.060557176877
 20
1094.731735449434
 30
0.0
 11
2109.576740657809
 21
1094.731735449434
 31
0.0
  0
LINE
  5
465C
330
19
100
AcDbEntity
  8
0
 62
     0
100
AcDbLine
 10
2111.210557176878
 20
1105.912426400399
 30
0.0
 11
2111.698766025584
 21
1106.400635249105
 31
0.0
  0
LINE
  5
465D
330
19
100
AcDbEntity
  8
0
 62
     0
100
AcDbLine
 10
2111.210557176878
 20
1105.205319619213
 30
0.0
 11
2112.40587280677
 21
1106.400635249105
 31
0.0
  0
LINE
  5
465E
330
19
100
AcDbEntity
  8
0
 62
     0
100
AcDbLine
 10
2111.210557176878
 20
1104.498212838026
 30
0.0
 11
2112.661768382417
 21
1105.949424043566
 31
0.0
  0
LINE
  5
465F
330
19
100
AcDbEntity
  8
0
 62
     0
100
AcDbLine
 10
2111.210557176878
 20
1103.79110605684
 30
0.0
 11
2113.01532177301
 21
1105.595870652972
 31
0.0
  0
LINE
  5
4660
330
19
100
AcDbEntity
  8
0
 62
     0
100
AcDbLine
 10
2111.210557176878
 20
1103.083999275653
 30
0.0
 11
2113.210557176878
 21
1105.083999275653
 31
0.0
  0
LINE
  5
4661
330
19
100
AcDbEntity
  8
1
100
AcDbLine
 10
2111.510557176878
 20
1106.400635249105
 30
0.0
 11
2111.210557176878
 21
1106.100635249106
 31
0.0
  0
LINE
  5
4662
330
19
100
AcDbEntity
  8
0
 62
     0
100
AcDbLine
 10
2120.581706710856
 20
1076.873015395995
 30
0.0
 11
2122.581706710856
 21
1078.873015395995
 31
0.0
  0
LINE
  5
4663
330
19
100
AcDbEntity
  8
0
 62
     0
100
AcDbLine
 10
2120.581706710856
 20
1077.580122177182
 30
0.0
 11
2122.581706710856
 21
1079.580122177182
 31
0.0
  0
LINE
  5
4664
330
19
100
AcDbEntity
  8
0
 62
     0
100
AcDbLine
 10
2120.581706710856
 20
1078.287228958368
 30
0.0
 11
2122.581706710856
 21
1080.287228958368
 31
0.0
  0
LINE
  5
4665
330
19
100
AcDbEntity
  8
0
 62
     0
100
AcDbLine
 10
2114.581706710856
 20
1076.529869645487
 30
0.0
 11
2116.581706710856
 21
1078.529869645487
 31
0.0
  0
LINE
  5
4666
330
19
100
AcDbEntity
  8
0
 62
     0
100
AcDbLine
 10
2114.581706710856
 20
1077.236976426674
 30
0.0
 11
2116.581706710856
 21
1079.236976426674
 31
0.0
  0
LINE
  5
4667
330
19
100
AcDbEntity
  8
0
 62
     0
100
AcDbLine
 10
2114.581706710856
 20
1077.944083207861
 30
0.0
 11
2116.264751510113
 21
1079.627128007117
 31
0.0
  0
LINE
  5
4668
330
19
100
AcDbEntity
  8
1
100
AcDbLine
 10
2116.581706710856
 20
1088.641558569361
 30
0.0
 11
2116.581706710856
 21
1075.617397263987
 31
0.0
  0
LINE
  5
4669
330
19
100
AcDbEntity
  8
1
100
AcDbLine
 10
2120.581706710856
 20
1088.641558569361
 30
0.0
 11
2120.581706710856
 21
1075.617397263987
 31
0.0
  0
LINE
  5
466A
330
19
100
AcDbEntity
  8
1
100
AcDbLine
 10
2122.581706710856
 20
1089.891558569361
 30
0.0
 11
2122.581706710856
 21
1073.891558569361
 31
0.0
  0
LINE
  5
466B
330
19
100
AcDbEntity
  8
1
100
AcDbLine
 10
2114.581706710856
 20
1073.891558569361
 30
0.0
 11
2114.581706710856
 21
1089.891558569361
 31
0.0
  0
LINE
  5
4671
330
19
100
AcDbEntity
  8
0
 62
     0
100
AcDbLine
 10
2118.721570227782
 20
1072.891558569361
 30
0.0
 11
2122.581706710856
 21
1076.751695052436
 31
0.0
  0
LINE
  5
4672
330
19
100
AcDbEntity
  8
0
 62
     0
100
AcDbLine
 10
2118.014463446595
 20
1072.891558569361
 30
0.0
 11
2122.581706710856
 21
1077.458801833622
 31
0.0
  0
LINE
  5
4673
330
19
100
AcDbEntity
  8
0
 62
     0
100
AcDbLine
 10
2117.307356665409
 20
1072.891558569361
 30
0.0
 11
2119.720730398818
 21
1075.30493230277
 31
0.0
  0
LINE
  5
4674
330
19
100
AcDbEntity
  8
1
100
AcDbLine
 10
2118.581706710856
 20
1074.891558569361
 30
0.0
 11
2120.581706710856
 21
1075.617397263987
 31
0.0
  0
LINE
  5
4675
330
19
100
AcDbEntity
  8
1
100
AcDbLine
 10
2121.581706710856
 20
1072.891558569361
 30
0.0
 11
2115.581706710856
 21
1072.891558569361
 31
0.0
  0
LINE
  5
4676
330
19
100
AcDbEntity
  8
1
100
AcDbLine
 10
2115.581706710856
 20
1072.891558569361
 30
0.0
 11
2114.581706710856
 21
1073.891558569361
 31
0.0
  0
LINE
  5
4677
330
19
100
AcDbEntity
  8
0
 62
     0
100
AcDbLine
 10
2116.600249884223
 20
1072.891558569361
 30
0.0
 11
2118.610813187859
 21
1074.902121872997
 31
0.0
  0
LINE
  5
4678
330
19
100
AcDbEntity
  8
0
 62
     0
100
AcDbLine
 10
2115.893143103036
 20
1072.891558569361
 30
0.0
 11
2118.07649441845
 21
1075.074909884776
 31
0.0
  0
LINE
  5
4679
330
19
100
AcDbEntity
  8
0
 62
     0
100
AcDbLine
 10
2115.383871516353
 20
1073.089393763865
 30
0.0
 11
2117.557676644985
 21
1075.263198892496
 31
0.0
  0
LINE
  5
467A
330
19
100
AcDbEntity
  8
0
 62
     0
100
AcDbLine
 10
2115.030318125759
 20
1073.442947154458
 30
0.0
 11
2117.038858871518
 21
1075.451487900217
 31
0.0
  0
LINE
  5
467B
330
19
100
AcDbEntity
  8
0
 62
     0
100
AcDbLine
 10
2114.676764735166
 20
1073.796500545051
 30
0.0
 11
2116.581706710856
 21
1075.701442520741
 31
0.0
  0
LINE
  5
467C
330
19
100
AcDbEntity
  8
0
 62
     0
100
AcDbLine
 10
2114.581706710856
 20
1074.408549301928
 30
0.0
 11
2116.581706710856
 21
1076.408549301928
 31
0.0
  0
LINE
  5
467D
330
19
100
AcDbEntity
  8
0
 62
     0
100
AcDbLine
 10
2114.581706710856
 20
1075.115656083114
 30
0.0
 11
2116.581706710856
 21
1077.115656083114
 31
0.0
  0
LINE
  5
467E
330
19
100
AcDbEntity
  8
0
 62
     0
100
AcDbLine
 10
2114.581706710856
 20
1075.822762864301
 30
0.0
 11
2116.581706710856
 21
1077.822762864301
 31
0.0
  0
LINE
  5
467F
330
19
100
AcDbEntity
  8
1
100
AcDbLine
 10
2118.581706710856
 20
1074.891558569361
 30
0.0
 11
2116.581706710856
 21
1075.617397263987
 31
0.0
  0
LINE
  5
4680
330
19
100
AcDbEntity
  8
1
100
AcDbLine
 10
2121.581706710856
 20
1072.891558569361
 30
0.0
 11
2122.581706710856
 21
1073.891558569361
 31
0.0
  0
LINE
  5
4681
330
19
100
AcDbEntity
  8
0
 62
     0
100
AcDbLine
 10
2120.581706710856
 20
1076.165908614808
 30
0.0
 11
2122.581706710856
 21
1078.165908614808
 31
0.0
  0
LINE
  5
4682
330
19
100
AcDbEntity
  8
0
 62
     0
100
AcDbLine
 10
2121.549997352528
 20
1072.891558569361
 30
0.0
 11
2122.581706710856
 21
1073.923267927689
 31
0.0
  0
LINE
  5
4683
330
19
100
AcDbEntity
  8
0
 62
     0
100
AcDbLine
 10
2120.842890571342
 20
1072.891558569361
 30
0.0
 11
2122.581706710856
 21
1074.630374708876
 31
0.0
  0
LINE
  5
4684
330
19
100
AcDbEntity
  8
0
 62
     0
100
AcDbLine
 10
2120.135783790155
 20
1072.891558569361
 30
0.0
 11
2122.581706710856
 21
1075.337481490062
 31
0.0
  0
LINE
  5
4685
330
19
100
AcDbEntity
  8
0
 62
     0
100
AcDbLine
 10
2119.428677008968
 20
1072.891558569361
 30
0.0
 11
2122.581706710856
 21
1076.044588271249
 31
0.0
  0
LINE
  5
4686
330
19
100
AcDbEntity
  8
1
100
AcDbLine
 10
2166.024188505644
 20
1107.059369078113
 30
0.0
 11
2144.938402068017
 21
1107.059369078113
 31
0.0
  0
LINE
  5
4688
330
19
100
AcDbEntity
  8
1
100
AcDbLine
 10
2127.938402068017
 20
1090.059369078113
 30
0.0
 11
2144.938402068017
 21
1107.059369078113
 31
0.0
  0
LINE
  5
4689
330
19
100
AcDbEntity
  8
1
100
AcDbLine
 10
2140.111414831872
 20
1107.260775872909
 30
0.0
 11
2129.92757870233
 21
1107.260775872909
 31
0.0
  0
LINE
  5
468A
330
19
100
AcDbEntity
  8
1
100
AcDbLine
 10
2140.111414831872
 20
1108.260775872909
 30
0.0
 11
2129.92757870233
 21
1108.260775872909
 31
0.0
  0
LINE
  5
468B
330
19
100
AcDbEntity
  8
0
 62
     0
100
AcDbLine
 10
2116.169328774061
 20
1093.900635249105
 30
0.0
 11
2119.210557176878
 21
1096.941863651922
 31
0.0
  0
LINE
  5
468C
330
19
100
AcDbEntity
  8
0
 62
     0
100
AcDbLine
 10
2115.462221992874
 20
1093.900635249105
 30
0.0
 11
2119.210557176878
 21
1097.648970433109
 31
0.0
  0
LINE
  5
468D
330
19
100
AcDbEntity
  8
0
 62
     0
100
AcDbLine
 10
2114.755115211687
 20
1093.900635249105
 30
0.0
 11
2119.210557176878
 21
1098.356077214295
 31
0.0
  0
LINE
  5
468E
330
19
100
AcDbEntity
  8
0
 62
     0
100
AcDbLine
 10
2114.048008430501
 20
1093.900635249105
 30
0.0
 11
2116.416304462692
 21
1096.268931281296
 31
0.0
  0
LINE
  5
468F
330
19
100
AcDbEntity
  8
1
100
AcDbLine
 10
2117.360557176877
 20
1094.900635249105
 30
0.0
 11
2117.360557176877
 21
1093.900635249105
 31
0.0
  0
ARC
  5
4690
330
19
100
AcDbEntity
  8
1
100
AcDbCircle
 10
2120.43757870233
 20
1101.721735449434
 30
0.0
 40
7.99
100
AcDbArc
 50
270.0
 51
0.0
  0
ARC
  5
4691
330
19
100
AcDbEntity
  8
1
100
AcDbCircle
 10
2120.43757870233
 20
1101.721735449434
 30
0.0
 40
6.99
100
AcDbArc
 50
270.0
 51
0.0
  0
INSERT
  5
4692
330
19
100
AcDbEntity
  8
1
100
AcDbBlockReference
  2
WELD
 10
2123.266735801448
 20
1089.615956284987
 30
0.0
 41
0.7000000000000455
 42
0.6999999999999887
 43
0.7
  0
LINE
  5
4693
330
19
100
AcDbEntity
  8
0
 62
     0
100
AcDbLine
 10
2121.081706710856
 20
1085.858296770234
 30
0.0
 11
2122.581706710856
 21
1087.358296770234
 31
0.0
  0
LINE
  5
4694
330
19
100
AcDbEntity
  8
0
 62
     0
100
AcDbLine
 10
2121.081706710856
 20
1085.151189989047
 30
0.0
 11
2122.581706710856
 21
1086.651189989047
 31
0.0
  0
LINE
  5
4695
330
19
100
AcDbEntity
  8
0
 62
     0
100
AcDbLine
 10
2114.581706710856
 20
1085.722257800913
 30
0.0
 11
2116.081706710856
 21
1087.222257800913
 31
0.0
  0
LINE
  5
4696
330
19
100
AcDbEntity
  8
0
 62
     0
100
AcDbLine
 10
2114.581706710856
 20
1085.015151019726
 30
0.0
 11
2116.081706710856
 21
1086.515151019726
 31
0.0
  0
LINE
  5
4697
330
19
100
AcDbEntity
  8
1
100
AcDbLine
 10
2116.081706710856
 20
1089.141558569361
 30
0.0
 11
2116.081706710856
 21
1079.891558569361
 31
0.0
  0
LINE
  5
4698
330
19
100
AcDbEntity
  8
1
100
AcDbLine
 10
2121.081706710856
 20
1089.141558569361
 30
0.0
 11
2121.081706710856
 21
1079.891558569361
 31
0.0
  0
LINE
  5
4699
330
19
100
AcDbEntity
  8
1
100
AcDbLine
 10
2118.581706710856
 20
1079.169247519507
 30
0.0
 11
2120.581706710856
 21
1079.169247519507
 31
0.0
  0
LINE
  5
469A
330
19
100
AcDbEntity
  8
1
100
AcDbLine
 10
2118.581706710856
 20
1079.891558569361
 30
0.0
 11
2121.081706710856
 21
1079.891558569361
 31
0.0
  0
LINE
  5
469B
330
19
100
AcDbEntity
  8
0
 62
     0
100
AcDbLine
 10
2114.581706710856
 20
1084.308044238539
 30
0.0
 11
2116.081706710856
 21
1085.808044238539
 31
0.0
  0
LINE
  5
469C
330
19
100
AcDbEntity
  8
0
 62
     0
100
AcDbLine
 10
2114.581706710856
 20
1083.600937457353
 30
0.0
 11
2116.081706710856
 21
1085.100937457353
 31
0.0
  0
LINE
  5
469D
330
19
100
AcDbEntity
  8
0
 62
     0
100
AcDbLine
 10
2114.581706710856
 20
1082.893830676167
 30
0.0
 11
2116.081706710856
 21
1084.393830676167
 31
0.0
  0
LINE
  5
469E
330
19
100
AcDbEntity
  8
0
 62
     0
100
AcDbLine
 10
2114.581706710856
 20
1082.18672389498
 30
0.0
 11
2116.081706710856
 21
1083.68672389498
 31
0.0
  0
LINE
  5
469F
330
19
100
AcDbEntity
  8
0
 62
     0
100
AcDbLine
 10
2114.581706710856
 20
1081.479617113793
 30
0.0
 11
2116.081706710856
 21
1082.979617113793
 31
0.0
  0
LINE
  5
46A0
330
19
100
AcDbEntity
  8
0
 62
     0
100
AcDbLine
 10
2114.581706710856
 20
1080.772510332607
 30
0.0
 11
2116.081706710856
 21
1082.272510332606
 31
0.0
  0
LINE
  5
46A1
330
19
100
AcDbEntity
  8
0
 62
     0
100
AcDbLine
 10
2114.581706710856
 20
1080.06540355142
 30
0.0
 11
2116.081706710856
 21
1081.56540355142
 31
0.0
  0
LINE
  5
46A2
330
19
100
AcDbEntity
  8
0
 62
     0
100
AcDbLine
 10
2114.581706710856
 20
1079.358296770234
 30
0.0
 11
2116.081706710856
 21
1080.858296770234
 31
0.0
  0
LINE
  5
46A3
330
19
100
AcDbEntity
  8
0
 62
     0
100
AcDbLine
 10
2114.581706710856
 20
1078.651189989047
 30
0.0
 11
2116.081706710856
 21
1080.151189989047
 31
0.0
  0
LINE
  5
46A4
330
19
100
AcDbEntity
  8
1
100
AcDbLine
 10
2118.581706710856
 20
1079.891558569361
 30
0.0
 11
2116.081706710856
 21
1079.891558569361
 31
0.0
  0
LINE
  5
46A5
330
19
100
AcDbEntity
  8
1
100
AcDbLine
 10
2118.581706710856
 20
1079.169247519507
 30
0.0
 11
2116.581706710856
 21
1079.169247519507
 31
0.0
  0
LINE
  5
46A6
330
19
100
AcDbEntity
  8
1
100
AcDbLine
 10
2116.081706710856
 20
1079.891558569361
 30
0.0
 11
2116.581706710856
 21
1079.169247519507
 31
0.0
  0
LINE
  5
46A7
330
19
100
AcDbEntity
  8
0
 62
     0
100
AcDbLine
 10
2121.081706710856
 20
1080.201442520741
 30
0.0
 11
2122.581706710856
 21
1081.701442520741
 31
0.0
  0
LINE
  5
46A8
330
19
100
AcDbEntity
  8
0
 62
     0
100
AcDbLine
 10
2121.081706710856
 20
1084.44408320786
 30
0.0
 11
2122.581706710856
 21
1085.944083207861
 31
0.0
  0
LINE
  5
46A9
330
19
100
AcDbEntity
  8
0
 62
     0
100
AcDbLine
 10
2121.081706710856
 20
1083.736976426674
 30
0.0
 11
2122.581706710856
 21
1085.236976426674
 31
0.0
  0
LINE
  5
46AA
330
19
100
AcDbEntity
  8
0
 62
     0
100
AcDbLine
 10
2121.081706710856
 20
1080.908549301928
 30
0.0
 11
2122.581706710856
 21
1082.408549301928
 31
0.0
  0
LINE
  5
46AB
330
19
100
AcDbEntity
  8
0
 62
     0
100
AcDbLine
 10
2121.081706710856
 20
1081.615656083114
 30
0.0
 11
2122.581706710856
 21
1083.115656083115
 31
0.0
  0
LINE
  5
46AC
330
19
100
AcDbEntity
  8
0
 62
     0
100
AcDbLine
 10
2121.081706710856
 20
1083.029869645487
 30
0.0
 11
2122.581706710856
 21
1084.529869645487
 31
0.0
  0
LINE
  5
46AD
330
19
100
AcDbEntity
  8
0
 62
     0
100
AcDbLine
 10
2121.081706710856
 20
1082.322762864301
 30
0.0
 11
2122.581706710856
 21
1083.822762864301
 31
0.0
  0
LINE
  5
46AE
330
19
100
AcDbEntity
  8
0
 62
     0
100
AcDbLine
 10
2120.581706710856
 20
1078.994335739555
 30
0.0
 11
2122.581706710856
 21
1080.994335739555
 31
0.0
  0
LINE
  5
46AF
330
19
100
AcDbEntity
  8
1
100
AcDbLine
 10
2121.081706710856
 20
1079.891558569361
 30
0.0
 11
2120.581706710856
 21
1079.169247519507
 31
0.0
  0
LINE
  5
46B0
330
19
100
AcDbEntity
  8
1
100
AcDbLine
 10
2120.581706710856
 20
1088.641558569361
 30
0.0
 11
2118.581706710856
 21
1088.641558569361
 31
0.0
  0
LINE
  5
46B1
330
19
100
AcDbEntity
  8
1
100
AcDbLine
 10
2114.581706710856
 20
1089.891558569361
 30
0.0
 11
2122.581706710856
 21
1089.891558569361
 31
0.0
  0
LINE
  5
46B2
330
19
100
AcDbEntity
  8
0
 62
     0
100
AcDbLine
 10
2114.581706710856
 20
1089.257791706845
 30
0.0
 11
2115.215473573372
 21
1089.891558569361
 31
0.0
  0
LINE
  5
46B3
330
19
100
AcDbEntity
  8
0
 62
     0
100
AcDbLine
 10
2114.581706710856
 20
1088.550684925659
 30
0.0
 11
2115.627143532708
 21
1089.59612174751
 31
0.0
  0
LINE
  5
46B4
330
19
100
AcDbEntity
  8
0
 62
     0
100
AcDbLine
 10
2114.581706710856
 20
1087.843578144472
 30
0.0
 11
2115.980696923301
 21
1089.242568356917
 31
0.0
  0
LINE
  5
46B5
330
19
100
AcDbEntity
  8
0
 62
     0
100
AcDbLine
 10
2114.581706710856
 20
1087.136471363286
 30
0.0
 11
2116.081706710856
 21
1088.636471363286
 31
0.0
  0
LINE
  5
46B6
330
19
100
AcDbEntity
  8
0
 62
     0
100
AcDbLine
 10
2114.581706710856
 20
1086.429364582099
 30
0.0
 11
2116.081706710856
 21
1087.929364582099
 31
0.0
  0
LINE
  5
46B7
330
19
100
AcDbEntity
  8
1
100
AcDbLine
 10
2115.331706710856
 20
1089.891558569361
 30
0.0
 11
2116.581706710856
 21
1088.641558569361
 31
0.0
  0
LINE
  5
46B8
330
19
100
AcDbEntity
  8
1
100
AcDbLine
 10
2116.581706710856
 20
1088.641558569361
 30
0.0
 11
2118.581706710856
 21
1088.641558569361
 31
0.0
  0
LINE
  5
46B9
330
19
100
AcDbEntity
  8
0
 62
     0
100
AcDbLine
 10
2116.876435555247
 20
1093.900635249105
 30
0.0
 11
2117.360557176877
 21
1094.384756870736
 31
0.0
  0
LINE
  5
46BA
330
19
100
AcDbEntity
  8
0
 62
     0
100
AcDbLine
 10
2121.081706710856
 20
1088.68672389498
 30
0.0
 11
2122.286541385237
 21
1089.891558569361
 31
0.0
  0
LINE
  5
46BB
330
19
100
AcDbEntity
  8
0
 62
     0
100
AcDbLine
 10
2121.081706710856
 20
1087.979617113793
 30
0.0
 11
2122.581706710856
 21
1089.479617113793
 31
0.0
  0
LINE
  5
46BC
330
19
100
AcDbEntity
  8
0
 62
     0
100
AcDbLine
 10
2121.081706710856
 20
1086.56540355142
 30
0.0
 11
2122.581706710856
 21
1088.06540355142
 31
0.0
  0
LINE
  5
46BD
330
19
100
AcDbEntity
  8
0
 62
     0
100
AcDbLine
 10
2121.081706710856
 20
1087.272510332607
 30
0.0
 11
2122.581706710856
 21
1088.772510332607
 31
0.0
  0
LINE
  5
46BE
330
19
100
AcDbEntity
  8
1
100
AcDbLine
 10
2121.831706710856
 20
1089.891558569361
 30
0.0
 11
2120.581706710856
 21
1088.641558569361
 31
0.0
  0
LINE
  5
46BF
330
19
100
AcDbEntity
  8
1
100
AcDbLine
 10
2129.92757870233
 20
1108.260775872909
 30
0.0
 11
2119.011706781417
 21
1108.260775872909
 31
0.0
  0
LINE
  5
46C0
330
19
100
AcDbEntity
  8
0
 62
     0
100
AcDbLine
 10
2117.210557176878
 20
1100.598717901415
 30
0.0
 11
2119.210557176878
 21
1102.598717901414
 31
0.0
  0
LINE
  5
46C1
330
19
100
AcDbEntity
  8
0
 62
     0
100
AcDbLine
 10
2117.210557176878
 20
1101.305824682601
 30
0.0
 11
2119.210557176878
 21
1103.305824682601
 31
0.0
  0
LINE
  5
46C2
330
19
100
AcDbEntity
  8
0
 62
     0
100
AcDbLine
 10
2117.210557176878
 20
1102.012931463788
 30
0.0
 11
2119.210557176878
 21
1104.012931463788
 31
0.0
  0
LINE
  5
46C3
330
19
100
AcDbEntity
  8
1
100
AcDbLine
 10
2113.610557176877
 20
1105.000635249105
 30
0.0
 11
2113.610557176877
 21
1096.389355944095
 31
0.0
  0
LINE
  5
46C4
330
19
100
AcDbEntity
  8
1
100
AcDbLine
 10
2117.210557176878
 20
1105.400635249105
 30
0.0
 11
2117.210557176878
 21
1097.900635249106
 31
0.0
  0
LINE
  5
46C5
330
19
100
AcDbEntity
  8
1
100
AcDbLine
 10
2116.810557176878
 20
1105.000635249105
 30
0.0
 11
2116.810557176878
 21
1096.389355944095
 31
0.0
  0
LINE
  5
46C6
330
19
100
AcDbEntity
  8
1
100
AcDbLine
 10
2119.210557176878
 20
1106.100635249106
 30
0.0
 11
2119.210557176878
 21
1094.900635249105
 31
0.0
  0
LINE
  5
46C7
330
19
100
AcDbEntity
  8
0
 62
     0
100
AcDbLine
 10
2118.583542336434
 20
1094.900635249105
 30
0.0
 11
2119.210557176878
 21
1095.527650089549
 31
0.0
  0
LINE
  5
46C8
330
19
100
AcDbEntity
  8
0
 62
     0
100
AcDbLine
 10
2117.876435555247
 20
1094.900635249105
 30
0.0
 11
2119.210557176878
 21
1096.234756870736
 31
0.0
  0
LINE
  5
46C9
330
19
100
AcDbEntity
  8
0
 62
     0
100
AcDbLine
 10
2116.810557176878
 20
1096.663183995482
 30
0.0
 11
2119.210557176878
 21
1099.063183995482
 31
0.0
  0
LINE
  5
46CA
330
19
100
AcDbEntity
  8
0
 62
     0
100
AcDbLine
 10
2116.810557176878
 20
1097.370290776668
 30
0.0
 11
2119.210557176878
 21
1099.770290776668
 31
0.0
  0
LINE
  5
46CB
330
19
100
AcDbEntity
  8
0
 62
     0
100
AcDbLine
 10
2117.210557176878
 20
1098.477397557855
 30
0.0
 11
2119.210557176878
 21
1100.477397557855
 31
0.0
  0
LINE
  5
46CC
330
19
100
AcDbEntity
  8
0
 62
     0
100
AcDbLine
 10
2117.210557176878
 20
1099.184504339042
 30
0.0
 11
2119.210557176878
 21
1101.184504339042
 31
0.0
  0
LINE
  5
46CD
330
19
100
AcDbEntity
  8
0
 62
     0
100
AcDbLine
 10
2117.210557176878
 20
1099.891611120228
 30
0.0
 11
2119.210557176878
 21
1101.891611120228
 31
0.0
  0
LINE
  5
46CE
330
19
100
AcDbEntity
  8
1
100
AcDbLine
 10
2120.437582270653
 20
1094.731735449434
 30
0.0
 11
2117.360557176877
 21
1094.731735449434
 31
0.0
  0
LINE
  5
46CF
330
19
100
AcDbEntity
  8
0
 62
     0
100
AcDbLine
 10
2116.633794868128
 20
1097.900635249105
 30
0.0
 11
2116.810557176878
 21
1098.077397557855
 31
0.0
  0
LINE
  5
46D0
330
19
100
AcDbEntity
  8
1
100
AcDbLine
 10
2115.210557176877
 20
1097.426672752663
 30
0.0
 11
2113.610557176877
 21
1097.426672752663
 31
0.0
  0
LINE
  5
46D1
330
19
100
AcDbEntity
  8
1
100
AcDbLine
 10
2115.210557176877
 20
1095.900635249105
 30
0.0
 11
2113.610557176877
 21
1096.389355944095
 31
0.0
  0
LINE
  5
46D2
330
19
100
AcDbEntity
  8
1
100
AcDbLine
 10
2115.210557176877
 20
1095.900635249105
 30
0.0
 11
2116.810557176878
 21
1096.389355944095
 31
0.0
  0
LINE
  5
46D3
330
19
100
AcDbEntity
  8
1
100
AcDbLine
 10
2117.210557176878
 20
1097.900635249105
 30
0.0
 11
2116.810557176878
 21
1097.426672752663
 31
0.0
  0
LINE
  5
46D4
330
19
100
AcDbEntity
  8
1
100
AcDbLine
 10
2115.210557176877
 20
1097.426672752663
 30
0.0
 11
2116.810557176878
 21
1097.426672752663
 31
0.0
  0
LINE
  5
46D5
330
19
100
AcDbEntity
  8
1
100
AcDbLine
 10
2115.210557176877
 20
1097.900635249105
 30
0.0
 11
2117.210557176878
 21
1097.900635249105
 31
0.0
  0
LINE
  5
46D6
330
19
100
AcDbEntity
  8
1
100
AcDbLine
 10
2122.076740657809
 20
1094.731735449434
 30
0.0
 11
2122.086740657809
 21
1094.731735449434
 31
0.0
  0
LINE
  5
46D7
330
19
100
AcDbEntity
  8
0
 62
     0
100
AcDbLine
 10
2117.210557176878
 20
1104.134251807348
 30
0.0
 11
2119.193748897756
 21
1106.117443528226
 31
0.0
  0
LINE
  5
46D8
330
19
100
AcDbEntity
  8
0
 62
     0
100
AcDbLine
 10
2117.210557176878
 20
1103.427145026161
 30
0.0
 11
2119.210557176878
 21
1105.427145026161
 31
0.0
  0
LINE
  5
46D9
330
19
100
AcDbEntity
  8
0
 62
     0
100
AcDbLine
 10
2117.210557176878
 20
1102.720038244974
 30
0.0
 11
2119.210557176878
 21
1104.720038244974
 31
0.0
  0
ARC
  5
46DA
330
19
100
AcDbEntity
  8
1
100
AcDbCircle
 10
2117.583929348269
 20
1104.524273283404
 30
0.0
 40
2.0
100
AcDbArc
 50
0.0
 51
90.0
  0
ARC
  5
46DB
330
19
100
AcDbEntity
  8
1
100
AcDbCircle
 10
2117.583929348269
 20
1104.524273283404
 30
0.0
 40
4.0
100
AcDbArc
 50
0.0
 51
90.0
  0
LINE
  5
46DC
330
19
100
AcDbEntity
  8
0
 62
     0
100
AcDbLine
 10
2117.210557176878
 20
1104.841358588534
 30
0.0
 11
2118.769833837449
 21
1106.400635249105
 31
0.0
  0
LINE
  5
46DD
330
19
100
AcDbEntity
  8
1
100
AcDbLine
 10
2113.610557176877
 20
1105.000635249105
 30
0.0
 11
2115.210557176877
 21
1105.000635249105
 31
0.0
  0
LINE
  5
46DE
330
19
100
AcDbEntity
  8
1
100
AcDbLine
 10
2116.810557176878
 20
1105.000635249105
 30
0.0
 11
2115.210557176877
 21
1105.000635249105
 31
0.0
  0
LINE
  5
46DF
330
19
100
AcDbEntity
  8
1
100
AcDbLine
 10
2118.210557176877
 20
1106.400635249105
 30
0.0
 11
2116.810557176878
 21
1105.000635249105
 31
0.0
  0
LINE
  5
46E0
330
19
100
AcDbEntity
  8
1
100
AcDbLine
 10
2118.910557176878
 20
1106.400635249105
 30
0.0
 11
2119.210557176878
 21
1106.100635249106
 31
0.0
  0
LINE
  5
46E1
330
19
100
AcDbEntity
  8
1
100
AcDbLine
 10
2121.583929348269
 20
1103.524273283404
 30
0.0
 11
2119.583929348269
 21
1103.524273283404
 31
0.0
  0
LINE
  5
46E2
330
19
100
AcDbEntity
  8
1
100
AcDbLine
 10
2119.583929348269
 20
1104.524273283404
 30
0.0
 11
2119.583929348269
 21
1103.524273283404
 31
0.0
  0
LINE
  5
46E3
330
19
100
AcDbEntity
  8
1
100
AcDbLine
 10
2121.583929348269
 20
1104.524273283404
 30
0.0
 11
2121.583929348269
 21
1103.524273283404
 31
0.0
  0
LINE
  5
46E4
330
19
100
AcDbEntity
  8
1
100
AcDbLine
 10
2128.42757870233
 20
1105.760781478281
 30
0.0
 11
2128.42757870233
 21
1101.731735449434
 31
0.0
  0
LINE
  5
46E5
330
19
100
AcDbEntity
  8
1
100
AcDbLine
 10
2127.42757870233
 20
1105.760777394871
 30
0.0
 11
2127.42757870233
 21
1101.721735449434
 31
0.0
  0
ARC
  5
46E6
330
19
100
AcDbEntity
  8
1
100
AcDbCircle
 10
2129.92757870233
 20
1105.760775872909
 30
0.0
 40
1.5
100
AcDbArc
 50
90.0
 51
180.0
  0
ARC
  5
46E7
330
19
100
AcDbEntity
  8
1
100
AcDbCircle
 10
2129.92757870233
 20
1105.760775872909
 30
0.0
 40
2.5
100
AcDbArc
 50
90.0
 51
180.0
  0
LINE
  5
46E8
330
19
100
AcDbEntity
  8
1
100
AcDbLine
 10
2140.111414831872
 20
1108.260775872909
 30
0.0
 11
2140.111414831872
 21
1107.260775872909
 31
0.0
  0
LINE
  5
46EA
330
19
100
AcDbEntity
  8
1
100
AcDbLine
 10
2166.024188505644
 20
1108.059369078113
 30
0.0
 11
2166.024188505644
 21
1107.059369078113
 31
0.0
  0
LINE
  5
46EB
330
19
100
AcDbEntity
  8
1
100
AcDbLine
 10
2166.024188505644
 20
1108.059369078113
 30
0.0
 11
2166.024188505644
 21
1110.259369078113
 31
0.0
  0
LWPOLYLINE
  5
4720
330
19
100
AcDbEntity
  8
1
100
AcDbPolyline
 90
        8
 70
     0
 43
0.0
 10
1998.577132588375
 20
1057.398246702023
 42
0.414213562373094
 10
2000.577132588375
 20
1055.398246702023
 10
2001.25731383571
 20
1055.398246702023
 42
-0.4142135623730864
 10
2003.25731383571
 20
1053.398246702023
 10
2003.257313835709
 20
1046.42067817178
 42
-0.4142135623730951
 10
2001.257313835709
 20
1044.42067817178
 10
2000.577132588375
 20
1044.42067817178
 42
0.4142135623730928
 10
1998.577132588374
 20
1042.42067817178
  0
LINE
  5
4721
330
19
100
AcDbEntity
  8
1
100
AcDbLine
 10
1997.683907435001
 20
1005.398246702023
 30
0.0
 11
2010.302684529012
 21
1005.398246702023
 31
0.0
  0
INSERT
  5
4723
330
19
100
AcDbEntity
  8
DIM
100
AcDbBlockReference
  2
foul air trap
 10
801.7667580919077
 20
-47.39203342644782
 30
0.0
  0
LINE
  5
4724
330
19
100
AcDbEntity
  8
1
100
AcDbLine
 10
1997.077132588374
 20
1044.42067817178
 30
0.0
 11
1997.077132588374
 21
1012.398246702023
 31
0.0
  0
LINE
  5
4725
330
19
100
AcDbEntity
  8
1
100
AcDbLine
 10
1998.577132588374
 20
1042.42067817178
 30
0.0
 11
1998.577132588374
 21
1012.398246702023
 31
0.0
  0
LINE
  5
4726
330
19
100
AcDbEntity
  8
1
100
AcDbLine
 10
1998.577132588374
 20
1012.398246702023
 30
0.0
 11
1999.187222787608
 21
1005.424883815381
 31
0.0
  0
LINE
  5
4727
330
19
100
AcDbEntity
  8
1
100
AcDbLine
 10
1997.077132588374
 20
1012.398246702023
 30
0.0
 11
1997.683907435001
 21
1005.398246702023
 31
0.0
  0
LINE
  5
4728
330
19
100
AcDbEntity
  8
1
100
AcDbLine
 10
2001.25731383571
 20
1053.398246702023
 30
0.0
 11
2001.257313835709
 21
1046.42067817178
 31
0.0
  0
ARC
  5
4729
330
19
100
AcDbEntity
  8
1
100
AcDbCircle
 10
2000.577132588375
 20
1042.42067817178
 30
0.0
 40
4.0
100
AcDbArc
 50
90.0
 51
151.0449756281466
  0
LINE
  5
472A
330
19
100
AcDbEntity
  8
1
100
AcDbLine
 10
2001.257313835709
 20
1046.42067817178
 30
0.0
 11
2000.577132588375
 21
1046.42067817178
 31
0.0
  0
LINE
  5
472B
330
19
100
AcDbEntity
  8
1
100
AcDbLine
 10
2000.577132588375
 20
1053.398246702023
 30
0.0
 11
2001.25731383571
 21
1053.398246702023
 31
0.0
  0
ARC
  5
472C
330
19
100
AcDbEntity
  8
1
100
AcDbCircle
 10
2000.577132588375
 20
1057.398246702023
 30
0.0
 40
4.0
100
AcDbArc
 50
208.9550243718461
 51
270.0
  0
LEADER
  5
472D
330
19
100
AcDbEntity
  8
1
100
AcDbLeader
  3
STANDARD
 73
     0
 74
     0
 75
     1
 40
18.88157894736841
 41
71.57602339181288
 76
     3
 10
2018.700608718642
 20
962.8831813457916
 30
0.0
 10
2025.174313605515
 20
939.4674772625638
 30
0.0
 10
2030.924313605515
 20
939.4674772625638
 30
0.0
340
472E
213
0.0
223
-2.875
233
0.0
1001
ACAD
1000
DSTYLE
1002
{
1070
   147
1040
0.09
1070
     4
1000
mm
1070
    40
1040
25.0
1070
    41
1040
0.23
1070
    42
1040
0.07
1070
    77
1070
     0
1070
   140
1040
0.23
1070
   141
1040
0.0
1070
   171
1070
     0
1070
   271
1070
     0
1070
   272
1070
     0
1070
   274
1070
     0
1002
}
  0
MTEXT
  5
472E
102
{ACAD_REACTORS
330
472D
102
}
330
19
100
AcDbEntity
  8
1
100
AcDbMText
 10
2033.174313605515
 20
942.3424772625637
 30
0.0
 40
7.0
 41
0.0
 71
     1
 72
     1
  1
REMOVABLE \PFOUL AIR TRAP
 73
     1
 44
1.0
  0
LINE
  5
472F
330
19
100
AcDbEntity
  8
1
100
AcDbLine
 10
2108.577132588375
 20
1042.42067817178
 30
0.0
 11
2108.577132588375
 21
1012.398246702023
 31
0.0
  0
LINE
  5
4730
330
19
100
AcDbEntity
  8
1
100
AcDbLine
 10
2110.077132588374
 20
1044.357169844884
 30
0.0
 11
2110.077132588374
 21
1012.398246702023
 31
0.0
  0
LINE
  5
4731
330
19
100
AcDbEntity
  8
1
100
AcDbLine
 10
2110.077132588374
 20
1012.398246702023
 30
0.0
 11
2108.865485121208
 21
1005.398246702023
 31
0.0
  0
LINE
  5
4732
330
19
100
AcDbEntity
  8
1
100
AcDbLine
 10
2108.577132588375
 20
1012.398246702023
 30
0.0
 11
2107.342843723415
 21
1005.398246702023
 31
0.0
  0
LINE
  5
4733
330
19
100
AcDbEntity
  8
1
100
AcDbLine
 10
2094.827014891325
 20
1005.398246702023
 30
0.0
 11
2108.865485121208
 21
1005.398246702023
 31
0.0
  0
LINE
  5
4734
330
19
100
AcDbEntity
  8
1
100
AcDbLine
 10
2108.865485121208
 20
1005.398246702023
 30
0.0
 11
2094.739189595338
 21
1005.398246702023
 31
0.0
  0
LWPOLYLINE
  5
4735
330
19
100
AcDbEntity
  8
1
100
AcDbPolyline
 90
        8
 70
     0
 43
0.0
 10
2108.577132588374
 20
1057.398246702023
 42
-0.414213562373094
 10
2106.577132588374
 20
1055.398246702023
 10
2105.896951341039
 20
1055.398246702023
 42
0.4142135623730864
 10
2103.896951341039
 20
1053.398246702023
 10
2103.896951341039
 20
1046.42067817178
 42
0.4142135623730951
 10
2105.896951341039
 20
1044.42067817178
 10
2106.577132588374
 20
1044.42067817178
 42
-0.4142135623730928
 10
2108.577132588374
 20
1042.42067817178
  0
LINE
  5
4736
330
19
100
AcDbEntity
  8
1
100
AcDbLine
 10
2105.896951341039
 20
1053.398246702023
 30
0.0
 11
2105.896951341039
 21
1046.42067817178
 31
0.0
  0
LINE
  5
4737
330
19
100
AcDbEntity
  8
1
100
AcDbLine
 10
2105.896951341039
 20
1046.42067817178
 30
0.0
 11
2106.577132588374
 21
1046.42067817178
 31
0.0
  0
ARC
  5
4738
330
19
100
AcDbEntity
  8
1
100
AcDbCircle
 10
2106.577132588374
 20
1042.42067817178
 30
0.0
 40
4.0
100
AcDbArc
 50
28.95502437185341
 51
90.0
  0
LINE
  5
4739
330
19
100
AcDbEntity
  8
1
100
AcDbLine
 10
2106.577132588374
 20
1053.398246702023
 30
0.0
 11
2105.896951341039
 21
1053.398246702023
 31
0.0
  0
ARC
  5
473A
330
19
100
AcDbEntity
  8
1
100
AcDbCircle
 10
2106.577132588374
 20
1057.398246702023
 30
0.0
 40
4.0
100
AcDbArc
 50
270.0
 51
331.0449756281538
  0
CIRCLE
  5
473B
102
{ACAD_REACTORS
330
473C
102
}
330
19
100
AcDbEntity
  8
1
100
AcDbCircle
 10
2002.052049342988
 20
1059.46775682767
 30
0.0
 40
3.474916754613886
  0
HATCH
  5
473C
330
19
100
AcDbEntity
  8
1
100
AcDbHatch
 10
0.0
 20
0.0
 30
0.0
210
0.0
220
0.0
230
1.0
  2
SOLID
 70
     1
 71
     1
 91
        2
 92
        7
 72
     1
 73
     1
 93
        2
 10
1998.577132588374
 20
1059.46775682767
 42
1.0
 10
2005.526966097602
 20
1059.46775682767
 42
1.0
 97
        1
330
473B
 92
        7
 72
     1
 73
     1
 93
        2
 10
2101.627299079146
 20
1059.46775682767
 42
1.0
 10
2108.577132588374
 20
1059.46775682767
 42
1.0
 97
        1
330
4743
 75
     0
 76
     1
 47
0.2451731988420617
 98
        2
 10
2003.302691528429
 20
1060.177944902769
 10
2102.978391669908
 20
1060.177944902769
  0
LINE
  5
473D
330
19
100
AcDbEntity
  8
1
100
AcDbLine
 10
1998.577132588375
 20
1090.059369078113
 30
0.0
 11
1998.577132588375
 21
1057.398246702023
 31
0.0
  0
LINE
  5
473E
330
19
100
AcDbEntity
  8
1
100
AcDbLine
 10
1997.077132588374
 20
1090.059369078113
 30
0.0
 11
1997.077132588374
 21
1055.398246702023
 31
0.0
  0
LINE
  5
473F
330
19
100
AcDbEntity
  8
1
100
AcDbLine
 10
1997.077132588374
 20
1081.547843532684
 30
0.0
 11
1997.077132588374
 21
1063.398246702023
 31
0.0
  0
LINE
  5
4740
330
19
100
AcDbEntity
  8
1
100
AcDbLine
 10
1998.577132588374
 20
1079.994272104113
 30
0.0
 11
1998.577132588374
 21
1063.398246702023
 31
0.0
  0
LINE
  5
4741
330
19
100
AcDbEntity
  8
1
100
AcDbLine
 10
2108.577132588374
 20
1090.059369078113
 30
0.0
 11
2108.577132588374
 21
1057.398246702023
 31
0.0
  0
LINE
  5
4742
330
19
100
AcDbEntity
  8
1
100
AcDbLine
 10
2110.077132588374
 20
1090.059369078113
 30
0.0
 11
2110.077132588374
 21
1055.46175502892
 31
0.0
  0
CIRCLE
  5
4743
102
{ACAD_REACTORS
330
473C
102
}
330
19
100
AcDbEntity
  8
1
100
AcDbCircle
 10
2105.102215833761
 20
1059.46775682767
 30
0.0
 40
3.474916754613886
  0
LINE
  5
4744
330
19
100
AcDbEntity
  8
1
100
AcDbLine
 10
2110.077132588374
 20
1081.547843532684
 30
0.0
 11
2110.077132588374
 21
1063.398246702023
 31
0.0
  0
LINE
  5
4745
330
19
100
AcDbEntity
  8
1
100
AcDbLine
 10
2108.577132588374
 20
1079.994272104113
 30
0.0
 11
2108.577132588375
 21
1063.398246702023
 31
0.0
  0
LINE
  5
475B
330
19
100
AcDbEntity
  8
1
100
AcDbLine
 10
2108.164151955912
 20
1083.059369078113
 30
0.0
 11
1998.990113220837
 21
1083.059369078114
 31
0.0
  0
DIMENSION
  5
476E
330
19
100
AcDbEntity
  8
1
100
AcDbDimension
  2
*D7
 10
2166.024188505644
 20
1128.258118974455
 30
0.0
 11
2053.577132588374
 21
1134.725882132349
 31
0.0
 70
    32
  1
%%C225
 71
     5
 42
224.8941118345392
  3
STANDARD
100
AcDbAlignedDimension
 13
1941.130076671105
 23
1110.259369078113
 33
0.0
 14
2166.024188505644
 24
1110.259369078113
 34
0.0
100
AcDbRotatedDimension
1001
ACAD
1000
DSTYLE
1002
{
1070
     4
1000
mm
1070
    40
1040
30.0
1070
    41
1040
0.23
1070
    42
1040
0.12
1070
    77
1070
     1
1070
   140
1040
0.23
1070
   141
1040
0.0
1070
   171
1070
     0
1070
   271
1070
     0
1070
   272
1070
     0
1070
   274
1070
     0
1002
}
  0
INSERT
  5
4B68
330
19
100
AcDbEntity
  8
1
100
AcDbBlockReference
  2
BODY
 10
-881.3725378634428
 20
-69.10805116958363
 30
0.0
  0
DIMENSION
  5
4B74
330
19
100
AcDbEntity
  8
1
100
AcDbDimension
  2
*D10
 10
2109.077132588372
 20
861.4734950576346
 30
0.0
 11
2053.577132588374
 21
867.9412582155293
 31
0.0
 70
    32
  1
%%c110
 71
     5
 42
110.9999999999956
  3
STANDARD
100
AcDbAlignedDimension
 13
1998.077132588377
 23
894.3536922798685
 33
0.0
 14
2109.077132588372
 24
894.2877168164118
 34
0.0
100
AcDbRotatedDimension
1001
ACAD
1000
DSTYLE
1002
{
1070
     4
1000
mm
1070
    40
1040
30.0
1070
    41
1040
0.23
1070
    42
1040
0.12
1070
    77
1070
     1
1070
   140
1040
0.23
1070
   141
1040
0.0
1070
   171
1070
     0
1070
   271
1070
     0
1070
   272
1070
     0
1070
   274
1070
     0
1002
}
  0
DIMENSION
  5
4B98
330
19
100
AcDbEntity
  8
1
100
AcDbDimension
  2
*D11
 10
1915.099282448801
 20
887.3500525661325
 30
0.0
 11
1915.0992824488
 21
998.8047108221234
 31
0.0
 70
    32
  1
200\PTO\P250
 71
     5
 42
222.9093165119811
  3
STANDARD
100
AcDbAlignedDimension
 13
1941.130076671105
 23
1110.259369078113
 33
0.0
 14
2000.529023891187
 24
887.3500525661325
 34
0.0
 50
90.0
100
AcDbRotatedDimension
1001
ACAD
1000
DSTYLE
1002
{
1070
     4
1000
mm
1070
    40
1040
30.0
1070
    41
1040
0.23
1070
    42
1040
0.12
1070
    77
1070
     1
1070
   140
1040
0.23
1070
   141
1040
0.0
1070
   171
1070
     0
1070
   271
1070
     0
1070
   272
1070
     0
1070
   274
1070
     0
1002
}
  0
CIRCLE
  5
4BE7
330
19
100
AcDbEntity
  8
1
100
AcDbCircle
 10
2442.582631660247
 20
895.9096714772552
 30
0.0
 40
2.25
  0
CIRCLE
  5
4BE8
330
19
100
AcDbEntity
  8
1
100
AcDbCircle
 10
2442.582631660247
 20
895.9096714772552
 30
0.0
 40
3.049999999999999
  0
CIRCLE
  5
4BE9
330
19
100
AcDbEntity
  8
1
100
AcDbCircle
 10
2393.463427756798
 20
985.8738521709703
 30
0.0
 40
112.5
  0
CIRCLE
  5
4BEA
330
19
100
AcDbEntity
  8
1
  6
HIDDEN
100
AcDbCircle
 10
2393.463427756798
 20
985.8738521709703
 30
0.0
 40
92.5
  0
CIRCLE
  5
4BEB
330
19
100
AcDbEntity
  8
1
100
AcDbCircle
 10
2364.581667690994
 20
887.5270477719393
 30
0.0
 40
3.049999999999999
  0
CIRCLE
  5
4BEC
330
19
100
AcDbEntity
  8
1
100
AcDbCircle
 10
2364.581667690994
 20
887.5270477719393
 30
0.0
 40
2.25
  0
LWPOLYLINE
  5
4BED
330
19
100
AcDbEntity
  8
1
100
AcDbPolyline
 90
        6
 70
     1
 43
0.0
 10
2454.825948811546
 20
985.8738521709703
 10
2454.144688284173
 20
984.6938743243681
 10
2452.782167229425
 20
984.6938743243681
 10
2452.100906702051
 20
985.8738521709703
 10
2452.782167229425
 20
987.0538300175729
 10
2454.144688284173
 20
987.0538300175729
  0
CIRCLE
  5
4BEE
330
19
100
AcDbEntity
  8
1
100
AcDbCircle
 10
2453.463423061194
 20
985.8738521709703
 30
0.0
 40
4.0
  0
CIRCLE
  5
4BEF
330
19
100
AcDbEntity
  8
1
100
AcDbCircle
 10
2453.463423061194
 20
985.8738521709703
 30
0.0
 40
3.5
  0
CIRCLE
  5
4BF0
330
19
100
AcDbEntity
  8
1
100
AcDbCircle
 10
2393.463427756798
 20
985.8738521709703
 30
0.0
 40
78.5
  0
CIRCLE
  5
4BF1
330
19
100
AcDbEntity
  8
1
  6
HIDDEN
100
AcDbCircle
 10
2393.463427756798
 20
985.8738521709703
 30
0.0
 40
79.5
  0
CIRCLE
  5
4BF2
330
19
100
AcDbEntity
  8
1
100
AcDbCircle
 10
2393.463427756798
 20
985.8738521709703
 30
0.0
 40
88.0
  0
CIRCLE
  5
4BF3
330
19
100
AcDbEntity
  8
1
100
AcDbCircle
 10
2393.463427756798
 20
985.8738521709703
 30
0.0
 40
60.0
  0
CIRCLE
  5
4BF4
330
19
100
AcDbEntity
  8
1
100
AcDbCircle
 10
2393.463427756798
 20
985.8738521709703
 30
0.0
 40
65.0
  0
CIRCLE
  5
4BF5
330
19
100
AcDbEntity
  8
1
100
AcDbCircle
 10
2393.463427756798
 20
985.8738521709703
 30
0.0
 40
68.0
  0
CIRCLE
  5
4BF6
330
19
100
AcDbEntity
  8
1
100
AcDbCircle
 10
2393.463427756798
 20
985.8738521709703
 30
0.0
 40
91.5
  0
CIRCLE
  5
4BF7
330
19
100
AcDbEntity
  8
1
  6
HIDDEN
100
AcDbCircle
 10
2438.404284052162
 20
1032.83468090556
 30
0.0
 40
4.0
  0
LINE
  5
4BF8
330
19
100
AcDbEntity
  8
1
  6
HIDDEN
100
AcDbLine
 10
2346.784807716622
 20
1028.113915110867
 30
0.0
 11
2346.404935444547
 21
1033.330371686421
 31
0.0
  0
CIRCLE
  5
4BF9
330
19
100
AcDbEntity
  8
1
  6
HIDDEN
100
AcDbCircle
 10
2346.502599022209
 20
1030.814708466333
 30
0.0
 40
4.0
  0
CIRCLE
  5
4BFA
330
19
100
AcDbEntity
  8
1
100
AcDbCircle
 10
2303.499247063084
 20
936.7546482675217
 30
0.0
 40
3.049999999999999
  0
CIRCLE
  5
4BFB
330
19
100
AcDbEntity
  8
1
100
AcDbCircle
 10
2303.499247063084
 20
936.7546482675217
 30
0.0
 40
2.25
  0
CIRCLE
  5
4BFC
330
19
100
AcDbEntity
  8
1
  6
HIDDEN
100
AcDbCircle
 10
2348.522571461435
 20
938.9130234363804
 30
0.0
 40
4.0
  0
LINE
  5
4BFD
330
19
100
AcDbEntity
  8
1
  6
HIDDEN
100
AcDbLine
 10
2351.223364816902
 20
939.1952321307929
 30
0.0
 11
2346.006908241348
 21
938.8153598587187
 31
0.0
  0
CIRCLE
  5
4BFE
330
19
100
AcDbEntity
  8
1
100
AcDbCircle
 10
2295.116623357767
 20
1014.755612236775
 30
0.0
 40
3.049999999999999
  0
CIRCLE
  5
4BFF
330
19
100
AcDbEntity
  8
1
100
AcDbCircle
 10
2295.116623357767
 20
1014.755612236775
 30
0.0
 40
2.25
  0
CIRCLE
  5
4C00
330
19
100
AcDbEntity
  8
1
100
AcDbCircle
 10
2333.463432452403
 20
985.8738521709703
 30
0.0
 40
4.0
  0
CIRCLE
  5
4C01
330
19
100
AcDbEntity
  8
1
100
AcDbCircle
 10
2333.463432452403
 20
985.8738521709703
 30
0.0
 40
3.5
  0
LWPOLYLINE
  5
4C02
330
19
100
AcDbEntity
  8
1
100
AcDbPolyline
 90
        6
 70
     1
 43
0.0
 10
2332.100906702052
 20
985.8738521709703
 10
2332.782167229425
 20
984.6938743243681
 10
2334.144688284172
 20
984.6938743243681
 10
2334.825948811546
 20
985.8738521709703
 10
2334.144688284172
 20
987.0538300175729
 10
2332.782167229425
 20
987.0538300175729
  0
CIRCLE
  5
4C03
330
19
100
AcDbEntity
  8
1
  6
HIDDEN
100
AcDbCircle
 10
2393.463427756799
 20
925.8738568665751
 30
0.0
 40
4.0
  0
CIRCLE
  5
4C04
330
19
100
AcDbEntity
  8
1
  6
HIDDEN
100
AcDbCircle
 10
2440.424256491389
 20
940.9329958756071
 30
0.0
 40
4.0
  0
LINE
  5
4C05
330
19
100
AcDbEntity
  8
1
  6
HIDDEN
100
AcDbLine
 10
2440.142047796976
 20
943.6337892310735
 30
0.0
 11
2440.521920069051
 21
938.4173326555199
 31
0.0
  0
CIRCLE
  5
4C06
330
19
100
AcDbEntity
  8
1
100
AcDbCircle
 10
2344.34422385335
 20
1075.838032864685
 30
0.0
 40
2.25
  0
CIRCLE
  5
4C07
330
19
100
AcDbEntity
  8
1
100
AcDbCircle
 10
2344.34422385335
 20
1075.838032864685
 30
0.0
 40
3.049999999999999
  0
CIRCLE
  5
4C08
330
19
100
AcDbEntity
  8
1
  6
HIDDEN
100
AcDbCircle
 10
2393.463427756799
 20
1045.873847475365
 30
0.0
 40
4.0
  0
LINE
  5
4C09
330
19
100
AcDbEntity
  8
1
  6
HIDDEN
100
AcDbLine
 10
2435.703490696695
 20
1032.552472211148
 30
0.0
 11
2440.91994727225
 21
1032.932344483222
 31
0.0
  0
CIRCLE
  5
4C0A
330
19
100
AcDbEntity
  8
1
100
AcDbCircle
 10
2422.345187822603
 20
1084.220656570001
 30
0.0
 40
2.25
  0
CIRCLE
  5
4C0B
330
19
100
AcDbEntity
  8
1
100
AcDbCircle
 10
2422.345187822603
 20
1084.220656570001
 30
0.0
 40
3.049999999999999
  0
CIRCLE
  5
4C0C
330
19
100
AcDbEntity
  8
1
100
AcDbCircle
 10
2491.81023215583
 20
956.9920921051659
 30
0.0
 40
3.049999999999999
  0
CIRCLE
  5
4C0D
330
19
100
AcDbEntity
  8
1
100
AcDbCircle
 10
2491.81023215583
 20
956.9920921051659
 30
0.0
 40
2.25
  0
CIRCLE
  5
4C0E
330
19
100
AcDbEntity
  8
1
100
AcDbCircle
 10
2483.427608450514
 20
1034.993056074419
 30
0.0
 40
3.049999999999999
  0
CIRCLE
  5
4C0F
330
19
100
AcDbEntity
  8
1
100
AcDbCircle
 10
2483.427608450514
 20
1034.993056074419
 30
0.0
 40
2.25
  0
MTEXT
  5
4C10
330
19
100
AcDbEntity
  8
1
100
AcDbMText
 10
1970.224639266035
 20
834.9588751055101
 30
0.0
 40
10.0
 41
283.44
 71
     1
 72
     5
  1
{\fTechnicLite|b0|i0|c2|p2;SECTIONAL ELEVATION}
  7
ROMANC
 73
     1
 44
1.0
  0
MTEXT
  5
4C11
330
19
100
AcDbEntity
  8
1
100
AcDbMText
 10
2379.288334507418
 20
835.0146454744207
 30
0.0
 40
10.0
 41
283.44
 71
     1
 72
     5
  1
{\fTechnicLite|b0|i0|c2|p2;PLAN}
  7
ROMANC
 73
     1
 44
1.0
  0
CIRCLE
  5
4C48
330
19
100
AcDbEntity
  8
1
  6
HIDDEN
100
AcDbCircle
 10
2053.077132588375
 20
1017.225933132819
 30
0.0
 40
32.0
  0
CIRCLE
  5
4C49
330
19
100
AcDbEntity
  8
1
  6
HIDDEN
100
AcDbCircle
 10
2053.077132588375
 20
1017.225933132819
 30
0.0
 40
28.0
  0
LINE
  5
4C4A
330
19
100
AcDbEntity
  8
1
100
AcDbLine
 10
2128.577132588375
 20
1041.900496764231
 30
0.0
 11
2165.064906948196
 21
1041.900496764231
 31
0.0
  0
LINE
  5
4C4B
330
19
100
AcDbEntity
  8
1
100
AcDbLine
 10
2128.577132588375
 20
1044.900496764231
 30
0.0
 11
2165.064906948196
 21
1044.900496764231
 31
0.0
  0
LINE
  5
4C4C
330
19
100
AcDbEntity
  8
1
100
AcDbLine
 10
2165.064906948196
 20
990.9004967642317
 30
0.0
 11
2128.577132588375
 21
990.9004967642317
 31
0.0
  0
LINE
  5
4C4D
330
19
100
AcDbEntity
  8
1
100
AcDbLine
 10
2165.064906948196
 20
993.9004967642317
 30
0.0
 11
2128.577132588375
 21
993.9004967642317
 31
0.0
  0
LINE
  5
4C4E
330
19
100
AcDbEntity
  8
1
100
AcDbLine
 10
2165.064906948196
 20
1044.900496764231
 30
0.0
 11
2165.064906948196
 21
990.9004967642317
 31
0.0
  0
DIMENSION
  5
4C4F
330
19
100
AcDbEntity
  8
1
100
AcDbDimension
  2
*D13
 10
2188.596600737108
 20
1044.900496764231
 30
0.0
 11
2188.596600737108
 21
1018.639498202561
 31
0.0
 70
   160
  1
1.5" BSP
 71
     5
 42
54.0
  3
STANDARD
100
AcDbAlignedDimension
 13
2165.064906948196
 23
990.9004967642317
 33
0.0
 14
2165.064906948196
 24
1044.900496764231
 34
0.0
 50
90.0
100
AcDbRotatedDimension
1001
ACAD
1000
DSTYLE
1002
{
1070
     4
1000
mm
1070
    40
1040
30.0
1070
    41
1040
0.23
1070
    42
1040
0.12
1070
    77
1070
     1
1070
   140
1040
0.23
1070
   141
1040
0.0
1070
   171
1070
     0
1070
   271
1070
     0
1070
   272
1070
     0
1070
   274
1070
     0
1002
}
  0
LINE
  5
4C50
330
19
100
AcDbEntity
  8
1
100
AcDbLine
 10
2149.398240281529
 20
993.9004967642317
 30
0.0
 11
2154.620462503751
 21
995.4004967642317
 31
0.0
  0
LINE
  5
4C51
330
19
100
AcDbEntity
  8
1
100
AcDbLine
 10
2138.953795837085
 20
993.9004967642317
 30
0.0
 11
2144.176018059307
 21
995.4004967642317
 31
0.0
  0
LINE
  5
4C52
330
19
100
AcDbEntity
  8
1
100
AcDbLine
 10
2144.176018059307
 20
993.9004967642317
 30
0.0
 11
2149.398240281529
 21
995.4004967642317
 31
0.0
  0
LINE
  5
4C53
330
19
100
AcDbEntity
  8
1
100
AcDbLine
 10
2144.176018059307
 20
995.4004967642317
 30
0.0
 11
2144.176018059307
 21
993.9004967642317
 31
0.0
  0
LINE
  5
4C54
330
19
100
AcDbEntity
  8
1
100
AcDbLine
 10
2149.398240281529
 20
995.4004967642317
 30
0.0
 11
2149.398240281529
 21
993.9004967642317
 31
0.0
  0
LINE
  5
4C55
330
19
100
AcDbEntity
  8
1
100
AcDbLine
 10
2154.620462503751
 20
993.9004967642317
 30
0.0
 11
2159.842684725973
 21
995.4004967642317
 31
0.0
  0
LINE
  5
4C56
330
19
100
AcDbEntity
  8
1
100
AcDbLine
 10
2154.620462503751
 20
995.4004967642317
 30
0.0
 11
2154.620462503751
 21
993.9004967642317
 31
0.0
  0
LINE
  5
4C57
330
19
100
AcDbEntity
  8
1
100
AcDbLine
 10
2159.842684725973
 20
993.9004967642317
 30
0.0
 11
2165.064906948196
 21
995.4004967642317
 31
0.0
  0
LINE
  5
4C58
330
19
100
AcDbEntity
  8
1
100
AcDbLine
 10
2159.842684725973
 20
995.4004967642317
 30
0.0
 11
2159.842684725973
 21
993.9004967642317
 31
0.0
  0
MTEXT
  5
4C59
102
{ACAD_REACTORS
330
4C63
102
}
330
19
100
AcDbEntity
  8
1
100
AcDbMText
 10
2165.498535918007
 20
1075.377572473392
 30
0.0
 40
5.75
 41
0.0
 71
     1
 72
     1
  1
SIDE INLET\POPTIONAL
 73
     1
 44
1.0
  0
LINE
  5
4C5A
330
19
100
AcDbEntity
  8
1
100
AcDbLine
 10
2154.620462503751
 20
1040.400496764231
 30
0.0
 11
2149.398240281529
 21
1041.900496764231
 31
0.0
  0
LINE
  5
4C5B
330
19
100
AcDbEntity
  8
1
100
AcDbLine
 10
2144.176018059307
 20
1040.400496764231
 30
0.0
 11
2138.953795837085
 21
1041.900496764231
 31
0.0
  0
LINE
  5
4C5C
330
19
100
AcDbEntity
  8
1
100
AcDbLine
 10
2149.398240281529
 20
1040.400496764231
 30
0.0
 11
2144.176018059307
 21
1041.900496764231
 31
0.0
  0
LINE
  5
4C5D
330
19
100
AcDbEntity
  8
1
100
AcDbLine
 10
2144.176018059307
 20
1041.900496764231
 30
0.0
 11
2144.176018059307
 21
1040.400496764231
 31
0.0
  0
LINE
  5
4C5E
330
19
100
AcDbEntity
  8
1
100
AcDbLine
 10
2149.398240281529
 20
1041.900496764231
 30
0.0
 11
2149.398240281529
 21
1040.400496764231
 31
0.0
  0
LINE
  5
4C5F
330
19
100
AcDbEntity
  8
1
100
AcDbLine
 10
2159.842684725973
 20
1040.400496764231
 30
0.0
 11
2154.620462503751
 21
1041.900496764231
 31
0.0
  0
LINE
  5
4C60
330
19
100
AcDbEntity
  8
1
100
AcDbLine
 10
2154.620462503751
 20
1041.900496764231
 30
0.0
 11
2154.620462503751
 21
1040.400496764231
 31
0.0
  0
LINE
  5
4C61
330
19
100
AcDbEntity
  8
1
100
AcDbLine
 10
2159.842684725973
 20
1041.900496764231
 30
0.0
 11
2159.842684725973
 21
1040.400496764231
 31
0.0
  0
LINE
  5
4C62
330
19
100
AcDbEntity
  8
1
100
AcDbLine
 10
2165.064906948196
 20
1040.400496764231
 30
0.0
 11
2159.842684725973
 21
1041.900496764231
 31
0.0
  0
LEADER
  5
4C63
330
19
100
AcDbEntity
  8
1
100
AcDbLeader
  3
STANDARD
 73
     0
 74
     0
 75
     1
 40
15.5266812865497
 41
42.61220760233918
 76
     3
 10
2149.947634411971
 20
1046.333595639973
 30
0.0
 10
2157.498535918007
 20
1072.502572473392
 30
0.0
 10
2163.248535918007
 20
1072.502572473392
 30
0.0
340
4C59
213
0.0
223
-2.875
233
0.0
1001
ACAD
1000
DSTYLE
1002
{
1070
   147
1040
0.09
1070
     4
1000
mm
1070
    40
1040
25.0
1070
    41
1040
0.23
1070
    42
1040
0.07
1070
    77
1070
     0
1070
   140
1040
0.23
1070
   141
1040
0.0
1070
   171
1070
     0
1070
   271
1070
     0
1070
   272
1070
     0
1070
   274
1070
     0
1002
}
  0
LINE
  5
4C7B
330
19
100
AcDbEntity
  8
1
100
AcDbLine
 10
2128.577132588375
 20
1039.768512775407
 30
0.0
 11
2128.577132588375
 21
1071.768512775407
 31
0.0
  0
MTEXT
  5
4D38
102
{ACAD_REACTORS
330
4D6A
102
}
330
19
100
AcDbEntity
  8
1
100
AcDbMText
 10
2190.426024953937
 20
967.1643050276545
 30
0.0
 40
7.0
 41
0.0
 71
     1
 72
     1
  1
DPM FLANGE\POPTIONAL
 73
     1
 44
1.0
  0
LINE
  5
4D39
330
19
100
AcDbEntity
  8
1
100
AcDbLine
 10
2169.187362552868
 20
981.7074902831269
 30
0.0
 11
2151.882247570621
 21
981.7074902831269
 31
0.0
  0
LINE
  5
4D3A
330
19
100
AcDbEntity
  8
1
100
AcDbLine
 10
2169.187362552868
 20
982.2028784928624
 30
0.0
 11
2151.696350929539
 21
982.2028784928624
 31
0.0
  0
LINE
  5
4D3B
330
19
100
AcDbEntity
  8
1
100
AcDbLine
 10
2169.187362552868
 20
984.2028784928626
 30
0.0
 11
2154.377635780359
 21
984.2028784928627
 31
0.0
  0
LINE
  5
4D3C
330
19
100
AcDbEntity
  8
1
100
AcDbLine
 10
2169.783683682984
 20
980.2074902831268
 30
0.0
 11
2128.577132588375
 21
980.2074902831268
 31
0.0
  0
LINE
  5
4D3D
330
19
100
AcDbEntity
  8
1
100
AcDbLine
 10
2145.743600929538
 20
979.0850533934898
 30
0.0
 11
2145.743600929538
 21
958.0850533934899
 31
0.0
  0
LINE
  5
4D3E
330
19
100
AcDbEntity
  8
1
100
AcDbLine
 10
2151.743600929538
 20
979.0850533934898
 30
0.0
 11
2151.743600929538
 21
958.0850533934899
 31
0.0
  0
HATCH
  5
4D3F
330
19
100
AcDbEntity
  8
1
  6
Continuous
100
AcDbHatch
 10
0.0
 20
0.0
 30
0.0
210
0.0
220
0.0
230
1.0
  2
ANSI31
 70
     0
 71
     0
 91
        1
 92
        7
 72
     0
 73
     1
 93
       16
 10
2153.743600929538
 20
980.08505339349
 10
2152.743600929539
 20
980.08505339349
 10
2152.243600929538
 20
979.5850533934897
 10
2152.243600929538
 20
958.7854557096708
 10
2151.743600929538
 20
958.0850533934897
 10
2148.743600929539
 20
958.0850533934899
 10
2145.743600929538
 20
958.0850533934899
 10
2145.243600929539
 20
958.7854557096706
 10
2145.243600929539
 20
979.5850533934899
 10
2144.743600929538
 20
980.08505339349
 10
2143.80700964329
 20
980.08505339349
 10
2143.743600929539
 20
980.0216446797385
 10
2143.743600929539
 20
956.5050533934899
 10
2144.163600929539
 20
956.08505339349
 10
2153.323600929538
 20
956.08505339349
 10
2153.743600929538
 20
956.5050533934899
 97
        0
 75
     0
 76
     1
 52
90.0
 41
10.0
 77
     0
 78
     1
 53
135.0
 43
2755.780121641077
 44
465.0514235507025
 45
-0.8838834764831844
 46
-0.8838834764831842
 79
     0
 47
0.0260000000000001
 98
        1
 10
3034.490184632948
 20
1142.458261306015
  0
LINE
  5
4D40
330
19
100
AcDbEntity
  8
1
100
AcDbLine
 10
2152.243600929538
 20
979.5850533934899
 30
0.0
 11
2152.243600929538
 21
958.7854557096706
 31
0.0
  0
LINE
  5
4D41
330
19
100
AcDbEntity
  8
1
100
AcDbLine
 10
2143.743600929539
 20
980.08505339349
 30
0.0
 11
2143.743600929539
 21
956.5050533934897
 31
0.0
  0
LINE
  5
4D42
330
19
100
AcDbEntity
  8
1
100
AcDbLine
 10
2145.243600929539
 20
979.5850533934899
 30
0.0
 11
2145.243600929539
 21
958.7854557096706
 31
0.0
  0
LINE
  5
4D43
330
19
100
AcDbEntity
  8
1
100
AcDbLine
 10
2153.743600929538
 20
956.5050533934897
 30
0.0
 11
2153.743600929538
 21
980.08505339349
 31
0.0
  0
LINE
  5
4D44
330
19
100
AcDbEntity
  8
1
100
AcDbLine
 10
2151.743600929538
 20
958.0850533934899
 30
0.0
 11
2148.743600929539
 21
958.0850533934899
 31
0.0
  0
LINE
  5
4D45
330
19
100
AcDbEntity
  8
1
100
AcDbLine
 10
2144.163600929539
 20
956.08505339349
 30
0.0
 11
2153.323600929538
 21
956.08505339349
 31
0.0
  0
LINE
  5
4D46
330
19
100
AcDbEntity
  8
1
100
AcDbLine
 10
2145.743600929538
 20
958.0850533934899
 30
0.0
 11
2148.743600929539
 21
958.0850533934899
 31
0.0
  0
LINE
  5
4D47
330
19
100
AcDbEntity
  8
1
100
AcDbLine
 10
2145.743600929538
 20
958.0850533934899
 30
0.0
 11
2145.243600929539
 21
958.7854557096706
 31
0.0
  0
LINE
  5
4D48
330
19
100
AcDbEntity
  8
1
100
AcDbLine
 10
2143.743600929539
 20
956.5050533934897
 30
0.0
 11
2144.163600929539
 21
956.08505339349
 31
0.0
  0
LINE
  5
4D49
330
19
100
AcDbEntity
  8
1
100
AcDbLine
 10
2151.743600929538
 20
958.0850533934899
 30
0.0
 11
2152.243600929538
 21
958.7854557096706
 31
0.0
  0
LINE
  5
4D4A
330
19
100
AcDbEntity
  8
1
100
AcDbLine
 10
2153.323600929538
 20
956.08505339349
 30
0.0
 11
2153.743600929538
 21
956.5050533934897
 31
0.0
  0
LINE
  5
4D4B
330
19
100
AcDbEntity
  8
1
100
AcDbLine
 10
2143.386859360886
 20
984.2028784928627
 30
0.0
 11
2133.900160318743
 21
984.2028784928626
 31
0.0
  0
LINE
  5
4D4C
330
19
100
AcDbEntity
  8
1
100
AcDbLine
 10
2145.652527685496
 20
981.7074902831269
 30
0.0
 11
2128.577132588375
 21
981.7074902831269
 31
0.0
  0
LINE
  5
4D4D
330
19
100
AcDbEntity
  8
1
100
AcDbLine
 10
2145.790850929539
 20
982.2028784928624
 30
0.0
 11
2133.900160318743
 21
982.2028784928628
 31
0.0
  0
INSERT
  5
4D4E
330
19
100
AcDbEntity
  8
1
100
AcDbBlockReference
  2
*X14
 10
1479.514570158101
 20
541.6451978666314
 30
0.0
 41
-1.0
  0
LINE
  5
4D4F
330
19
100
AcDbEntity
  8
1
100
AcDbLine
 10
2133.900160318743
 20
984.2028784928626
 30
0.0
 11
2133.900160318743
 21
982.2028784928624
 31
0.0
  0
LINE
  5
4D50
330
19
100
AcDbEntity
  8
1
  6
Continuous
 62
     0
100
AcDbLine
 10
2154.649100929538
 20
984.2028784928627
 30
0.0
 11
2154.649100929538
 21
985.9745284928628
 31
0.0
  0
LINE
  5
4D51
330
19
100
AcDbEntity
  8
1
  6
Continuous
 62
     0
100
AcDbLine
 10
2142.838100929539
 20
984.2028784928627
 30
0.0
 11
2142.838100929539
 21
985.9745284928628
 31
0.0
  0
LINE
  5
4D52
330
19
100
AcDbEntity
  8
1
  6
Continuous
 62
     0
100
AcDbLine
 10
2145.790850929539
 20
982.4312284928629
 30
0.0
 11
2151.696350929539
 21
982.4312284928629
 31
0.0
  0
LINE
  5
4D53
330
19
100
AcDbEntity
  8
1
100
AcDbLine
 10
2145.743600929538
 20
979.0850533934898
 30
0.0
 11
2151.743600929538
 21
979.0850533934898
 31
0.0
  0
LINE
  5
4D54
330
19
100
AcDbEntity
  8
1
  6
Continuous
 62
     0
100
AcDbLine
 10
2154.649100929538
 20
984.2028784928627
 30
0.0
 11
2142.838100929539
 21
984.2028784928627
 31
0.0
  0
LINE
  5
4D55
330
19
100
AcDbEntity
  8
1
100
AcDbLine
 10
2153.743600929538
 20
980.08505339349
 30
0.0
 11
2143.743600929539
 21
980.08505339349
 31
0.0
  0
LINE
  5
4D56
330
19
100
AcDbEntity
  8
1
  6
Continuous
 62
     0
100
AcDbLine
 10
2145.790850929539
 20
965.1762859928629
 30
0.0
 11
2151.696350929539
 21
965.1762859928629
 31
0.0
  0
LINE
  5
4D57
330
19
100
AcDbEntity
  8
1
  6
Continuous
 62
     0
100
AcDbLine
 10
2146.765258429539
 20
964.2018784928627
 30
0.0
 11
2150.721943429539
 21
964.2018784928627
 31
0.0
  0
LINE
  5
4D58
330
19
100
AcDbEntity
  8
1
  6
Continuous
 62
     0
100
AcDbLine
 10
2145.790850929539
 20
965.1762859928629
 30
0.0
 11
2145.790850929539
 21
984.2028784928627
 31
0.0
  0
LINE
  5
4D59
330
19
100
AcDbEntity
  8
1
  6
DASHED
 62
     0
100
AcDbLine
 10
2146.765258429539
 20
965.1762859928629
 30
0.0
 11
2146.765258429539
 21
982.4312284928629
 31
0.0
  0
LINE
  5
4D5A
330
19
100
AcDbEntity
  8
1
  6
Continuous
 62
     0
100
AcDbLine
 10
2146.765258429539
 20
964.2018784928627
 30
0.0
 11
2145.790850929539
 21
965.1762859928629
 31
0.0
  0
INSERT
  5
4D5B
330
19
100
AcDbEntity
  8
1
100
AcDbBlockReference
  2
*X15
 10
2817.465573106984
 20
541.7331038839825
 30
0.0
  0
LINE
  5
4D5C
330
19
100
AcDbEntity
  8
1
100
AcDbLine
 10
2145.652527685496
 20
981.7074902831269
 30
0.0
 11
2145.652527685496
 21
980.2074902831268
 31
0.0
  0
LINE
  5
4D5D
330
19
100
AcDbEntity
  8
1
100
AcDbLine
 10
2143.663065635165
 20
979.9411093853652
 30
0.0
 11
2143.80700964329
 21
980.08505339349
 31
0.0
  0
LINE
  5
4D5E
330
19
100
AcDbEntity
  8
1
100
AcDbLine
 10
2144.743600929538
 20
980.08505339349
 30
0.0
 11
2145.743600929538
 21
979.0850533934898
 31
0.0
  0
LINE
  5
4D5F
330
19
100
AcDbEntity
  8
1
  6
Continuous
 62
     0
100
AcDbLine
 10
2151.696350929539
 20
965.1762859928629
 30
0.0
 11
2151.696350929539
 21
984.2028784928627
 31
0.0
  0
LINE
  5
4D60
330
19
100
AcDbEntity
  8
1
  6
DASHED
 62
     0
100
AcDbLine
 10
2150.721943429539
 20
965.1762859928629
 30
0.0
 11
2150.721943429539
 21
982.4312284928629
 31
0.0
  0
LINE
  5
4D61
330
19
100
AcDbEntity
  8
1
  6
Continuous
 62
     0
100
AcDbLine
 10
2150.721943429539
 20
964.2018784928627
 30
0.0
 11
2151.696350929539
 21
965.1762859928629
 31
0.0
  0
INSERT
  5
4D62
330
19
100
AcDbEntity
  8
1
100
AcDbBlockReference
  2
*X15
 10
1479.907839575016
 20
541.7331038839825
 30
0.0
 41
-1.0
  0
LINE
  5
4D63
330
19
100
AcDbEntity
  8
1
100
AcDbLine
 10
2151.882247570621
 20
981.7074902831269
 30
0.0
 11
2151.882247570621
 21
980.2074902831268
 31
0.0
  0
LINE
  5
4D64
330
19
100
AcDbEntity
  8
1
100
AcDbLine
 10
2152.743600929539
 20
980.08505339349
 30
0.0
 11
2151.743600929538
 21
979.0850533934898
 31
0.0
  0
ARC
  5
4D65
330
19
100
AcDbEntity
  8
1
  6
Continuous
 62
     0
100
AcDbCircle
 10
2148.743600929539
 20
977.0178534928627
 30
0.0
 40
10.728325
100
AcDbArc
 50
56.60151153201574
 51
87.09717388640283
  0
ARC
  5
4D66
330
19
100
AcDbEntity
  8
1
  6
Continuous
 62
     0
100
AcDbCircle
 10
2148.743600929539
 20
977.0178534928627
 30
0.0
 40
10.728325
100
AcDbArc
 50
92.90282611359717
 51
123.3984884679842
  0
LINE
  5
4D67
330
19
100
AcDbEntity
  8
1
  6
DASHED
 62
     0
100
AcDbLine
 10
2148.200294929539
 20
986.2643444030721
 30
0.0
 11
2148.200294929539
 21
987.3016870687411
 31
0.0
  0
LINE
  5
4D68
330
19
100
AcDbEntity
  8
1
  6
DASHED
 62
     0
100
AcDbLine
 10
2149.286906929539
 20
986.2643444030721
 30
0.0
 11
2149.286906929539
 21
987.3016870687411
 31
0.0
  0
LINE
  5
4D69
330
19
100
AcDbEntity
  8
1
  6
DASHED
 62
     0
100
AcDbLine
 10
2149.286906929539
 20
986.2643444030721
 30
0.0
 11
2148.200294929539
 21
986.2643444030721
 31
0.0
  0
LEADER
  5
4D6A
330
19
100
AcDbEntity
  8
1
100
AcDbLeader
  3
STANDARD
 73
     0
 74
     0
 75
     1
 40
18.80994152046783
 41
59.15204678362574
 76
     3
 10
2169.023977059155
 20
977.486566387669
 30
0.0
 10
2182.426024953937
 20
964.2893050276546
 30
0.0
 10
2188.176024953937
 20
964.2893050276546
 30
0.0
340
4D38
213
0.0
223
-2.875
233
0.0
1001
ACAD
1000
DSTYLE
1002
{
1070
   147
1040
0.09
1070
     4
1000
mm
1070
    40
1040
25.0
1070
    41
1040
0.23
1070
    42
1040
0.07
1070
    77
1070
     0
1070
   140
1040
0.23
1070
   141
1040
0.0
1070
   171
1070
     0
1070
   271
1070
     0
1070
   272
1070
     0
1070
   274
1070
     0
1002
}
  0
ARC
  5
4D6B
330
19
100
AcDbEntity
  8
1
100
AcDbCircle
 10
2174.661262260356
 20
976.455101267186
 30
0.0
 40
5.809990758973864
100
AcDbArc
 50
41.58912319034117
 51
135.7448030755001
  0
ARC
  5
4D6C
330
19
100
AcDbEntity
  8
1
100
AcDbCircle
 10
2174.661262260356
 20
976.455101267186
 30
0.0
 40
7.309990758973864
100
AcDbArc
 50
42.41639475376483
 51
131.201799574544
  0
ARC
  5
4D6D
330
19
100
AcDbEntity
  8
1
100
AcDbCircle
 10
2169.187362552868
 20
982.7074902831268
 30
0.0
 40
1.0
100
AcDbArc
 50
270.0
 51
311.20179957453
  0
LINE
  5
4D6E
330
19
100
AcDbEntity
  8
1
100
AcDbLine
 10
2169.187362552868
 20
984.2028784928626
 30
0.0
 11
2169.187362552868
 21
982.2028784928624
 31
0.0
  0
ARC
  5
4D6F
330
19
100
AcDbEntity
  8
1
100
AcDbCircle
 10
2169.783683682984
 20
981.2074902831268
 30
0.0
 40
1.0
100
AcDbArc
 50
270.0
 51
315.7448030755002
  0
LINE
  5
4D70
330
19
100
AcDbEntity
  8
1
100
AcDbLine
 10
2182.330333081516
 20
979.6159115685965
 30
0.0
 11
2180.637122439236
 21
980.8644203700689
 31
0.0
  0
LINE
  5
4D71
330
19
100
AcDbEntity
  8
1
100
AcDbLine
 10
2181.368728648158
 20
978.4612746151704
 30
0.0
 11
2179.624510575004
 21
979.7473943463151
 31
0.0
  0
ARC
  5
4D72
330
19
100
AcDbEntity
  8
1
100
AcDbCircle
 10
2183.011002773439
 20
984.0838445668607
 30
0.0
 40
4.0
100
AcDbArc
 50
222.4163947537648
 51
233.5963554971198
  0
ARC
  5
4D73
330
19
100
AcDbEntity
  8
1
100
AcDbCircle
 10
2181.998390909206
 20
982.9668185431071
 30
0.0
 40
4.0
100
AcDbArc
 50
221.5891231903411
 51
233.5963554971198
  0
LINE
  5
4D74
330
19
100
AcDbEntity
  8
1
100
AcDbLine
 10
2182.956541330232
 20
979.3058372945786
 30
0.0
 11
2184.563517893934
 21
978.8364709815809
 31
0.0
  0
ARC
  5
4D75
330
19
100
AcDbEntity
  8
1
100
AcDbCircle
 10
2183.517273248617
 20
981.2256236669922
 30
0.0
 40
2.0
100
AcDbArc
 50
233.5963554971198
 51
253.7179524963949
  0
ARC
  5
4D76
330
19
100
AcDbEntity
  8
1
100
AcDbCircle
 10
2184.267285199787
 20
978.1474527010358
 30
0.0
 40
0.75
100
AcDbArc
 50
253.7179524963806
 51
344.3097736805185
  0
LINE
  5
4D77
330
19
100
AcDbEntity
  8
1
100
AcDbLine
 10
2182.621145145591
 20
977.8411260671353
 30
0.0
 11
2184.17703759374
 21
977.3866804216263
 31
0.0
  0
ARC
  5
4D78
330
19
100
AcDbEntity
  8
1
100
AcDbCircle
 10
2183.74260898236
 20
981.6806988119624
 30
0.0
 40
4.0
100
AcDbArc
 50
233.5963554971198
 51
253.7179524963806
  0
ARC
  5
4D79
330
19
100
AcDbEntity
  8
1
100
AcDbCircle
 10
2184.267285199787
 20
978.1474527010358
 30
0.0
 40
0.75
100
AcDbArc
 50
344.3097736805309
 51
73.71795249639493
  0
ARC
  5
4D7A
330
19
100
AcDbEntity
  8
1
  6
Continuous
 62
     0
100
AcDbCircle
 10
1958.410664247212
 20
977.0178534928627
 30
0.0
 40
10.728325
100
AcDbArc
 50
56.60151153201574
 51
87.09717388640283
  0
LINE
  5
4D7B
330
19
100
AcDbEntity
  8
1
100
AcDbLine
 10
1961.363414247212
 20
982.2028784928624
 30
0.0
 11
1973.254104858007
 21
982.2028784928628
 31
0.0
  0
LINE
  5
4D7C
330
19
100
AcDbEntity
  8
1
100
AcDbLine
 10
1961.530437304011
 20
981.7136354946747
 30
0.0
 11
1978.577132588375
 21
981.7074902831269
 31
0.0
  0
LINE
  5
4D7D
330
19
100
AcDbEntity
  8
1
100
AcDbLine
 10
1953.410664247212
 20
980.08505339349
 30
0.0
 11
1963.410664247212
 21
980.08505339349
 31
0.0
  0
LINE
  5
4D7E
330
19
100
AcDbEntity
  8
1
100
AcDbLine
 10
1962.990664247212
 20
956.08505339349
 30
0.0
 11
1953.830664247212
 21
956.08505339349
 31
0.0
  0
HATCH
  5
4D7F
330
19
100
AcDbEntity
  8
1
  6
Continuous
100
AcDbHatch
 10
0.0
 20
0.0
 30
0.0
210
0.0
220
0.0
230
1.0
  2
ANSI31
 70
     0
 71
     0
 91
        1
 92
        7
 72
     0
 73
     1
 93
       15
 10
1963.410664247212
 20
980.08505339349
 10
1962.410664247212
 20
980.08505339349
 10
1961.910664247212
 20
979.5850533934897
 10
1961.910664247212
 20
958.785455709671
 10
1961.410664247212
 20
958.0850533934897
 10
1958.410664247212
 20
958.0850533934899
 10
1955.410664247212
 20
958.0850533934899
 10
1954.910664247212
 20
958.7854557096706
 10
1954.910664247212
 20
979.5850533934897
 10
1954.410664247212
 20
980.08505339349
 10
1953.410664247212
 20
980.08505339349
 10
1953.410664247212
 20
956.5050533934901
 10
1953.830664247212
 20
956.08505339349
 10
1962.990664247212
 20
956.0850533934898
 10
1963.410664247212
 20
956.5050533934897
 97
        0
 75
     0
 76
     1
 52
0.0
 41
10.0
 77
     0
 78
     1
 53
45.0
 43
2755.780121641077
 44
465.0514235507025
 45
-0.8838834764831842
 46
0.8838834764831844
 79
     0
 47
0.0260000000000001
 98
        1
 10
2844.132328780907
 20
1142.819415236669
  0
LINE
  5
4D80
330
19
100
AcDbEntity
  8
1
  6
Continuous
 62
     0
100
AcDbLine
 10
1964.316164247212
 20
984.2028784928627
 30
0.0
 11
1952.505164247212
 21
984.2028784928627
 31
0.0
  0
LINE
  5
4D81
330
19
100
AcDbEntity
  8
1
100
AcDbLine
 10
1937.370581493767
 20
980.2074902831268
 30
0.0
 11
1978.577132588375
 21
980.2074902831268
 31
0.0
  0
LINE
  5
4D82
330
19
100
AcDbEntity
  8
1
100
AcDbLine
 10
1961.410664247212
 20
979.0850533934898
 30
0.0
 11
1961.410664247212
 21
958.0850533934899
 31
0.0
  0
LINE
  5
4D83
330
19
100
AcDbEntity
  8
1
100
AcDbLine
 10
1955.410664247212
 20
979.0850533934898
 30
0.0
 11
1955.410664247212
 21
958.0850533934899
 31
0.0
  0
LINE
  5
4D84
330
19
100
AcDbEntity
  8
1
100
AcDbLine
 10
1961.910664247212
 20
979.5850533934899
 30
0.0
 11
1961.910664247212
 21
958.7854557096706
 31
0.0
  0
LINE
  5
4D85
330
19
100
AcDbEntity
  8
1
100
AcDbLine
 10
1954.910664247212
 20
979.5850533934899
 30
0.0
 11
1954.910664247212
 21
958.7854557096706
 31
0.0
  0
LINE
  5
4D86
330
19
100
AcDbEntity
  8
1
100
AcDbLine
 10
1953.410664247212
 20
956.5050533934897
 30
0.0
 11
1953.410664247212
 21
980.08505339349
 31
0.0
  0
LINE
  5
4D87
330
19
100
AcDbEntity
  8
1
100
AcDbLine
 10
1955.410664247212
 20
958.0850533934899
 30
0.0
 11
1958.410664247212
 21
958.0850533934899
 31
0.0
  0
LINE
  5
4D88
330
19
100
AcDbEntity
  8
1
100
AcDbLine
 10
1953.830664247212
 20
956.08505339349
 30
0.0
 11
1953.410664247212
 21
956.5050533934897
 31
0.0
  0
LINE
  5
4D89
330
19
100
AcDbEntity
  8
1
100
AcDbLine
 10
1955.410664247212
 20
958.0850533934899
 30
0.0
 11
1954.910664247212
 21
958.7854557096706
 31
0.0
  0
LINE
  5
4D8A
330
19
100
AcDbEntity
  8
1
100
AcDbLine
 10
1961.410664247212
 20
958.0850533934899
 30
0.0
 11
1958.410664247212
 21
958.0850533934899
 31
0.0
  0
LINE
  5
4D8B
330
19
100
AcDbEntity
  8
1
100
AcDbLine
 10
1961.410664247212
 20
958.0850533934899
 30
0.0
 11
1961.910664247212
 21
958.7854557096706
 31
0.0
  0
ARC
  5
4D8C
330
19
100
AcDbEntity
  8
1
100
AcDbCircle
 10
1937.966902623883
 20
982.7074902831268
 30
0.0
 40
1.0
100
AcDbArc
 50
228.79820042547
 51
270.0
  0
LINE
  5
4D8D
330
19
100
AcDbEntity
  8
1
100
AcDbLine
 10
1924.823932095235
 20
979.6159115685965
 30
0.0
 11
1926.517142737514
 21
980.8644203700689
 31
0.0
  0
ARC
  5
4D8E
330
19
100
AcDbEntity
  8
1
100
AcDbCircle
 10
1923.411656194391
 20
981.6806988119624
 30
0.0
 40
4.0
100
AcDbArc
 50
286.2820475036193
 51
306.4036445028801
  0
ARC
  5
4D8F
330
19
100
AcDbEntity
  8
1
100
AcDbCircle
 10
1923.636991928134
 20
981.2256236669922
 30
0.0
 40
2.0
100
AcDbArc
 50
286.282047503605
 51
306.4036445028801
  0
LINE
  5
4D90
330
19
100
AcDbEntity
  8
1
100
AcDbLine
 10
1924.197723846519
 20
979.3058372945786
 30
0.0
 11
1922.590747282817
 21
978.8364709815809
 31
0.0
  0
LINE
  5
4D91
330
19
100
AcDbEntity
  8
1
100
AcDbLine
 10
1924.53312003116
 20
977.8411260671353
 30
0.0
 11
1922.977227583011
 21
977.3866804216263
 31
0.0
  0
ARC
  5
4D92
330
19
100
AcDbEntity
  8
1
100
AcDbCircle
 10
1922.886979976963
 20
978.1474527010358
 30
0.0
 40
0.75
100
AcDbArc
 50
195.6902263194814
 51
286.2820475036193
  0
ARC
  5
4D93
330
19
100
AcDbEntity
  8
1
100
AcDbCircle
 10
1922.886979976963
 20
978.1474527010358
 30
0.0
 40
0.75
100
AcDbArc
 50
106.282047503605
 51
195.6902263194689
  0
ARC
  5
4D94
330
19
100
AcDbEntity
  8
1
100
AcDbCircle
 10
1932.493002916395
 20
976.455101267186
 30
0.0
 40
7.309990758973864
100
AcDbArc
 50
48.79820042545591
 51
137.5836052462351
  0
ARC
  5
4D95
330
19
100
AcDbEntity
  8
1
100
AcDbCircle
 10
1932.493002916395
 20
976.455101267186
 30
0.0
 40
5.809990758973864
100
AcDbArc
 50
44.2551969244998
 51
138.4108768096588
  0
LINE
  5
4D96
330
19
100
AcDbEntity
  8
1
100
AcDbLine
 10
1925.785536528593
 20
978.4612746151704
 30
0.0
 11
1927.529754601747
 21
979.7473943463151
 31
0.0
  0
ARC
  5
4D97
330
19
100
AcDbEntity
  8
1
100
AcDbCircle
 10
1924.143262403312
 20
984.2919543031156
 30
0.0
 40
4.0
100
AcDbArc
 50
306.4036445028801
 51
317.5836052462351
  0
ARC
  5
4D98
330
19
100
AcDbEntity
  8
1
100
AcDbCircle
 10
1925.155874267544
 20
982.9668185431071
 30
0.0
 40
4.0
100
AcDbArc
 50
306.4036445028801
 51
318.4108768096588
  0
ARC
  5
4D99
330
19
100
AcDbEntity
  8
1
100
AcDbCircle
 10
1937.370581493767
 20
981.2074902831268
 30
0.0
 40
1.0
100
AcDbArc
 50
224.2551969244997
 51
270.0
  0
LINE
  5
4D9A
330
19
100
AcDbEntity
  8
1
  6
Continuous
 62
     0
100
AcDbLine
 10
1952.505164247212
 20
984.2028784928627
 30
0.0
 11
1952.505164247212
 21
985.9745284928628
 31
0.0
  0
LINE
  5
4D9B
330
19
100
AcDbEntity
  8
1
100
AcDbLine
 10
1937.966902623883
 20
984.2028784928626
 30
0.0
 11
1952.776629396393
 21
984.2028784928627
 31
0.0
  0
LINE
  5
4D9C
330
19
100
AcDbEntity
  8
1
100
AcDbLine
 10
1937.966902623883
 20
982.2028784928624
 30
0.0
 11
1955.457914247212
 21
982.2028784928624
 31
0.0
  0
LINE
  5
4D9D
330
19
100
AcDbEntity
  8
1
100
AcDbLine
 10
1937.966902623883
 20
981.7074902831269
 30
0.0
 11
1955.272017606129
 21
981.7074902831269
 31
0.0
  0
LINE
  5
4D9E
330
19
100
AcDbEntity
  8
1
100
AcDbLine
 10
1937.966902623883
 20
984.2028784928626
 30
0.0
 11
1937.966902623883
 21
982.2028784928624
 31
0.0
  0
LINE
  5
4D9F
330
19
100
AcDbEntity
  8
1
  6
DASHED
 62
     0
100
AcDbLine
 10
1960.389006747212
 20
965.1762859928629
 30
0.0
 11
1960.389006747212
 21
982.4312284928629
 31
0.0
  0
LINE
  5
4DA0
330
19
100
AcDbEntity
  8
1
  6
Continuous
 62
     0
100
AcDbLine
 10
1961.363414247212
 20
965.1762859928629
 30
0.0
 11
1961.363414247212
 21
984.2028784928627
 31
0.0
  0
LINE
  5
4DA1
330
19
100
AcDbEntity
  8
1
  6
DASHED
 62
     0
100
AcDbLine
 10
1956.432321747212
 20
965.1762859928629
 30
0.0
 11
1956.432321747212
 21
982.4312284928629
 31
0.0
  0
LINE
  5
4DA2
330
19
100
AcDbEntity
  8
1
  6
Continuous
 62
     0
100
AcDbLine
 10
1955.457914247212
 20
965.1762859928629
 30
0.0
 11
1955.457914247212
 21
984.2028784928627
 31
0.0
  0
LINE
  5
4DA3
330
19
100
AcDbEntity
  8
1
  6
Continuous
 62
     0
100
AcDbLine
 10
1955.457914247212
 20
965.1762859928629
 30
0.0
 11
1961.363414247212
 21
965.1762859928629
 31
0.0
  0
LINE
  5
4DA4
330
19
100
AcDbEntity
  8
1
  6
Continuous
 62
     0
100
AcDbLine
 10
1956.432321747212
 20
964.2018784928627
 30
0.0
 11
1960.389006747212
 21
964.2018784928627
 31
0.0
  0
LINE
  5
4DA5
330
19
100
AcDbEntity
  8
1
  6
Continuous
 62
     0
100
AcDbLine
 10
1956.432321747212
 20
964.2018784928627
 30
0.0
 11
1955.457914247212
 21
965.1762859928629
 31
0.0
  0
LINE
  5
4DA6
330
19
100
AcDbEntity
  8
1
  6
Continuous
 62
     0
100
AcDbLine
 10
1960.389006747212
 20
964.2018784928627
 30
0.0
 11
1961.363414247212
 21
965.1762859928629
 31
0.0
  0
LINE
  5
4DA7
330
19
100
AcDbEntity
  8
1
  6
Continuous
 62
     0
100
AcDbLine
 10
1955.457914247212
 20
982.4312284928629
 30
0.0
 11
1961.363414247212
 21
982.4312284928629
 31
0.0
  0
LINE
  5
4DA8
330
19
100
AcDbEntity
  8
1
100
AcDbLine
 10
1961.410664247212
 20
979.0850533934898
 30
0.0
 11
1955.410664247212
 21
979.0850533934898
 31
0.0
  0
LINE
  5
4DA9
330
19
100
AcDbEntity
  8
1
100
AcDbLine
 10
1955.272017606129
 20
981.7074902831269
 30
0.0
 11
1955.272017606129
 21
980.2074902831268
 31
0.0
  0
LINE
  5
4DAA
330
19
100
AcDbEntity
  8
1
100
AcDbLine
 10
1954.410664247212
 20
980.08505339349
 30
0.0
 11
1955.410664247212
 21
979.0850533934898
 31
0.0
  0
INSERT
  5
4DAB
330
19
100
AcDbEntity
  8
1
100
AcDbBlockReference
  2
*X15
 10
2627.165890307361
 20
541.7331038839825
 30
0.0
  0
LINE
  5
4DAC
330
19
100
AcDbEntity
  8
1
100
AcDbLine
 10
1958.410664247212
 20
979.0850533934898
 30
0.0
 11
1958.410664247212
 21
984.2028784928627
 31
0.0
  0
LINE
  5
4DAD
330
19
100
AcDbEntity
  8
1
100
AcDbLine
 10
1961.530437304011
 20
981.7136354946747
 30
0.0
 11
1961.530437304012
 21
980.2136354946746
 31
0.0
  0
LINE
  5
4DAE
330
19
100
AcDbEntity
  8
1
100
AcDbLine
 10
1962.410664247212
 20
980.08505339349
 30
0.0
 11
1961.410664247212
 21
979.0850533934898
 31
0.0
  0
ARC
  5
4DAF
330
19
100
AcDbEntity
  8
1
  6
Continuous
 62
     0
100
AcDbCircle
 10
1958.410664247212
 20
977.0178534928627
 30
0.0
 40
10.728325
100
AcDbArc
 50
92.90282611359717
 51
123.3984884679842
  0
LINE
  5
4DB0
330
19
100
AcDbEntity
  8
1
  6
DASHED
 62
     0
100
AcDbLine
 10
1958.953970247212
 20
986.2643444030721
 30
0.0
 11
1957.867358247212
 21
986.2643444030721
 31
0.0
  0
LINE
  5
4DB1
330
19
100
AcDbEntity
  8
1
  6
DASHED
 62
     0
100
AcDbLine
 10
1958.953970247212
 20
986.2643444030721
 30
0.0
 11
1958.953970247212
 21
987.3016870687411
 31
0.0
  0
LINE
  5
4DB2
330
19
100
AcDbEntity
  8
1
  6
DASHED
 62
     0
100
AcDbLine
 10
1957.867358247212
 20
986.2643444030721
 30
0.0
 11
1957.867358247212
 21
987.3016870687411
 31
0.0
  0
LINE
  5
4DB3
330
19
100
AcDbEntity
  8
1
  6
Continuous
 62
     0
100
AcDbLine
 10
1957.867358247212
 20
987.7324125549982
 30
0.0
 11
1957.867358247212
 21
987.2879211308765
 31
0.0
  0
LINE
  5
4DB4
330
19
100
AcDbEntity
  8
1
  6
Continuous
 62
     0
100
AcDbLine
 10
1958.953970247212
 20
987.7324125549982
 30
0.0
 11
1958.953970247212
 21
987.2879211308765
 31
0.0
  0
LINE
  5
4DB5
330
19
100
AcDbEntity
  8
1
100
AcDbLine
 10
1963.410664247212
 20
980.08505339349
 30
0.0
 11
1963.410664247212
 21
956.5050533934897
 31
0.0
  0
LINE
  5
4DB6
330
19
100
AcDbEntity
  8
1
100
AcDbLine
 10
1963.410664247212
 20
956.5050533934897
 30
0.0
 11
1962.990664247212
 21
956.08505339349
 31
0.0
  0
LINE
  5
4DB7
330
19
100
AcDbEntity
  8
1
  6
Continuous
 62
     0
100
AcDbLine
 10
1964.316164247212
 20
984.2028784928627
 30
0.0
 11
1964.316164247212
 21
985.9745284928628
 31
0.0
  0
LINE
  5
4DB8
330
19
100
AcDbEntity
  8
1
100
AcDbLine
 10
1963.767405815866
 20
984.2028784928627
 30
0.0
 11
1973.254104858008
 21
984.2028784928626
 31
0.0
  0
INSERT
  5
4DB9
330
19
100
AcDbEntity
  8
1
100
AcDbBlockReference
  2
*X15
 10
1289.608156775394
 20
541.7331038839825
 30
0.0
 41
-1.0
  0
LINE
  5
4DBA
330
19
100
AcDbEntity
  8
1
100
AcDbLine
 10
1973.254104858008
 20
984.2028784928626
 30
0.0
 11
1973.254104858008
 21
982.2028784928624
 31
0.0
  0
INSERT
  5
4DBB
330
19
100
AcDbEntity
  8
1
100
AcDbBlockReference
  2
*X14
 10
2627.559159724276
 20
541.6451978666314
 30
0.0
  0
LINE
  5
4E10
330
19
100
AcDbEntity
  8
1
100
AcDbLine
 10
2366.463427756799
 20
1107.87385217097
 30
0.0
 11
2420.463427756799
 21
1107.87385217097
 31
0.0
  0
CIRCLE
  5
4E11
330
19
100
AcDbEntity
  8
1
100
AcDbCircle
 10
2393.463427756799
 20
985.8738521709703
 30
0.0
 40
134.0
  0
ARC
  5
4E12
330
19
100
AcDbEntity
  8
1
100
AcDbCircle
 10
2393.463427756799
 20
985.8738521709703
 30
0.0
 40
121.0
100
AcDbArc
 50
102.8935566878205
 51
347.1064433121857
  0
LINE
  5
4E13
330
19
100
AcDbEntity
  8
1
  6
HIDDEN
100
AcDbLine
 10
2339.015576447799
 20
1074.778710290181
 30
0.0
 11
2343.34322422393
 21
1077.715917615767
 31
0.0
  0
CIRCLE
  5
4E14
330
19
100
AcDbEntity
  8
1
  6
HIDDEN
100
AcDbCircle
 10
2341.213427756799
 20
1076.373506866444
 30
0.0
 40
4.0
  0
LINE
  5
4E15
330
19
100
AcDbEntity
  8
1
100
AcDbLine
 10
2370.963427756799
 20
1092.207185504303
 30
0.0
 11
2369.463427756799
 21
1086.984963282081
 31
0.0
  0
LINE
  5
4E16
330
19
100
AcDbEntity
  8
1
100
AcDbLine
 10
2366.463427756799
 20
1071.386077811149
 30
0.0
 11
2366.463427756799
 21
1107.87385217097
 31
0.0
  0
LINE
  5
4E17
330
19
100
AcDbEntity
  8
1
100
AcDbLine
 10
2369.463427756799
 20
1071.386077811149
 30
0.0
 11
2369.463427756799
 21
1107.87385217097
 31
0.0
  0
LINE
  5
4E18
330
19
100
AcDbEntity
  8
1
100
AcDbLine
 10
2370.963427756799
 20
1076.540518837637
 30
0.0
 11
2369.463427756799
 21
1071.318296615415
 31
0.0
  0
LINE
  5
4E19
330
19
100
AcDbEntity
  8
1
100
AcDbLine
 10
2369.463427756799
 20
1086.984963282081
 30
0.0
 11
2370.963427756799
 21
1086.984963282081
 31
0.0
  0
LINE
  5
4E1A
330
19
100
AcDbEntity
  8
1
100
AcDbLine
 10
2370.963427756799
 20
1081.762741059859
 30
0.0
 11
2369.463427756799
 21
1076.540518837637
 31
0.0
  0
LINE
  5
4E1B
330
19
100
AcDbEntity
  8
1
100
AcDbLine
 10
2369.463427756799
 20
1076.540518837637
 30
0.0
 11
2370.963427756799
 21
1076.540518837637
 31
0.0
  0
LINE
  5
4E1C
330
19
100
AcDbEntity
  8
1
100
AcDbLine
 10
2369.463427756799
 20
1081.762741059859
 30
0.0
 11
2370.963427756799
 21
1081.762741059859
 31
0.0
  0
LINE
  5
4E1D
330
19
100
AcDbEntity
  8
1
100
AcDbLine
 10
2370.963427756799
 20
1086.984963282081
 30
0.0
 11
2369.463427756799
 21
1081.762741059859
 31
0.0
  0
LINE
  5
4E1E
330
19
100
AcDbEntity
  8
1
100
AcDbLine
 10
2370.963427756799
 20
1102.651629948748
 30
0.0
 11
2369.463427756799
 21
1097.429407726525
 31
0.0
  0
LINE
  5
4E1F
330
19
100
AcDbEntity
  8
1
100
AcDbLine
 10
2370.963427756799
 20
1097.429407726525
 30
0.0
 11
2369.463427756799
 21
1092.207185504303
 31
0.0
  0
LINE
  5
4E20
330
19
100
AcDbEntity
  8
1
100
AcDbLine
 10
2369.463427756799
 20
1092.207185504303
 30
0.0
 11
2370.963427756799
 21
1092.207185504303
 31
0.0
  0
LINE
  5
4E21
330
19
100
AcDbEntity
  8
1
100
AcDbLine
 10
2369.463427756799
 20
1097.429407726525
 30
0.0
 11
2370.963427756799
 21
1097.429407726525
 31
0.0
  0
LINE
  5
4E22
330
19
100
AcDbEntity
  8
1
100
AcDbLine
 10
2370.963427756799
 20
1107.87385217097
 30
0.0
 11
2369.463427756799
 21
1102.651629948748
 31
0.0
  0
LINE
  5
4E23
330
19
100
AcDbEntity
  8
1
100
AcDbLine
 10
2369.463427756799
 20
1102.651629948748
 30
0.0
 11
2370.963427756799
 21
1102.651629948748
 31
0.0
  0
ARC
  5
4E24
330
19
100
AcDbEntity
  8
1
100
AcDbCircle
 10
2393.463427756799
 20
985.8738521709703
 30
0.0
 40
121.0
100
AcDbArc
 50
12.89355668781424
 51
77.10644331217941
  0
LINE
  5
4E25
330
19
100
AcDbEntity
  8
1
100
AcDbLine
 10
2417.463427756799
 20
1086.984963282081
 30
0.0
 11
2415.963427756799
 21
1092.207185504303
 31
0.0
  0
LINE
  5
4E26
330
19
100
AcDbEntity
  8
1
100
AcDbLine
 10
2417.463427756799
 20
1107.87385217097
 30
0.0
 11
2417.463427756799
 21
1071.386077811149
 31
0.0
  0
LINE
  5
4E27
330
19
100
AcDbEntity
  8
1
100
AcDbLine
 10
2420.463427756799
 20
1107.87385217097
 30
0.0
 11
2420.463427756799
 21
1071.386077811149
 31
0.0
  0
LINE
  5
4E28
330
19
100
AcDbEntity
  8
1
100
AcDbLine
 10
2417.463427756799
 20
1071.318296615415
 30
0.0
 11
2415.963427756799
 21
1076.540518837637
 31
0.0
  0
LINE
  5
4E29
330
19
100
AcDbEntity
  8
1
100
AcDbLine
 10
2415.963427756799
 20
1086.984963282081
 30
0.0
 11
2417.463427756799
 21
1086.984963282081
 31
0.0
  0
LINE
  5
4E2A
330
19
100
AcDbEntity
  8
1
100
AcDbLine
 10
2417.463427756799
 20
1076.540518837637
 30
0.0
 11
2415.963427756799
 21
1081.762741059859
 31
0.0
  0
LINE
  5
4E2B
330
19
100
AcDbEntity
  8
1
100
AcDbLine
 10
2415.963427756799
 20
1076.540518837637
 30
0.0
 11
2417.463427756799
 21
1076.540518837637
 31
0.0
  0
LINE
  5
4E2C
330
19
100
AcDbEntity
  8
1
100
AcDbLine
 10
2415.963427756799
 20
1081.762741059859
 30
0.0
 11
2417.463427756799
 21
1081.762741059859
 31
0.0
  0
LINE
  5
4E2D
330
19
100
AcDbEntity
  8
1
100
AcDbLine
 10
2417.463427756799
 20
1081.762741059859
 30
0.0
 11
2415.963427756799
 21
1086.984963282081
 31
0.0
  0
LINE
  5
4E2E
330
19
100
AcDbEntity
  8
1
100
AcDbLine
 10
2417.463427756799
 20
1097.429407726525
 30
0.0
 11
2415.963427756799
 21
1102.651629948748
 31
0.0
  0
LINE
  5
4E2F
330
19
100
AcDbEntity
  8
1
100
AcDbLine
 10
2417.463427756799
 20
1092.207185504303
 30
0.0
 11
2415.963427756799
 21
1097.429407726525
 31
0.0
  0
LINE
  5
4E30
330
19
100
AcDbEntity
  8
1
100
AcDbLine
 10
2415.963427756799
 20
1092.207185504303
 30
0.0
 11
2417.463427756799
 21
1092.207185504303
 31
0.0
  0
LINE
  5
4E31
330
19
100
AcDbEntity
  8
1
100
AcDbLine
 10
2415.963427756799
 20
1097.429407726525
 30
0.0
 11
2417.463427756799
 21
1097.429407726525
 31
0.0
  0
LINE
  5
4E32
330
19
100
AcDbEntity
  8
1
100
AcDbLine
 10
2417.463427756799
 20
1102.651629948748
 30
0.0
 11
2415.963427756799
 21
1107.87385217097
 31
0.0
  0
LINE
  5
4E33
330
19
100
AcDbEntity
  8
1
100
AcDbLine
 10
2415.963427756799
 20
1102.651629948748
 30
0.0
 11
2417.463427756799
 21
1102.651629948748
 31
0.0
  0
LINE
  5
4E34
330
19
100
AcDbEntity
  8
1
  6
HIDDEN
100
AcDbLine
 10
2443.233367753387
 20
1077.479503645647
 30
0.0
 11
2447.940887801592
 21
1075.20025439568
 31
0.0
  0
CIRCLE
  5
4E35
330
19
100
AcDbEntity
  8
1
  6
HIDDEN
100
AcDbCircle
 10
2445.7134277568
 20
1076.373506866444
 30
0.0
 40
4.0
  0
CIRCLE
  5
4E36
330
19
100
AcDbEntity
  8
1
  6
HIDDEN
100
AcDbCircle
 10
2288.963427756799
 20
985.8738521709707
 30
0.0
 40
4.0
  0
LINE
  5
4E37
330
19
100
AcDbEntity
  8
1
  6
HIDDEN
100
AcDbLine
 10
2289.245636451211
 20
983.1730588155041
 30
0.0
 11
2288.865764179137
 21
988.3895153910581
 31
0.0
  0
CIRCLE
  5
4E38
330
19
100
AcDbEntity
  8
1
  6
HIDDEN
100
AcDbCircle
 10
2341.213427756799
 20
895.3741974754967
 30
0.0
 40
4.0
  0
LINE
  5
4E39
330
19
100
AcDbEntity
  8
1
  6
HIDDEN
100
AcDbLine
 10
2343.693487760211
 20
894.2682006962934
 30
0.0
 11
2338.985967712007
 21
896.5474499462608
 31
0.0
  0
LINE
  5
4E3A
330
19
100
AcDbEntity
  8
1
  6
HIDDEN
100
AcDbLine
 10
2447.911279065799
 20
896.9689940517596
 30
0.0
 11
2443.583631289668
 21
894.0317867261732
 31
0.0
  0
CIRCLE
  5
4E3B
330
19
100
AcDbEntity
  8
1
  6
HIDDEN
100
AcDbCircle
 10
2445.713427756799
 20
895.3741974754967
 30
0.0
 40
4.0
  0
LINE
  5
4E3C
330
19
100
AcDbEntity
  8
1
100
AcDbLine
 10
2510.241205534577
 20
1008.37385217097
 30
0.0
 11
2505.018983312355
 21
1009.87385217097
 31
0.0
  0
LINE
  5
4E3D
330
19
100
AcDbEntity
  8
1
100
AcDbLine
 10
2478.975653396978
 20
1012.87385217097
 30
0.0
 11
2515.463427756799
 21
1012.87385217097
 31
0.0
  0
LINE
  5
4E3E
330
19
100
AcDbEntity
  8
1
100
AcDbLine
 10
2478.975653396978
 20
1009.87385217097
 30
0.0
 11
2515.463427756799
 21
1009.87385217097
 31
0.0
  0
LINE
  5
4E3F
330
19
100
AcDbEntity
  8
1
100
AcDbLine
 10
2505.018983312355
 20
961.8738521709707
 30
0.0
 11
2510.241205534577
 21
963.3738521709705
 31
0.0
  0
LINE
  5
4E40
330
19
100
AcDbEntity
  8
1
100
AcDbLine
 10
2515.463427756799
 20
958.8738521709705
 30
0.0
 11
2478.975653396978
 21
958.8738521709705
 31
0.0
  0
LINE
  5
4E41
330
19
100
AcDbEntity
  8
1
100
AcDbLine
 10
2515.463427756799
 20
961.8738521709707
 30
0.0
 11
2478.975653396978
 21
961.8738521709707
 31
0.0
  0
LINE
  5
4E42
330
19
100
AcDbEntity
  8
1
100
AcDbLine
 10
2494.57453886791
 20
961.8738521709707
 30
0.0
 11
2499.796761090133
 21
963.3738521709705
 31
0.0
  0
LINE
  5
4E43
330
19
100
AcDbEntity
  8
1
100
AcDbLine
 10
2489.352316645688
 20
961.8738521709707
 30
0.0
 11
2494.57453886791
 21
963.3738521709705
 31
0.0
  0
LINE
  5
4E44
330
19
100
AcDbEntity
  8
1
100
AcDbLine
 10
2494.57453886791
 20
963.3738521709705
 30
0.0
 11
2494.57453886791
 21
961.8738521709707
 31
0.0
  0
LINE
  5
4E45
330
19
100
AcDbEntity
  8
1
100
AcDbLine
 10
2499.796761090133
 20
961.8738521709707
 30
0.0
 11
2505.018983312355
 21
963.3738521709705
 31
0.0
  0
LINE
  5
4E46
330
19
100
AcDbEntity
  8
1
100
AcDbLine
 10
2499.796761090133
 20
963.3738521709705
 30
0.0
 11
2499.796761090133
 21
961.8738521709707
 31
0.0
  0
LINE
  5
4E47
330
19
100
AcDbEntity
  8
1
100
AcDbLine
 10
2505.018983312355
 20
963.3738521709705
 30
0.0
 11
2505.018983312355
 21
961.8738521709707
 31
0.0
  0
LINE
  5
4E48
330
19
100
AcDbEntity
  8
1
100
AcDbLine
 10
2499.796761090133
 20
1008.37385217097
 30
0.0
 11
2494.57453886791
 21
1009.87385217097
 31
0.0
  0
LINE
  5
4E49
330
19
100
AcDbEntity
  8
1
100
AcDbLine
 10
2494.57453886791
 20
1008.37385217097
 30
0.0
 11
2489.352316645688
 21
1009.87385217097
 31
0.0
  0
LINE
  5
4E4A
330
19
100
AcDbEntity
  8
1
100
AcDbLine
 10
2494.57453886791
 20
1009.87385217097
 30
0.0
 11
2494.57453886791
 21
1008.37385217097
 31
0.0
  0
LINE
  5
4E4B
330
19
100
AcDbEntity
  8
1
100
AcDbLine
 10
2505.018983312355
 20
1008.37385217097
 30
0.0
 11
2499.796761090133
 21
1009.87385217097
 31
0.0
  0
LINE
  5
4E4C
330
19
100
AcDbEntity
  8
1
100
AcDbLine
 10
2499.796761090133
 20
1009.87385217097
 30
0.0
 11
2499.796761090133
 21
1008.37385217097
 31
0.0
  0
LINE
  5
4E4D
330
19
100
AcDbEntity
  8
1
100
AcDbLine
 10
2505.018983312355
 20
1009.87385217097
 30
0.0
 11
2505.018983312355
 21
1008.37385217097
 31
0.0
  0
LINE
  5
4E4E
330
19
100
AcDbEntity
  8
1
100
AcDbLine
 10
2515.463427756799
 20
1010.87385217097
 30
0.0
 11
2515.463427756799
 21
960.8738521709707
 31
0.0
  0
LINE
  5
4E4F
330
19
100
AcDbEntity
  8
1
100
AcDbLine
 10
2515.463427756799
 20
1012.87385217097
 30
0.0
 11
2515.463427756799
 21
958.8738521709705
 31
0.0
  0
LINE
  5
4E50
330
19
100
AcDbEntity
  8
1
100
AcDbLine
 10
2515.463427756799
 20
960.8738521709707
 30
0.0
 11
2515.463427756799
 21
958.8738521709705
 31
0.0
  0
LINE
  5
4E51
330
19
100
AcDbEntity
  8
1
100
AcDbLine
 10
2510.241205534577
 20
963.3738521709705
 30
0.0
 11
2510.241205534577
 21
961.8738521709707
 31
0.0
  0
LINE
  5
4E52
330
19
100
AcDbEntity
  8
1
100
AcDbLine
 10
2510.241205534577
 20
961.8738521709707
 30
0.0
 11
2515.463427756799
 21
963.3738521709705
 31
0.0
  0
LINE
  5
4E53
330
19
100
AcDbEntity
  8
1
100
AcDbLine
 10
2515.463427756799
 20
1008.37385217097
 30
0.0
 11
2510.241205534577
 21
1009.87385217097
 31
0.0
  0
LINE
  5
4E54
330
19
100
AcDbEntity
  8
1
100
AcDbLine
 10
2510.241205534577
 20
1009.87385217097
 30
0.0
 11
2510.241205534577
 21
1008.37385217097
 31
0.0
  0
VIEWPORT
  5
3E4E
330
3E47
100
AcDbEntity
 67
     1
  8
0
100
AcDbViewport
 10
5.678333072211797
 20
3.966666563289372
 30
0.0
 40
18.02443831169918
 41
8.746133096049151
 68
     1
 69
     1
 12
5.678333072211797
 22
3.966666563289372
 13
0.0
 23
0.0
 14
10.0
 24
10.0
 15
10.0
 25
10.0
 16
0.0
 26
0.0
 36
1.0
 17
0.0
 27
0.0
 37
0.0
 42
50.0
 43
0.0
 44
0.0
 45
8.746133096049151
 50
0.0
 51
0.0
 72
 20000
 90
    32800
  1

281
     0
 71
     1
 74
     0
110
0.0
120
0.0
130
0.0
111
1.0
121
0.0
131
0.0
112
0.0
122
1.0
132
0.0
 79
     0
146
0.0
  0
ENDSEC
  0
SECTION
  2
OBJECTS
  0
DICTIONARY
  5
C
330
0
100
AcDbDictionary
281
     1
  3
ACAD_GROUP
350
D
  3
ACAD_LAYOUT
350
37B7
  3
ACAD_MLINESTYLE
350
E
  3
ACAD_PLOTSETTINGS
350
37B8
  3
ACAD_PLOTSTYLENAME
350
37B5
  3
ACDBVARIABLEDICTIONARY
350
C69
  0
DICTIONARY
  5
391B
330
19
100
AcDbDictionary
280
     1
281
     1
  3
ACAD_LAYOUTSELFREF
360
3E35
  0
DICTIONARY
  5
D
102
{ACAD_REACTORS
330
C
102
}
330
C
100
AcDbDictionary
281
     1
  0
DICTIONARY
  5
37B7
102
{ACAD_REACTORS
330
C
102
}
330
C
100
AcDbDictionary
281
     1
  3
Layout1
350
3E48
  3
Model
350
37B9
  0
DICTIONARY
  5
E
102
{ACAD_REACTORS
330
C
102
}
330
C
100
AcDbDictionary
281
     1
  3
STANDARD
350
12
  0
DICTIONARY
  5
37B8
102
{ACAD_REACTORS
330
C
102
}
330
C
100
AcDbDictionary
281
     1
  0
ACDBDICTIONARYWDFLT
  5
37B5
102
{ACAD_REACTORS
330
C
102
}
330
C
100
AcDbDictionary
281
     1
  3
Normal
350
37B6
100
AcDbDictionaryWithDefault
340
37B6
  0
DICTIONARY
  5
C69
102
{ACAD_REACTORS
330
C
102
}
330
C
100
AcDbDictionary
281
     1
  3
DIMASSOC
350
3E51
  3
SORTENTS
350
C6A
  0
XRECORD
  5
3E35
102
{ACAD_REACTORS
330
391B
102
}
330
391B
100
AcDbXrecord
280
     1
340
19
  0
LAYOUT
  5
3E48
102
{ACAD_REACTORS
330
37B7
102
}
330
37B7
100
AcDbPlotSettings
  1

  2
HP LaserJet 1200
  4
A4
  6

 40
4.233333110809326
 41
4.233341693878173
 42
7.789321899414062
 43
4.23333740234375
 44
209.9733276367187
 45
296.9259948730469
 46
0.0
 47
0.0
 48
0.0
 49
0.0
140
0.0
141
0.0
142
1.0
143
1.0
 70
   688
 72
     0
 73
     1
 74
     5
  7

 75
    16
147
1.0
148
0.0
149
0.0
100
AcDbLayout
  1
Layout1
 70
     1
 71
     1
 10
-0.1666668268639272
 20
-0.166666657905879
 11
11.52333297128752
 21
8.099999784484623
 12
0.0
 22
0.0
 32
0.0
 14
1.000000000000000E+20
 24
1.000000000000000E+20
 34
1.000000000000000E+20
 15
-1.000000000000000E+20
 25
-1.000000000000000E+20
 35
-1.000000000000000E+20
146
0.0
 13
0.0
 23
0.0
 33
0.0
 16
1.0
 26
0.0
 36
0.0
 17
0.0
 27
1.0
 37
0.0
 76
     0
330
3E47
331
3E4E
  0
LAYOUT
  5
37B9
102
{ACAD_REACTORS
330
37B7
102
}
330
37B7
100
AcDbPlotSettings
  1

  2
none_device
  4
Letter_(8.50_x_11.00_Inches)
  6

 40
6.349999904632568
 41
6.349999904632568
 42
6.350006103515625
 43
6.350006103515625
 44
215.8999938964843
 45
279.3999938964843
 46
0.0
 47
0.0
 48
0.0
 49
0.0
140
0.0
141
0.0
142
1.0
143
1.0
 70
 11952
 72
     0
 73
     1
 74
     0
  7

 75
     0
147
1.0
148
22009.97398741658
149
-18121.52369272842
100
AcDbLayout
  1
Model
 70
     1
 71
     0
 10
0.0
 20
0.0
 11
12.0
 21
9.0
 12
0.0
 22
0.0
 32
0.0
 14
0.0
 24
0.0
 34
0.0
 15
0.0
 25
0.0
 35
0.0
146
0.0
 13
0.0
 23
0.0
 33
0.0
 16
1.0
 26
0.0
 36
0.0
 17
0.0
 27
1.0
 37
0.0
 76
     0
330
19
  0
MLINESTYLE
  5
12
102
{ACAD_REACTORS
330
E
102
}
330
E
100
AcDbMlineStyle
  2
STANDARD
 70
     0
  3

 62
     0
 51
90.0
 52
90.0
 71
     2
 49
0.5
 62
   256
  6
BYLAYER
 49
-0.5
 62
   256
  6
BYLAYER
  0
ACDBPLACEHOLDER
  5
37B6
102
{ACAD_REACTORS
330
37B5
102
}
330
37B5
  0
DICTIONARYVAR
  5
3E51
102
{ACAD_REACTORS
330
C69
102
}
330
C69
100
DictionaryVariables
280
     0
  1
1
  0
DICTIONARYVAR
  5
C6A
102
{ACAD_REACTORS
330
C69
102
}
330
C69
100
DictionaryVariables
280
     0
  1
96
  0
ENDSEC
  0
EOF
