  0
SECTION
  2
HEADER
  9
$ACADVER
  1
AC1015
  9
$ACADMAINTVER
 70
    13
  9
$DWGCODEPAGE
  3
ANSI_1252
  9
$INSBASE
 10
0.0
 20
0.0
 30
0.0
  9
$EXTMIN
 10
-897.7347377223852
 20
639.6639329597238
 30
-0.0000000523218922
  9
$EXTMAX
 10
-195.4982947802727
 20
1033.360068375355
 30
0.000000031730874
  9
$LIMMIN
 10
-702.5638614136987
 20
157.8715568061255
  9
$LIMMAX
 10
-313.6316672333484
 20
442.5869997172253
  9
$ORTHOMODE
 70
     0
  9
$REGENMODE
 70
     1
  9
$FILLMODE
 70
     1
  9
$QTEXTMODE
 70
     0
  9
$MIRRTEXT
 70
     1
  9
$LTSCALE
 40
30.0
  9
$ATTMODE
 70
     1
  9
$TEXTSIZE
 40
4.009999999999998
  9
$TRACEWID
 40
0.05
  9
$TEXTSTYLE
  7
ROMANC
  9
$CLAYER
  8
1
  9
$CELTYPE
  6
BYLAYER
  9
$CECOLOR
 62
   256
  9
$CELTSCALE
 40
1.0
  9
$DISPSILH
 70
     0
  9
$DIMSCALE
 40
45.0
  9
$DIMASZ
 40
0.23
  9
$DIMEXO
 40
0.12
  9
$DIMDLI
 40
0.38
  9
$DIMRND
 40
0.0
  9
$DIMDLE
 40
0.0
  9
$DIMEXE
 40
0.18
  9
$DIMTP
 40
0.0
  9
$DIMTM
 40
0.0
  9
$DIMTXT
 40
0.23
  9
$DIMCEN
 40
0.0
  9
$DIMTSZ
 40
0.0
  9
$DIMTOL
 70
     0
  9
$DIMLIM
 70
     0
  9
$DIMTIH
 70
     1
  9
$DIMTOH
 70
     1
  9
$DIMSE1
 70
     0
  9
$DIMSE2
 70
     0
  9
$DIMTAD
 70
     1
  9
$DIMZIN
 70
     0
  9
$DIMBLK
  1

  9
$DIMASO
 70
     1
  9
$DIMSHO
 70
     0
  9
$DIMPOST
  1

  9
$DIMAPOST
  1
mm
  9
$DIMALT
 70
     0
  9
$DIMALTD
 70
     0
  9
$DIMALTF
 40
25.4
  9
$DIMLFAC
 40
1.0
  9
$DIMTOFL
 70
     0
  9
$DIMTVP
 40
0.0
  9
$DIMTIX
 70
     0
  9
$DIMSOXD
 70
     0
  9
$DIMSAH
 70
     0
  9
$DIMBLK1
  1

  9
$DIMBLK2
  1

  9
$DIMSTYLE
  2
STANDARD
  9
$DIMCLRD
 70
     0
  9
$DIMCLRE
 70
     0
  9
$DIMCLRT
 70
     0
  9
$DIMTFAC
 40
1.0
  9
$DIMGAP
 40
0.09
  9
$DIMJUST
 70
     0
  9
$DIMSD1
 70
     0
  9
$DIMSD2
 70
     0
  9
$DIMTOLJ
 70
     1
  9
$DIMTZIN
 70
     0
  9
$DIMALTZ
 70
     0
  9
$DIMALTTZ
 70
     0
  9
$DIMUPT
 70
     0
  9
$DIMDEC
 70
     0
  9
$DIMTDEC
 70
     0
  9
$DIMALTU
 70
     2
  9
$DIMALTTD
 70
     0
  9
$DIMTXSTY
  7
STANDARD
  9
$DIMAUNIT
 70
     0
  9
$DIMADEC
 70
     0
  9
$DIMALTRND
 40
0.0
  9
$DIMAZIN
 70
     0
  9
$DIMDSEP
 70
    46
  9
$DIMATFIT
 70
     3
  9
$DIMFRAC
 70
     0
  9
$DIMLDRBLK
  1

  9
$DIMLUNIT
 70
     2
  9
$DIMLWD
 70
    -2
  9
$DIMLWE
 70
    -2
  9
$DIMTMOVE
 70
     0
  9
$LUNITS
 70
     2
  9
$LUPREC
 70
     2
  9
$SKETCHINC
 40
0.0
  9
$FILLETRAD
 40
1.0
  9
$AUNITS
 70
     0
  9
$AUPREC
 70
     2
  9
$MENU
  1
acad
  9
$ELEVATION
 40
0.0
  9
$PELEVATION
 40
0.0
  9
$THICKNESS
 40
0.0
  9
$LIMCHECK
 70
     0
  9
$CHAMFERA
 40
0.0
  9
$CHAMFERB
 40
0.0
  9
$CHAMFERC
 40
0.0
  9
$CHAMFERD
 40
0.0
  9
$SKPOLY
 70
     0
  9
$TDCREATE
 40
2450224.417987847
  9
$TDUCREATE
 40
2450224.376321180
  9
$TDUPDATE
 40
2452409.386036574
  9
$TDUUPDATE
 40
2452409.344369907
  9
$TDINDWG
 40
0.6919165509
  9
$TDUSRTIMER
 40
0.6919165509
  9
$USRTIMER
 70
     1
  9
$ANGBASE
 50
0.0
  9
$ANGDIR
 70
     0
  9
$PDMODE
 70
    34
  9
$PDSIZE
 40
0.0
  9
$PLINEWID
 40
0.0
  9
$SPLFRAME
 70
     0
  9
$SPLINETYPE
 70
     6
  9
$SPLINESEGS
 70
     8
  9
$HANDSEED
  5
49FD
  9
$SURFTAB1
 70
     6
  9
$SURFTAB2
 70
     6
  9
$SURFTYPE
 70
     6
  9
$SURFU
 70
     6
  9
$SURFV
 70
     6
  9
$UCSBASE
  2

  9
$UCSNAME
  2

  9
$UCSORG
 10
-881.3725378634428
 20
-169.8351068294423
 30
0.0
  9
$UCSXDIR
 10
1.0
 20
0.0
 30
0.0
  9
$UCSYDIR
 10
0.0
 20
1.0
 30
0.0
  9
$UCSORTHOREF
  2

  9
$UCSORTHOVIEW
 70
     0
  9
$UCSORGTOP
 10
0.0
 20
0.0
 30
0.0
  9
$UCSORGBOTTOM
 10
0.0
 20
0.0
 30
0.0
  9
$UCSORGLEFT
 10
0.0
 20
0.0
 30
0.0
  9
$UCSORGRIGHT
 10
0.0
 20
0.0
 30
0.0
  9
$UCSORGFRONT
 10
0.0
 20
0.0
 30
0.0
  9
$UCSORGBACK
 10
0.0
 20
0.0
 30
0.0
  9
$PUCSBASE
  2

  9
$PUCSNAME
  2

  9
$PUCSORG
 10
0.0
 20
0.0
 30
0.0
  9
$PUCSXDIR
 10
1.0
 20
0.0
 30
0.0
  9
$PUCSYDIR
 10
0.0
 20
1.0
 30
0.0
  9
$PUCSORTHOREF
  2

  9
$PUCSORTHOVIEW
 70
     0
  9
$PUCSORGTOP
 10
0.0
 20
0.0
 30
0.0
  9
$PUCSORGBOTTOM
 10
0.0
 20
0.0
 30
0.0
  9
$PUCSORGLEFT
 10
0.0
 20
0.0
 30
0.0
  9
$PUCSORGRIGHT
 10
0.0
 20
0.0
 30
0.0
  9
$PUCSORGFRONT
 10
0.0
 20
0.0
 30
0.0
  9
$PUCSORGBACK
 10
0.0
 20
0.0
 30
0.0
  9
$USERI1
 70
     0
  9
$USERI2
 70
     0
  9
$USERI3
 70
     0
  9
$USERI4
 70
     0
  9
$USERI5
 70
     0
  9
$USERR1
 40
0.0
  9
$USERR2
 40
0.0
  9
$USERR3
 40
0.0
  9
$USERR4
 40
0.0
  9
$USERR5
 40
0.0
  9
$WORLDVIEW
 70
     1
  9
$SHADEDGE
 70
     3
  9
$SHADEDIF
 70
    70
  9
$TILEMODE
 70
     1
  9
$MAXACTVP
 70
    16
  9
$PINSBASE
 10
0.0
 20
0.0
 30
0.0
  9
$PLIMCHECK
 70
     0
  9
$PEXTMIN
 10
1.000000000000000E+20
 20
1.000000000000000E+20
 30
1.000000000000000E+20
  9
$PEXTMAX
 10
-1.000000000000000E+20
 20
-1.000000000000000E+20
 30
-1.000000000000000E+20
  9
$PLIMMIN
 10
-0.1666668268639272
 20
-0.166666657905879
  9
$PLIMMAX
 10
11.52333297128752
 20
8.099999784484621
  9
$UNITMODE
 70
     0
  9
$VISRETAIN
 70
     0
  9
$PLINEGEN
 70
     0
  9
$PSLTSCALE
 70
     1
  9
$TREEDEPTH
 70
  3020
  9
$CMLSTYLE
  2
STANDARD
  9
$CMLJUST
 70
     0
  9
$CMLSCALE
 40
1.0
  9
$PROXYGRAPHICS
 70
     1
  9
$MEASUREMENT
 70
     0
  9
$CELWEIGHT
370
    -1
  9
$ENDCAPS
280
     0
  9
$JOINSTYLE
280
     0
  9
$LWDISPLAY
290
     0
  9
$INSUNITS
 70
     0
  9
$HYPERLINKBASE
  1

  9
$STYLESHEET
  1

  9
$XEDIT
290
     1
  9
$CEPSNTYPE
380
     0
  9
$PSTYLEMODE
290
     1
  9
$FINGERPRINTGUID
  2
{6C551284-AFF8-11D5-9ED5-00025574647A}
  9
$VERSIONGUID
  2
{1DEF2C82-671B-11D6-8FCF-0050DA4C4468}
  9
$EXTNAMES
290
     1
  9
$PSVPSCALE
 40
0.0
  9
$OLESTARTUP
290
     0
  0
ENDSEC
  0
SECTION
  2
CLASSES
  0
CLASS
  1
LWPOLYLINE
  2
AcDbPolyline
  3
AutoCAD 2000
 90
    32768
280
     0
281
     1
  0
CLASS
  1
DICTIONARYVAR
  2
AcDbDictionaryVar
  3
AutoCAD 2000
 90
        0
280
     0
281
     0
  0
CLASS
  1
HATCH
  2
AcDbHatch
  3
AutoCAD 2000
 90
    32768
280
     0
281
     1
  0
CLASS
  1
ACDBDICTIONARYWDFLT
  2
AcDbDictionaryWithDefault
  3
AutoCAD 2000
 90
        0
280
     0
281
     0
  0
CLASS
  1
ACDBPLACEHOLDER
  2
AcDbPlaceHolder
  3
AutoCAD 2000
 90
        0
280
     0
281
     0
  0
CLASS
  1
LAYOUT
  2
AcDbLayout
  3
AutoCAD 2000
 90
        0
280
     0
281
     0
  0
CLASS
  1
LONG_TRANSACTION
  2
AcDbLongTransaction
  3
AutoCAD 2000
 90
    32768
280
     0
281
     0
  0
CLASS
  1
LWPOLYLINE
  2
AcDbPolyline
  3
AutoCAD 2000
 90
    32768
280
     0
281
     1
  0
CLASS
  1
HATCH
  2
AcDbHatch
  3
AutoCAD 2000
 90
    32768
280
     0
281
     1
  0
CLASS
  1
XRECORD
  2
AcDbXrecord
  3
AutoCAD 2000
 90
    32768
280
     0
281
     0
  0
CLASS
  1
LONG_TRANSACTION
  2
AcDbLongTransaction
  3
AutoCAD 2000
 90
    32768
280
     0
281
     0
  0
CLASS
  1
LWPOLYLINE
  2
AcDbPolyline
  3
AutoCAD 2000
 90
    32768
280
     0
281
     1
  0
CLASS
  1
HATCH
  2
AcDbHatch
  3
AutoCAD 2000
 90
    32768
280
     0
281
     1
  0
CLASS
  1
XRECORD
  2
AcDbXrecord
  3
AutoCAD 2000
 90
    32768
280
     0
281
     0
  0
CLASS
  1
LONG_TRANSACTION
  2
AcDbLongTransaction
  3
AutoCAD 2000
 90
    32768
280
     0
281
     0
  0
CLASS
  1
LWPOLYLINE
  2
AcDbPolyline
  3
AutoCAD 2000
 90
    32768
280
     0
281
     1
  0
CLASS
  1
HATCH
  2
AcDbHatch
  3
AutoCAD 2000
 90
    32768
280
     0
281
     1
  0
CLASS
  1
XRECORD
  2
AcDbXrecord
  3
AutoCAD 2000
 90
    32768
280
     0
281
     0
  0
CLASS
  1
LONG_TRANSACTION
  2
AcDbLongTransaction
  3
AutoCAD 2000
 90
    32768
280
     0
281
     0
  0
CLASS
  1
LWPOLYLINE
  2
AcDbPolyline
  3
AutoCAD 2000
 90
    32768
280
     0
281
     1
  0
CLASS
  1
HATCH
  2
AcDbHatch
  3
AutoCAD 2000
 90
    32768
280
     0
281
     1
  0
CLASS
  1
XRECORD
  2
AcDbXrecord
  3
AutoCAD 2000
 90
    32768
280
     0
281
     0
  0
CLASS
  1
LONG_TRANSACTION
  2
AcDbLongTransaction
  3
AutoCAD 2000
 90
    32768
280
     0
281
     0
  0
CLASS
  1
LWPOLYLINE
  2
AcDbPolyline
  3
AutoCAD 2000
 90
    32768
280
     0
281
     1
  0
CLASS
  1
HATCH
  2
AcDbHatch
  3
AutoCAD 2000
 90
    32768
280
     0
281
     1
  0
CLASS
  1
XRECORD
  2
AcDbXrecord
  3
AutoCAD 2000
 90
    32768
280
     0
281
     0
  0
CLASS
  1
LONG_TRANSACTION
  2
AcDbLongTransaction
  3
AutoCAD 2000
 90
    32768
280
     0
281
     0
  0
CLASS
  1
LWPOLYLINE
  2
AcDbPolyline
  3
AutoCAD 2000
 90
    32768
280
     0
281
     1
  0
CLASS
  1
HATCH
  2
AcDbHatch
  3
AutoCAD 2000
 90
    32768
280
     0
281
     1
  0
CLASS
  1
XRECORD
  2
AcDbXrecord
  3
AutoCAD 2000
 90
    32768
280
     0
281
     0
  0
CLASS
  1
LONG_TRANSACTION
  2
AcDbLongTransaction
  3
AutoCAD 2000
 90
    32768
280
     0
281
     0
  0
CLASS
  1
LWPOLYLINE
  2
AcDbPolyline
  3
AutoCAD 2000
 90
    32768
280
     0
281
     1
  0
CLASS
  1
HATCH
  2
AcDbHatch
  3
AutoCAD 2000
 90
    32768
280
     0
281
     1
  0
CLASS
  1
XRECORD
  2
AcDbXrecord
  3
AutoCAD 2000
 90
    32768
280
     0
281
     0
  0
ENDSEC
  0
SECTION
  2
TABLES
  0
TABLE
  2
VPORT
  5
8
330
0
100
AcDbSymbolTable
 70
     2
  0
VPORT
  5
49FC
330
8
100
AcDbSymbolTableRecord
100
AcDbViewportTableRecord
  2
*Active
 70
     0
 10
0.0
 20
0.0
 11
1.0
 21
1.0
 12
-546.6026538598289
 22
836.4907141629952
 13
0.0
 23
0.0
 14
20.0
 24
20.0
 15
10.0
 25
10.0
 16
0.0
 26
0.0
 36
1.0
 17
0.0
 27
0.0
 37
0.0
 40
400.0149356200894
 41
2.06084656084656
 42
50.0
 43
0.0
 44
0.0
 50
0.0
 51
0.0
 71
     0
 72
 20000
 73
     1
 74
     3
 75
     0
 76
     0
 77
     0
 78
     1
281
     0
 65
     1
110
-881.3725378634428
120
-169.8351068294423
130
0.0
111
1.0
121
0.0
131
0.0
112
0.0
122
1.0
132
0.0
 79
     0
146
0.0
  0
ENDTAB
  0
TABLE
  2
LTYPE
  5
5
330
0
100
AcDbSymbolTable
 70
     2
  0
LTYPE
  5
13
330
5
100
AcDbSymbolTableRecord
100
AcDbLinetypeTableRecord
  2
BYBLOCK
 70
     0
  3

 72
    65
 73
     0
 40
0.0
  0
LTYPE
  5
14
330
5
100
AcDbSymbolTableRecord
100
AcDbLinetypeTableRecord
  2
BYLAYER
 70
     0
  3

 72
    65
 73
     0
 40
0.0
  0
LTYPE
  5
15
330
5
100
AcDbSymbolTableRecord
100
AcDbLinetypeTableRecord
  2
CONTINUOUS
 70
     0
  3
Solid line
 72
    65
 73
     0
 40
0.0
  0
LTYPE
  5
41E7
330
5
100
AcDbSymbolTableRecord
100
AcDbLinetypeTableRecord
  2
HIDDEN
 70
     0
  3
_ _ _ _ _ _ _ _ _ _ _ _ _ _ _ _ _ _ _ _ _ _ _
 72
    65
 73
     2
 40
0.375
 49
0.25
 74
     0
 49
-0.125
 74
     0
  0
ENDTAB
  0
TABLE
  2
LAYER
  5
2
330
0
100
AcDbSymbolTable
 70
     3
  0
LAYER
  5
F
330
2
100
AcDbSymbolTableRecord
100
AcDbLayerTableRecord
  2
0
 70
     0
 62
    30
  6
CONTINUOUS
370
    -3
390
37B6
  0
LAYER
  5
30
330
2
100
AcDbSymbolTableRecord
100
AcDbLayerTableRecord
  2
1
 70
     0
 62
     7
  6
CONTINUOUS
370
    -3
390
37B6
  0
LAYER
  5
31
330
2
100
AcDbSymbolTableRecord
100
AcDbLayerTableRecord
  2
DEFPOINTS
 70
     0
 62
     6
  6
CONTINUOUS
290
     0
370
    -3
390
37B6
  0
ENDTAB
  0
TABLE
  2
STYLE
  5
3
330
0
100
AcDbSymbolTable
 70
     2
  0
STYLE
  5
10
330
3
100
AcDbSymbolTableRecord
100
AcDbTextStyleTableRecord
  2
STANDARD
 70
     0
 40
0.0
 41
1.0
 50
0.0
 71
     0
 42
19.7141258082962
  3
techl___.ttf
  4

1001
ACAD
1000
TechnicLite
1071
      514
  0
STYLE
  5
2B
330
3
100
AcDbSymbolTableRecord
100
AcDbTextStyleTableRecord
  2
ROMANC
 70
     0
 40
4.009999999999998
 41
1.0
 50
0.0
 71
     0
 42
4.009999999999998
  3
romanc
  4

  0
ENDTAB
  0
TABLE
  2
VIEW
  5
6
330
0
100
AcDbSymbolTable
 70
     1
  0
VIEW
  5
2B15
330
6
100
AcDbSymbolTableRecord
100
AcDbViewTableRecord
  2
P1
 70
     1
 40
195.7116207376954
 10
156.3078220645051
 20
105.1927068532014
 41
281.044737853693
 11
0.0
 21
0.0
 31
1.0
 12
0.0
 22
0.0
 32
0.0
 42
50.0
 43
0.0
 44
0.0
 50
0.0
 71
     0
281
     0
 72
     0
  0
ENDTAB
  0
TABLE
  2
UCS
  5
7
330
0
100
AcDbSymbolTable
 70
     0
  0
ENDTAB
  0
TABLE
  2
APPID
  5
9
330
0
100
AcDbSymbolTable
 70
     3
  0
APPID
  5
11
330
9
100
AcDbSymbolTableRecord
100
AcDbRegAppTableRecord
  2
ACAD
 70
     0
  0
APPID
  5
21B6
330
9
100
AcDbSymbolTableRecord
100
AcDbRegAppTableRecord
  2
CONTENTTABDATA
 70
     0
  0
APPID
  5
21B7
330
9
100
AcDbSymbolTableRecord
100
AcDbRegAppTableRecord
  2
CONTENTCURRENTTAB
 70
     0
  0
ENDTAB
  0
TABLE
  2
DIMSTYLE
  5
A
330
0
100
AcDbSymbolTable
 70
     1
100
AcDbDimStyleTable
 71
     1
340
AD6
  0
DIMSTYLE
105
AD6
102
{ACAD_REACTORS
330
44D2
330
448D
330
44B6
330
46E9
330
46DD
330
46DC
330
46DF
102
}
330
A
100
AcDbSymbolTableRecord
100
AcDbDimStyleTableRecord
  2
STANDARD
 70
     0
340
10
  0
ENDTAB
  0
TABLE
  2
BLOCK_RECORD
  5
1
330
0
100
AcDbSymbolTable
 70
     8
  0
BLOCK_RECORD
  5
19
102
{ACAD_XDICTIONARY
360
391B
102
}
330
1
100
AcDbSymbolTableRecord
100
AcDbBlockTableRecord
  2
*MODEL_SPACE
340
37B9
  0
BLOCK_RECORD
  5
3E47
330
1
100
AcDbSymbolTableRecord
100
AcDbBlockTableRecord
  2
*Paper_Space
340
3E48
  0
BLOCK_RECORD
  5
448E
330
1
100
AcDbSymbolTableRecord
100
AcDbBlockTableRecord
  2
*D0
340
0
  0
BLOCK_RECORD
  5
44B7
330
1
100
AcDbSymbolTableRecord
100
AcDbBlockTableRecord
  2
*D1
340
0
  0
BLOCK_RECORD
  5
44D3
330
1
100
AcDbSymbolTableRecord
100
AcDbBlockTableRecord
  2
*D2
340
0
  0
BLOCK_RECORD
  5
4645
330
1
100
AcDbSymbolTableRecord
100
AcDbBlockTableRecord
  2
LADDER2
340
0
310
28000000200000002000000001000800000000000004000000000000000000000000000000000000000000004000000080000000FF000000002000004020000080200000FF200000004000004040000080400000FF400000006000004060000080600000FF600000008000004080000080800000FF80000000A0000040A000
310
0080A00000FFA0000000C0000040C0000080C00000FFC0000000FF000040FF000080FF0000FFFF0000000020004000200080002000FF002000002020004020200080202000FF202000004020004040200080402000FF402000006020004060200080602000FF602000008020004080200080802000FF80200000A0200040A0
310
200080A02000FFA0200000C0200040C0200080C02000FFC0200000FF200040FF200080FF2000FFFF2000000040004000400080004000FF004000002040004020400080204000FF204000004040004040400080404000FF404000006040004060400080604000FF604000008040004080400080804000FF80400000A0400040
310
A0400080A04000FFA0400000C0400040C0400080C04000FFC0400000FF400040FF400080FF4000FFFF4000000060004000600080006000FF006000002060004020600080206000FF206000004060004040600080406000FF406000006060004060600080606000FF606000008060004080600080806000FF80600000A06000
310
40A0600080A06000FFA0600000C0600040C0600080C06000FFC0600000FF600040FF600080FF6000FFFF6000000080004000800080008000FF008000002080004020800080208000FF208000004080004040800080408000FF408000006080004060800080608000FF608000008080004080800080808000FF80800000A080
310
0040A0800080A08000FFA0800000C0800040C0800080C08000FFC0800000FF800040FF800080FF8000FFFF80000000A0004000A0008000A000FF00A0000020A0004020A0008020A000FF20A0000040A0004040A0008040A000FF40A0000060A0004060A0008060A000FF60A0000080A0004080A0008080A000FF80A00000A0
310
A00040A0A00080A0A000FFA0A00000C0A00040C0A00080C0A000FFC0A00000FFA00040FFA00080FFA000FFFFA0000000C0004000C0008000C000FF00C0000020C0004020C0008020C000FF20C0000040C0004040C0008040C000FF40C0000060C0004060C0008060C000FF60C0000080C0004080C0008080C000FF80C00000
310
A0C00040A0C00080A0C000FFA0C00000C0C00040C0C00080C0C000FFC0C00000FFC00040FFC00080FFC000FFFFC0000000FF004000FF008000FF00FF00FF000020FF004020FF008020FF00FF20FF000040FF004040FF008040FF00FF40FF000060FF004060FF008060FF00FF60FF000080FF004080FF008080FF00FF80FF00
310
00A0FF0040A0FF0080A0FF00FFA0FF0000C0FF0040C0FF0080C0FF00FFC0FF0000FFFF0040FFFF0080FFFF00FFFFFF0000000000000000000000000000000000000000000000000000000000000000000000000000000000000000000000000000000000000000000000000000000000000000000000000000000000000000
310
00000000000000000000000000000000000000000000000000000000000000000000000000000000000000000000000000000000000000000000000000000000000000000000000000000000000000000000000000000000000000000000000000000000000000000000000000000000000000000000000000000000000000
310
00000000000000000000000000000000000000000000000000000000000000000000000000000000000000000000000000000000000000000000000000000000000000000000000000000000000000000000000000000000000000000000000000000000000000000000000000000000000000000000000000000000000000
310
0000000000000000000000000000000000000000000000000000000000000000000000000000000000000000000000000000000000000000000000000000000000000000000000000000000000000000000000000000000000000000000000000000000000000000000000000000000000000000FFFF00FF00FFFF00FF00FF
310
FF00FF0000FF00FFFF00FF00FFFF00FF00FFFF0000FFFF00FF00FFFF00FF00FFFF00FF0000FF00FFFF00FF00FFFF00FF00FFFF0000FFFF00FF00FFFF00FF00FFFF00FF0000FF00FFFF00FF00FFFF00FF00FFFF0000FFFFFFFFFFFFFFFFFFFFFFFFFFFFFFFFFFFFFFFFFFFFFFFFFFFFFFFFFFFF000000000000000000000000
310
00000000000000000000000000000000000000000000000000000000000000000000000000000000000000000000000000000000000000000000000000000000000000000000000000000000000000000000000000000000000000000000000000000000000000000000000000000000000000000000000000000000000000
310
00000000000000000000000000000000000000000000000000000000000000000000000000000000000000000000000000000000000000000000000000000000000000000000000000000000000000000000000000000000000000000000000000000000000000000000000000000000000000000000000000000000000000
310
00000000000000000000000000000000000000000000000000000000000000000000000000000000000000000000000000000000000000000000000000000000000000000000000000000000000000000000000000000000000000000000000000000000000000000000000000000000000000000000000000000000000000
310
0000000000000000000000000000000000000000000000000000000000000000000000000000000000000000000000000000000000000000
102
{BLKREFS
331
4674
331
46DB
102
}
  0
BLOCK_RECORD
  5
4739
330
1
100
AcDbSymbolTableRecord
100
AcDbBlockTableRecord
  2
*D4
340
0
  0
BLOCK_RECORD
  5
4745
330
1
100
AcDbSymbolTableRecord
100
AcDbBlockTableRecord
  2
*D5
340
0
  0
BLOCK_RECORD
  5
4751
330
1
100
AcDbSymbolTableRecord
100
AcDbBlockTableRecord
  2
*D6
340
0
  0
BLOCK_RECORD
  5
475D
330
1
100
AcDbSymbolTableRecord
100
AcDbBlockTableRecord
  2
*D7
340
0
  0
ENDTAB
  0
ENDSEC
  0
SECTION
  2
BLOCKS
  0
BLOCK
  5
35
330
19
100
AcDbEntity
  8
0
100
AcDbBlockBegin
  2
*MODEL_SPACE
 70
     0
 10
0.0
 20
0.0
 30
0.0
  3
*MODEL_SPACE
  1

  0
ENDBLK
  5
36
330
19
100
AcDbEntity
  8
0
100
AcDbBlockEnd
  0
BLOCK
  5
3E49
330
3E47
100
AcDbEntity
 67
     1
  8
0
100
AcDbBlockBegin
  2
*Paper_Space
 70
     0
 10
0.0
 20
0.0
 30
0.0
  3
*Paper_Space
  1

  0
ENDBLK
  5
3E4A
330
3E47
100
AcDbEntity
 67
     1
  8
0
100
AcDbBlockEnd
  0
BLOCK
  5
4498
330
448E
100
AcDbEntity
  8
0
100
AcDbBlockBegin
  2
*D0
 70
     1
 10
0.0
 20
0.0
 30
0.0
  3
*D0
  1

  0
LINE
  5
45FE
330
448E
100
AcDbEntity
  8
1
 62
     0
370
    -2
100
AcDbLine
 10
-792.8738769539627
 20
705.5015826351474
 30
0.0
 11
-792.8738769539627
 21
675.9504702870067
 31
0.0
  0
LINE
  5
45FF
330
448E
100
AcDbEntity
  8
1
 62
     0
370
    -2
100
AcDbLine
 10
-682.8738769539627
 20
705.5015826351474
 30
0.0
 11
-682.8738769539627
 21
675.9504702870067
 31
0.0
  0
LINE
  5
4600
330
448E
100
AcDbEntity
  8
1
 62
     0
370
    -2
100
AcDbLine
 10
-782.5238769539627
 20
684.0504702870068
 30
0.0
 11
-693.2238769539627
 21
684.0504702870068
 31
0.0
  0
SOLID
  5
4601
330
448E
100
AcDbEntity
  8
1
 62
     0
100
AcDbTrace
 10
-782.5238769539627
 20
685.7754702870067
 30
0.0
 11
-782.5238769539627
 21
682.3254702870067
 31
0.0
 12
-792.8738769539627
 22
684.0504702870068
 32
0.0
 13
-792.8738769539627
 23
684.0504702870068
 33
0.0
  0
SOLID
  5
4602
330
448E
100
AcDbEntity
  8
1
 62
     0
100
AcDbTrace
 10
-693.2238769539627
 20
685.7754702870067
 30
0.0
 11
-693.2238769539627
 21
682.3254702870067
 31
0.0
 12
-682.8738769539627
 22
684.0504702870068
 32
0.0
 13
-682.8738769539627
 23
684.0504702870068
 33
0.0
  0
MTEXT
  5
4603
330
448E
100
AcDbEntity
  8
1
 62
     0
100
AcDbMText
 10
-737.8738769539627
 20
693.4343518659541
 30
0.0
 40
10.34999999999999
 41
0.0
 71
     5
 72
     1
  1
\A1;OUTLET
 73
     1
 44
1.0
  0
POINT
  5
4604
330
448E
100
AcDbEntity
  8
DEFPOINTS
 62
     0
100
AcDbPoint
 10
-792.8738769539627
 20
710.9015826351472
 30
0.0
  0
POINT
  5
4605
330
448E
100
AcDbEntity
  8
DEFPOINTS
 62
     0
100
AcDbPoint
 10
-682.8738769539627
 20
710.9015826351472
 30
0.0
  0
POINT
  5
4606
330
448E
100
AcDbEntity
  8
DEFPOINTS
 62
     0
100
AcDbPoint
 10
-682.8738769539627
 20
684.0504702870068
 30
0.0
  0
ENDBLK
  5
4499
330
448E
100
AcDbEntity
  8
0
100
AcDbBlockEnd
  0
BLOCK
  5
44C2
330
44B7
100
AcDbEntity
  8
0
100
AcDbBlockBegin
  2
*D1
 70
     1
 10
0.0
 20
0.0
 30
0.0
  3
*D1
  1

  0
LINE
  5
48EF
330
44B7
100
AcDbEntity
  8
1
 62
     0
370
    -2
100
AcDbLine
 10
-850.7738769539626
 20
985.9015826351473
 30
0.0
 11
-897.7347377223852
 21
985.9015826351473
 31
0.0
  0
LINE
  5
48F0
330
44B7
100
AcDbEntity
  8
1
 62
     0
370
    -2
100
AcDbLine
 10
-858.2738769539629
 20
830.9015826351474
 30
0.0
 11
-897.7347377223852
 21
830.9015826351474
 31
0.0
  0
LINE
  5
48F1
330
44B7
100
AcDbEntity
  8
1
 62
     0
370
    -2
100
AcDbLine
 10
-889.6347377223849
 20
975.5515826351473
 30
0.0
 11
-889.6347377223849
 21
917.6871089509367
 31
0.0
  0
LINE
  5
48F2
330
44B7
100
AcDbEntity
  8
1
 62
     0
370
    -2
100
AcDbLine
 10
-889.6347377223849
 20
841.2515826351475
 30
0.0
 11
-889.6347377223849
 21
899.1160563193579
 31
0.0
  0
SOLID
  5
48F3
330
44B7
100
AcDbEntity
  8
1
 62
     0
100
AcDbTrace
 10
-891.3597377223851
 20
975.5515826351473
 30
0.0
 11
-887.9097377223851
 21
975.5515826351473
 31
0.0
 12
-889.6347377223849
 22
985.9015826351473
 32
0.0
 13
-889.6347377223849
 23
985.9015826351473
 33
0.0
  0
SOLID
  5
48F4
330
44B7
100
AcDbEntity
  8
1
 62
     0
100
AcDbTrace
 10
-891.3597377223851
 20
841.2515826351475
 30
0.0
 11
-887.9097377223851
 21
841.2515826351475
 31
0.0
 12
-889.6347377223849
 22
830.9015826351474
 32
0.0
 13
-889.6347377223849
 23
830.9015826351474
 33
0.0
  0
MTEXT
  5
48F5
330
44B7
100
AcDbEntity
  8
1
 62
     0
100
AcDbMText
 10
-889.6347377223854
 20
908.4015826351473
 30
0.0
 40
10.34999999999999
 41
0.0
 71
     5
 72
     1
  1
\A1;H
 73
     1
 44
1.0
  0
POINT
  5
48F6
330
44B7
100
AcDbEntity
  8
DEFPOINTS
 62
     0
100
AcDbPoint
 10
-845.3738769539627
 20
985.9015826351473
 30
0.0
  0
POINT
  5
48F7
330
44B7
100
AcDbEntity
  8
DEFPOINTS
 62
     0
100
AcDbPoint
 10
-852.8738769539629
 20
830.9015826351474
 30
0.0
  0
POINT
  5
48F8
330
44B7
100
AcDbEntity
  8
DEFPOINTS
 62
     0
100
AcDbPoint
 10
-889.6347377223849
 20
830.9015826351474
 30
0.0
  0
ENDBLK
  5
44C3
330
44B7
100
AcDbEntity
  8
0
100
AcDbBlockEnd
  0
BLOCK
  5
44DD
330
44D3
100
AcDbEntity
  8
0
100
AcDbBlockBegin
  2
*D2
 70
     1
 10
0.0
 20
0.0
 30
0.0
  3
*D2
  1

  0
LINE
  5
45D7
330
44D3
100
AcDbEntity
  8
1
 62
     0
370
    -2
100
AcDbLine
 10
-845.3738769539627
 20
991.3015826351474
 30
0.0
 11
-845.3738769539627
 21
1010.408381607308
 31
0.0
  0
LINE
  5
45D8
330
44D3
100
AcDbEntity
  8
1
 62
     0
370
    -2
100
AcDbLine
 10
-630.3738769539627
 20
991.3015826351474
 30
0.0
 11
-630.3738769539627
 21
1010.408381607308
 31
0.0
  0
LINE
  5
45D9
330
44D3
100
AcDbEntity
  8
1
 62
     0
370
    -2
100
AcDbLine
 10
-835.0238769539627
 20
1002.308381607308
 30
0.0
 11
-640.7238769539628
 21
1002.308381607308
 31
0.0
  0
SOLID
  5
45DA
330
44D3
100
AcDbEntity
  8
1
 62
     0
100
AcDbTrace
 10
-835.0238769539627
 20
1004.033381607307
 30
0.0
 11
-835.0238769539627
 21
1000.583381607307
 31
0.0
 12
-845.3738769539627
 22
1002.308381607308
 32
0.0
 13
-845.3738769539627
 23
1002.308381607308
 33
0.0
  0
SOLID
  5
45DB
330
44D3
100
AcDbEntity
  8
1
 62
     0
100
AcDbTrace
 10
-640.7238769539628
 20
1004.033381607307
 30
0.0
 11
-640.7238769539628
 21
1000.583381607307
 31
0.0
 12
-630.3738769539627
 22
1002.308381607308
 32
0.0
 13
-630.3738769539627
 23
1002.308381607308
 33
0.0
  0
MTEXT
  5
45DC
330
44D3
100
AcDbEntity
  8
1
 62
     0
100
AcDbMText
 10
-737.8738769539627
 20
1011.593907923096
 30
0.0
 40
10.34999999999999
 41
0.0
 71
     5
 72
     1
  1
\A1;D1
 73
     1
 44
1.0
  0
POINT
  5
45DD
330
44D3
100
AcDbEntity
  8
DEFPOINTS
 62
     0
100
AcDbPoint
 10
-845.3738769539627
 20
985.9015826351473
 30
0.0
  0
POINT
  5
45DE
330
44D3
100
AcDbEntity
  8
DEFPOINTS
 62
     0
100
AcDbPoint
 10
-630.3738769539627
 20
985.9015826351473
 30
0.0
  0
POINT
  5
45DF
330
44D3
100
AcDbEntity
  8
DEFPOINTS
 62
     0
100
AcDbPoint
 10
-630.3738769539627
 20
1002.308381607308
 30
0.0
  0
ENDBLK
  5
44DE
330
44D3
100
AcDbEntity
  8
0
100
AcDbBlockEnd
  0
BLOCK
  5
466B
330
4645
100
AcDbEntity
  8
0
100
AcDbBlockBegin
  2
LADDER2
 70
     0
 10
0.0
 20
0.0
 30
0.0
  3
LADDER2
  1

  0
LINE
  5
4646
330
4645
100
AcDbEntity
  8
1
100
AcDbLine
 10
17.98132113700262
 20
1428.127084863947
 30
0.0000000003347759
 11
297.9813211370026
 21
1428.127084863947
 31
0.0000000003347759
  0
LINE
  5
4647
330
4645
100
AcDbEntity
  8
1
100
AcDbLine
 10
47.98132113700262
 20
1428.127084863947
 30
0.0000000003347759
 11
42.98132113700262
 21
1428.127084863947
 31
0.0000000003347759
  0
LINE
  5
4648
330
4645
100
AcDbEntity
  8
1
100
AcDbLine
 10
17.98132113700262
 20
1428.127084863947
 30
0.0000000003347759
 11
17.98132113700262
 21
1403.127084863948
 31
0.0000000003347759
  0
LINE
  5
4649
330
4645
100
AcDbEntity
  8
1
100
AcDbLine
 10
22.98132113700261
 20
1403.127084863948
 30
0.0000000003347759
 11
22.98132113700261
 21
1428.127084863947
 31
0.0000000003347759
  0
LINE
  5
464A
330
4645
100
AcDbEntity
  8
1
100
AcDbLine
 10
22.98132113700261
 20
1428.127084863947
 30
0.0000000003347759
 11
17.98132113700262
 21
1428.127084863947
 31
0.0000000003347759
  0
LINE
  5
464B
330
4645
100
AcDbEntity
  8
1
100
AcDbLine
 10
42.98132113700262
 20
1428.127084863947
 30
0.0000000003347759
 11
42.98132113700262
 21
1403.127084863948
 31
0.0000000003347759
  0
LINE
  5
464C
330
4645
100
AcDbEntity
  8
1
100
AcDbLine
 10
47.98132113700262
 20
1403.127084863948
 30
0.0000000003347759
 11
47.98132113700262
 21
1428.127084863947
 31
0.0000000003347759
  0
LINE
  5
464D
330
4645
100
AcDbEntity
  8
1
100
AcDbLine
 10
67.98132113700262
 20
1428.127084863947
 30
0.0000000003347759
 11
67.98132113700262
 21
1403.127084863948
 31
0.0000000003347759
  0
LINE
  5
464E
330
4645
100
AcDbEntity
  8
1
100
AcDbLine
 10
72.98132113700262
 20
1403.127084863948
 30
0.0000000003347759
 11
72.98132113700262
 21
1428.127084863947
 31
0.0000000003347759
  0
LINE
  5
464F
330
4645
100
AcDbEntity
  8
1
100
AcDbLine
 10
72.98132113700262
 20
1428.127084863947
 30
0.0000000003347759
 11
67.98132113700262
 21
1428.127084863947
 31
0.0000000003347759
  0
LINE
  5
4650
330
4645
100
AcDbEntity
  8
1
100
AcDbLine
 10
97.98132113700262
 20
1428.127084863947
 30
0.0000000003347759
 11
92.98132113700262
 21
1428.127084863947
 31
0.0000000003347759
  0
LINE
  5
4651
330
4645
100
AcDbEntity
  8
1
100
AcDbLine
 10
92.98132113700262
 20
1428.127084863947
 30
0.0000000003347759
 11
92.98132113700262
 21
1403.127084863948
 31
0.0000000003347759
  0
LINE
  5
4652
330
4645
100
AcDbEntity
  8
1
100
AcDbLine
 10
97.98132113700262
 20
1403.127084863948
 30
0.0000000003347759
 11
97.98132113700262
 21
1428.127084863947
 31
0.0000000003347759
  0
LINE
  5
4653
330
4645
100
AcDbEntity
  8
1
100
AcDbLine
 10
247.9813211370025
 20
1428.127084863947
 30
0.0000000003347759
 11
242.9813211370026
 21
1428.127084863947
 31
0.0000000003347759
  0
LINE
  5
4654
330
4645
100
AcDbEntity
  8
1
100
AcDbLine
 10
147.9813211370025
 20
1428.127084863947
 30
0.0000000003347759
 11
142.9813211370025
 21
1428.127084863947
 31
0.0000000003347759
  0
LINE
  5
4655
330
4645
100
AcDbEntity
  8
1
100
AcDbLine
 10
117.9813211370025
 20
1428.127084863947
 30
0.0000000003347759
 11
117.9813211370025
 21
1403.127084863948
 31
0.0000000003347759
  0
LINE
  5
4656
330
4645
100
AcDbEntity
  8
1
100
AcDbLine
 10
122.9813211370025
 20
1403.127084863948
 30
0.0000000003347759
 11
122.9813211370025
 21
1428.127084863947
 31
0.0000000003347759
  0
LINE
  5
4657
330
4645
100
AcDbEntity
  8
1
100
AcDbLine
 10
122.9813211370025
 20
1428.127084863947
 30
0.0000000003347759
 11
117.9813211370025
 21
1428.127084863947
 31
0.0000000003347759
  0
LINE
  5
4658
330
4645
100
AcDbEntity
  8
1
100
AcDbLine
 10
142.9813211370025
 20
1428.127084863947
 30
0.0000000003347759
 11
142.9813211370025
 21
1403.127084863948
 31
0.0000000003347759
  0
LINE
  5
4659
330
4645
100
AcDbEntity
  8
1
100
AcDbLine
 10
147.9813211370025
 20
1403.127084863948
 30
0.0000000003347759
 11
147.9813211370025
 21
1428.127084863947
 31
0.0000000003347759
  0
LINE
  5
465A
330
4645
100
AcDbEntity
  8
1
100
AcDbLine
 10
167.9813211370025
 20
1428.127084863947
 30
0.0000000003347759
 11
167.9813211370025
 21
1403.127084863948
 31
0.0000000003347759
  0
LINE
  5
465B
330
4645
100
AcDbEntity
  8
1
100
AcDbLine
 10
172.9813211370025
 20
1403.127084863948
 30
0.0000000003347759
 11
172.9813211370025
 21
1428.127084863947
 31
0.0000000003347759
  0
LINE
  5
465C
330
4645
100
AcDbEntity
  8
1
100
AcDbLine
 10
172.9813211370025
 20
1428.127084863947
 30
0.0000000003347759
 11
167.9813211370025
 21
1428.127084863947
 31
0.0000000003347759
  0
LINE
  5
465D
330
4645
100
AcDbEntity
  8
1
100
AcDbLine
 10
197.9813211370025
 20
1428.127084863947
 30
0.0000000003347759
 11
192.9813211370025
 21
1428.127084863947
 31
0.0000000003347759
  0
LINE
  5
465E
330
4645
100
AcDbEntity
  8
1
100
AcDbLine
 10
192.9813211370025
 20
1428.127084863947
 30
0.0000000003347759
 11
192.9813211370025
 21
1403.127084863948
 31
0.0000000003347759
  0
LINE
  5
465F
330
4645
100
AcDbEntity
  8
1
100
AcDbLine
 10
197.9813211370025
 20
1403.127084863948
 30
0.0000000003347759
 11
197.9813211370025
 21
1428.127084863947
 31
0.0000000003347759
  0
LINE
  5
4660
330
4645
100
AcDbEntity
  8
1
100
AcDbLine
 10
217.9813211370026
 20
1428.127084863947
 30
0.0000000003347759
 11
217.9813211370026
 21
1403.127084863948
 31
0.0000000003347759
  0
LINE
  5
4661
330
4645
100
AcDbEntity
  8
1
100
AcDbLine
 10
222.9813211370025
 20
1403.127084863948
 30
0.0000000003347759
 11
222.9813211370025
 21
1428.127084863947
 31
0.0000000003347759
  0
LINE
  5
4662
330
4645
100
AcDbEntity
  8
1
100
AcDbLine
 10
222.9813211370025
 20
1428.127084863947
 30
0.0000000003347759
 11
217.9813211370026
 21
1428.127084863947
 31
0.0000000003347759
  0
LINE
  5
4663
330
4645
100
AcDbEntity
  8
1
100
AcDbLine
 10
242.9813211370026
 20
1428.127084863947
 30
0.0000000003347759
 11
242.9813211370026
 21
1403.127084863948
 31
0.0000000003347759
  0
LINE
  5
4664
330
4645
100
AcDbEntity
  8
1
100
AcDbLine
 10
247.9813211370025
 20
1403.127084863948
 30
0.0000000003347759
 11
247.9813211370025
 21
1428.127084863947
 31
0.0000000003347759
  0
LINE
  5
4665
330
4645
100
AcDbEntity
  8
1
100
AcDbLine
 10
267.9813211370026
 20
1428.127084863947
 30
0.0000000003347759
 11
267.9813211370026
 21
1403.127084863948
 31
0.0000000003347759
  0
LINE
  5
4666
330
4645
100
AcDbEntity
  8
1
100
AcDbLine
 10
272.9813211370026
 20
1403.127084863948
 30
0.0000000003347759
 11
272.9813211370026
 21
1428.127084863947
 31
0.0000000003347759
  0
LINE
  5
4667
330
4645
100
AcDbEntity
  8
1
100
AcDbLine
 10
272.9813211370026
 20
1428.127084863947
 30
0.0000000003347759
 11
267.9813211370026
 21
1428.127084863947
 31
0.0000000003347759
  0
LINE
  5
4668
330
4645
100
AcDbEntity
  8
1
100
AcDbLine
 10
297.9813211370026
 20
1428.127084863947
 30
0.0000000003347759
 11
292.9813211370026
 21
1428.127084863947
 31
0.0000000003347759
  0
LINE
  5
4669
330
4645
100
AcDbEntity
  8
1
100
AcDbLine
 10
292.9813211370026
 20
1428.127084863947
 30
0.0000000003347759
 11
292.9813211370026
 21
1403.127084863948
 31
0.0000000003347759
  0
LINE
  5
466A
330
4645
100
AcDbEntity
  8
1
100
AcDbLine
 10
297.9813211370026
 20
1403.127084863948
 30
0.0000000003347759
 11
297.9813211370026
 21
1428.127084863947
 31
0.0000000003347759
  0
ENDBLK
  5
466C
330
4645
100
AcDbEntity
  8
0
100
AcDbBlockEnd
  0
BLOCK
  5
4743
330
4739
100
AcDbEntity
  8
0
100
AcDbBlockBegin
  2
*D4
 70
     1
 10
0.0
 20
0.0
 30
0.0
  3
*D4
  1

  0
LINE
  5
49E2
330
4739
100
AcDbEntity
  8
1
 62
     0
370
    -2
100
AcDbLine
 10
-460.0982947802727
 20
812.3242432977452
 30
0.0
 11
-460.0982947802727
 21
750.945530134712
 31
0.0
  0
LINE
  5
49E3
330
4739
100
AcDbEntity
  8
1
 62
     0
370
    -2
100
AcDbLine
 10
-221.9582947802854
 20
812.324243297758
 30
0.0
 11
-221.9582947802854
 21
750.945530134712
 31
0.0
  0
LINE
  5
49E4
330
4739
100
AcDbEntity
  8
1
 62
     0
370
    -2
100
AcDbLine
 10
-449.7482947802726
 20
759.045530134712
 30
0.0
 11
-232.3082947802854
 21
759.045530134712
 31
0.0
  0
SOLID
  5
49E5
330
4739
100
AcDbEntity
  8
1
 62
     0
100
AcDbTrace
 10
-449.7482947802726
 20
760.7705301347122
 30
0.0
 11
-449.7482947802726
 21
757.3205301347122
 31
0.0
 12
-460.0982947802727
 22
759.045530134712
 32
0.0
 13
-460.0982947802727
 23
759.045530134712
 33
0.0
  0
SOLID
  5
49E6
330
4739
100
AcDbEntity
  8
1
 62
     0
100
AcDbTrace
 10
-232.3082947802854
 20
760.7705301347122
 30
0.0
 11
-232.3082947802854
 21
757.3205301347122
 31
0.0
 12
-221.9582947802854
 22
759.045530134712
 32
0.0
 13
-221.9582947802854
 23
759.045530134712
 33
0.0
  0
MTEXT
  5
49E7
330
4739
100
AcDbEntity
  8
1
 62
     0
100
AcDbMText
 10
-341.0282947802791
 20
768.270530134712
 30
0.0
 40
10.34999999999999
 41
0.0
 71
     5
 72
     1
  1
\A1;D2
 73
     1
 44
1.0
  0
POINT
  5
49E8
330
4739
100
AcDbEntity
  8
DEFPOINTS
 62
     0
100
AcDbPoint
 10
-460.0982947802727
 20
817.724243297745
 30
-0.0000000002421606
  0
POINT
  5
49E9
330
4739
100
AcDbEntity
  8
DEFPOINTS
 62
     0
100
AcDbPoint
 10
-221.9582947802854
 20
817.724243297758
 30
-0.0000000002945865
  0
POINT
  5
49EA
330
4739
100
AcDbEntity
  8
DEFPOINTS
 62
     0
100
AcDbPoint
 10
-221.9582947802854
 20
759.045530134712
 30
0.0
  0
ENDBLK
  5
4744
330
4739
100
AcDbEntity
  8
0
100
AcDbBlockEnd
  0
BLOCK
  5
474F
330
4745
100
AcDbEntity
  8
0
100
AcDbBlockBegin
  2
*D5
 70
     1
 10
0.0
 20
0.0
 30
0.0
  3
*D5
  1

  0
LINE
  5
49C5
330
4745
100
AcDbEntity
  8
1
 62
     0
370
    -2
100
AcDbLine
 10
-486.5582947802984
 20
998.5877056165339
 30
0.0
 11
-486.5582947802984
 21
1023.670594691145
 31
0.0
  0
LINE
  5
49C6
330
4745
100
AcDbEntity
  8
1
 62
     0
370
    -2
100
AcDbLine
 10
-195.4982947802727
 20
998.5877056165206
 30
0.0
 11
-195.4982947802727
 21
1023.670594691145
 31
0.0
  0
LINE
  5
49C7
330
4745
100
AcDbEntity
  8
1
 62
     0
370
    -2
100
AcDbLine
 10
-476.2082947802984
 20
1015.570594691146
 30
0.0
 11
-205.8482947802726
 21
1015.570594691146
 31
0.0
  0
SOLID
  5
49C8
330
4745
100
AcDbEntity
  8
1
 62
     0
100
AcDbTrace
 10
-476.2082947802984
 20
1017.295594691145
 30
0.0
 11
-476.2082947802984
 21
1013.845594691145
 31
0.0
 12
-486.5582947802984
 22
1015.570594691146
 32
0.0
 13
-486.5582947802984
 23
1015.570594691146
 33
0.0
  0
SOLID
  5
49C9
330
4745
100
AcDbEntity
  8
1
 62
     0
100
AcDbTrace
 10
-205.8482947802726
 20
1017.295594691145
 30
0.0
 11
-205.8482947802726
 21
1013.845594691145
 31
0.0
 12
-195.4982947802727
 22
1015.570594691146
 32
0.0
 13
-195.4982947802727
 23
1015.570594691146
 33
0.0
  0
MTEXT
  5
49CA
330
4745
100
AcDbEntity
  8
1
 62
     0
100
AcDbMText
 10
-341.0282947802854
 20
1024.856121006934
 30
0.0
 40
10.34999999999999
 41
0.0
 71
     5
 72
     1
  1
\A1;D1
 73
     1
 44
1.0
  0
POINT
  5
49CB
330
4745
100
AcDbEntity
  8
DEFPOINTS
 62
     0
100
AcDbPoint
 10
-486.5582947802984
 20
993.187705616534
 30
0.0000000002326545
  0
POINT
  5
49CC
330
4745
100
AcDbEntity
  8
DEFPOINTS
 62
     0
100
AcDbPoint
 10
-195.4982947802727
 20
993.1877056165212
 30
0.0000000002952724
  0
POINT
  5
49CD
330
4745
100
AcDbEntity
  8
DEFPOINTS
 62
     0
100
AcDbPoint
 10
-195.4982947802727
 20
1015.570594691146
 30
0.0
  0
ENDBLK
  5
4750
330
4745
100
AcDbEntity
  8
0
100
AcDbBlockEnd
  0
BLOCK
  5
475B
330
4751
100
AcDbEntity
  8
0
100
AcDbBlockBegin
  2
*D6
 70
     1
 10
0.0
 20
0.0
 30
0.0
  3
*D6
  1

  0
LINE
  5
49D7
330
4751
100
AcDbEntity
  8
1
 62
     0
370
    -2
100
AcDbLine
 10
-389.5382947802727
 20
705.5015826351471
 30
0.0
 11
-389.5382947802727
 21
675.4659297309768
 31
0.0
  0
LINE
  5
49D8
330
4751
100
AcDbEntity
  8
1
 62
     0
370
    -2
100
AcDbLine
 10
-292.5182947802726
 20
705.5015826351471
 30
0.0
 11
-292.5182947802726
 21
675.4659297309768
 31
0.0
  0
LINE
  5
49D9
330
4751
100
AcDbEntity
  8
1
 62
     0
370
    -2
100
AcDbLine
 10
-379.1882947802726
 20
683.5659297309766
 30
0.0
 11
-302.8682947802726
 21
683.5659297309766
 31
0.0
  0
SOLID
  5
49DA
330
4751
100
AcDbEntity
  8
1
 62
     0
100
AcDbTrace
 10
-379.1882947802726
 20
685.2909297309767
 30
0.0
 11
-379.1882947802726
 21
681.8409297309767
 31
0.0
 12
-389.5382947802727
 22
683.5659297309766
 32
0.0
 13
-389.5382947802727
 23
683.5659297309766
 33
0.0
  0
SOLID
  5
49DB
330
4751
100
AcDbEntity
  8
1
 62
     0
100
AcDbTrace
 10
-302.8682947802726
 20
685.2909297309767
 30
0.0
 11
-302.8682947802726
 21
681.8409297309767
 31
0.0
 12
-292.5182947802726
 22
683.5659297309766
 32
0.0
 13
-292.5182947802726
 23
683.5659297309766
 33
0.0
  0
MTEXT
  5
49DC
330
4751
100
AcDbEntity
  8
1
 62
     0
100
AcDbMText
 10
-341.0282947802727
 20
692.9498113099241
 30
0.0
 40
10.34999999999999
 41
0.0
 71
     5
 72
     1
  1
\A1;OUTLET
 73
     1
 44
1.0
  0
POINT
  5
49DD
330
4751
100
AcDbEntity
  8
DEFPOINTS
 62
     0
100
AcDbPoint
 10
-389.5382947802727
 20
710.9015826351472
 30
0.000000000232317
  0
POINT
  5
49DE
330
4751
100
AcDbEntity
  8
DEFPOINTS
 62
     0
100
AcDbPoint
 10
-292.5182947802726
 20
710.9015826351472
 30
0.000000000232317
  0
POINT
  5
49DF
330
4751
100
AcDbEntity
  8
DEFPOINTS
 62
     0
100
AcDbPoint
 10
-292.5182947802726
 20
683.5659297309766
 30
0.0
  0
ENDBLK
  5
475C
330
4751
100
AcDbEntity
  8
0
100
AcDbBlockEnd
  0
BLOCK
  5
4768
330
475D
100
AcDbEntity
  8
0
100
AcDbBlockBegin
  2
*D7
 70
     1
 10
0.0
 20
0.0
 30
0.0
  3
*D7
  1

  0
LINE
  5
49BB
330
475D
100
AcDbEntity
  8
1
 62
     0
370
    -2
100
AcDbLine
 10
-447.8582947802599
 20
816.7415826351474
 30
0.0
 11
-515.1659705648475
 21
816.7415826351474
 31
0.0
  0
LINE
  5
49BC
330
475D
100
AcDbEntity
  8
1
 62
     0
370
    -2
100
AcDbLine
 10
-491.9582947802983
 20
993.187705616534
 30
0.0
 11
-515.1659705648475
 21
993.187705616534
 31
0.0
  0
LINE
  5
49BD
330
475D
100
AcDbEntity
  8
1
 62
     0
370
    -2
100
AcDbLine
 10
-507.0659705648474
 20
827.0915826351473
 30
0.0
 11
-507.0659705648474
 21
895.6791178100511
 31
0.0
  0
LINE
  5
49BE
330
475D
100
AcDbEntity
  8
1
 62
     0
370
    -2
100
AcDbLine
 10
-507.0659705648473
 20
982.837705616534
 30
0.0
 11
-507.0659705648473
 21
914.2501704416302
 31
0.0
  0
SOLID
  5
49BF
330
475D
100
AcDbEntity
  8
1
 62
     0
100
AcDbTrace
 10
-508.7909705648475
 20
827.0915826351473
 30
0.0
 11
-505.3409705648475
 21
827.0915826351473
 31
0.0
 12
-507.0659705648474
 22
816.7415826351474
 32
0.0
 13
-507.0659705648474
 23
816.7415826351474
 33
0.0
  0
SOLID
  5
49C0
330
475D
100
AcDbEntity
  8
1
 62
     0
100
AcDbTrace
 10
-508.7909705648475
 20
982.837705616534
 30
0.0
 11
-505.3409705648475
 21
982.837705616534
 31
0.0
 12
-507.0659705648473
 22
993.187705616534
 32
0.0
 13
-507.0659705648473
 23
993.187705616534
 33
0.0
  0
MTEXT
  5
49C1
330
475D
100
AcDbEntity
  8
1
 62
     0
100
AcDbMText
 10
-507.0659705648476
 20
904.9646441258403
 30
0.0
 40
10.34999999999999
 41
0.0
 71
     5
 72
     1
  1
\A1;H
 73
     1
 44
1.0
  0
POINT
  5
49C2
330
475D
100
AcDbEntity
  8
DEFPOINTS
 62
     0
100
AcDbPoint
 10
-442.4582947802598
 20
816.7415826351474
 30
-0.0000000001290478
  0
POINT
  5
49C3
330
475D
100
AcDbEntity
  8
DEFPOINTS
 62
     0
100
AcDbPoint
 10
-486.5582947802984
 20
993.187705616534
 30
0.0000000002326545
  0
POINT
  5
49C4
330
475D
100
AcDbEntity
  8
DEFPOINTS
 62
     0
100
AcDbPoint
 10
-507.0659705648473
 20
993.187705616534
 30
0.0
  0
ENDBLK
  5
4769
330
475D
100
AcDbEntity
  8
0
100
AcDbBlockEnd
  0
ENDSEC
  0
SECTION
  2
ENTITIES
  0
MTEXT
  5
434A
330
19
100
AcDbEntity
  8
1
100
AcDbMText
 10
-814.2695690909924
 20
656.8450046858622
 30
0.0
 40
11.0
 41
277.87
 71
     1
 72
     5
  1
{\fTechnicLite|b0|i0|c2|p2;KV SQUARE RANGE}
  7
ROMANC
 73
     1
 44
1.0
  0
LINE
  5
43F6
330
19
100
AcDbEntity
  8
1
  6
HIDDEN
100
AcDbLine
 10
-682.8738769539627
 20
914.8759971347306
 30
0.0
 11
-682.8738769539627
 21
860.9015826351473
 31
0.0
  0
LINE
  5
43F7
330
19
100
AcDbEntity
  8
1
100
AcDbLine
 10
-684.3738769539627
 20
860.9015826351473
 30
0.0
 11
-684.3738769539627
 21
710.9015826351472
 31
0.0
  0
LINE
  5
43F8
330
19
100
AcDbEntity
  8
1
100
AcDbLine
 10
-791.3738769539627
 20
860.9015826351473
 30
0.0
 11
-791.3738769539627
 21
710.9015826351472
 31
0.0
  0
LINE
  5
43F9
330
19
100
AcDbEntity
  8
1
100
AcDbLine
 10
-682.8738769539627
 20
710.9015826351472
 30
0.0
 11
-792.8738769539627
 21
710.9015826351472
 31
0.0
  0
LINE
  5
43FA
330
19
100
AcDbEntity
  8
1
100
AcDbLine
 10
-661.3738769539627
 20
834.8759971347304
 30
0.0
 11
-661.3738769539627
 21
914.8759971347306
 31
0.0
  0
LINE
  5
43FC
330
19
100
AcDbEntity
  8
1
  6
HIDDEN
100
AcDbLine
 10
-791.3738769539627
 20
910.9015826351473
 30
0.0
 11
-791.3738769539627
 21
860.9015826351473
 31
0.0
  0
LINE
  5
43FD
330
19
100
AcDbEntity
  8
1
100
AcDbLine
 10
-814.3738769539627
 20
910.9015826351473
 30
0.0
 11
-814.3738769539627
 21
834.8759971347304
 31
0.0
  0
LINE
  5
43FE
330
19
100
AcDbEntity
  8
1
100
AcDbLine
 10
-814.3738769539627
 20
834.8759971347304
 30
0.0
 11
-814.3738769539627
 21
914.8759971347306
 31
0.0
  0
LINE
  5
43FF
330
19
100
AcDbEntity
  8
1
100
AcDbLine
 10
-815.8738769539628
 20
860.9015826351473
 30
0.0
 11
-815.8738769539628
 21
951.9257524575426
 31
0.0
  0
LINE
  5
4400
330
19
100
AcDbEntity
  8
1
100
AcDbLine
 10
-814.3738769539627
 20
860.9015826351473
 30
0.0
 11
-814.3738769539627
 21
950.996409505891
 31
0.0
  0
LINE
  5
4401
330
19
100
AcDbEntity
  8
1
100
AcDbLine
 10
-659.8738769539627
 20
860.9015826351473
 30
0.0
 11
-659.8738769539627
 21
951.9257524575426
 31
0.0
  0
LINE
  5
4402
330
19
100
AcDbEntity
  8
1
100
AcDbLine
 10
-661.3738769539627
 20
860.9015826351473
 30
0.0
 11
-661.3738769539627
 21
950.996409505891
 31
0.0
  0
LINE
  5
4403
330
19
100
AcDbEntity
  8
1
100
AcDbLine
 10
-845.3738769539627
 20
932.2172118914904
 30
0.0
 11
-859.9601415013799
 21
868.8749599063202
 31
0.0
  0
LINE
  5
4404
330
19
100
AcDbEntity
  8
1
100
AcDbLine
 10
-845.3738769539627
 20
938.9015826351474
 30
0.0
 11
-861.4218857779608
 21
869.2115660112609
 31
0.0
  0
LINE
  5
4405
330
19
100
AcDbEntity
  8
1
100
AcDbLine
 10
-842.3738769539625
 20
965.3798495090224
 30
0.0
 11
-842.373876953963
 21
833.9015826351474
 31
0.0
  0
LINE
  5
4406
330
19
100
AcDbEntity
  8
1
100
AcDbLine
 10
-845.3738769539627
 20
968.3842485694782
 30
0.0
 11
-845.3738769539627
 21
833.9015826351474
 31
0.0
  0
LINE
  5
4407
330
19
100
AcDbEntity
  8
1
100
AcDbLine
 10
-630.3738769539627
 20
938.9015826351474
 30
0.0
 11
-614.3258681299649
 21
869.2115660112609
 31
0.0
  0
LINE
  5
4408
330
19
100
AcDbEntity
  8
1
100
AcDbLine
 10
-630.3738769539627
 20
932.2172118914904
 30
0.0
 11
-615.7876124065454
 21
868.8749599063202
 31
0.0
  0
LINE
  5
4409
330
19
100
AcDbEntity
  8
1
100
AcDbLine
 10
-630.3738769539627
 20
968.3842485694786
 30
0.0
 11
-630.3738769539627
 21
833.9015826351474
 31
0.0
  0
LINE
  5
440A
330
19
100
AcDbEntity
  8
1
100
AcDbLine
 10
-633.3738769539627
 20
965.3798495090198
 30
0.0
 11
-633.3738769539627
 21
833.9015826351474
 31
0.0
  0
LINE
  5
440C
330
19
100
AcDbEntity
  8
1
100
AcDbLine
 10
-814.3738769539627
 20
860.9015826351473
 30
0.0
 11
-661.3738769539627
 21
860.9015826351473
 31
0.0
  0
LINE
  5
440E
330
19
100
AcDbEntity
  8
1
100
AcDbLine
 10
-845.3738769539627
 20
833.9015826351474
 30
0.0
 11
-816.9888576341033
 21
833.9015826351472
 31
0.0
  0
ARC
  5
4411
330
19
100
AcDbEntity
  8
1
100
AcDbCircle
 10
-829.3092988627016
 20
870.9612934525488
 30
0.0
 40
39.05400668224409
100
AcDbArc
 50
288.3893035948545
 51
330.0424910457394
  0
ARC
  5
4412
330
19
100
AcDbEntity
  8
1
100
AcDbCircle
 10
-829.3092988627016
 20
870.9612934525488
 30
0.0
 40
42.05400668224409
100
AcDbArc
 50
287.7157736622211
 51
330.0424910457394
  0
LINE
  5
4413
330
19
100
AcDbEntity
  8
1
100
AcDbLine
 10
-798.3867315751353
 20
860.9015826351473
 30
0.0
 11
-814.3738769539627
 21
834.8759971347304
 31
0.0
  0
LINE
  5
4414
330
19
100
AcDbEntity
  8
1
100
AcDbLine
 10
-845.3738769539627
 20
833.9015826351474
 30
0.0
 11
-816.9888576341033
 21
833.9015826351472
 31
0.0
  0
LINE
  5
4415
330
19
100
AcDbEntity
  8
1
100
AcDbLine
 10
-816.512461469952
 20
830.9015826351471
 30
0.0
 11
-852.8738769539627
 21
830.9015826351474
 31
0.0
  0
LINE
  5
4416
330
19
100
AcDbEntity
  8
1
100
AcDbLine
 10
-816.5124614699546
 20
830.9015826351474
 30
0.0
 11
-852.8738769539627
 21
830.9015826351474
 31
0.0
  0
LINE
  5
4417
330
19
100
AcDbEntity
  8
1
100
AcDbLine
 10
-852.8738769539629
 20
833.9015826351474
 30
0.0
 11
-852.8738769539629
 21
830.9015826351474
 31
0.0
  0
LINE
  5
4418
330
19
100
AcDbEntity
  8
1
100
AcDbLine
 10
-852.8738769539629
 20
833.9015826351474
 30
0.0
 11
-852.8738769539629
 21
830.9015826351474
 31
0.0
  0
LINE
  5
4419
330
19
100
AcDbEntity
  8
1
100
AcDbLine
 10
-845.3738769539627
 20
833.9015826351474
 30
0.0
 11
-852.8738769539629
 21
833.9015826351474
 31
0.0
  0
LINE
  5
441A
330
19
100
AcDbEntity
  8
1
100
AcDbLine
 10
-845.3738769539627
 20
833.9015826351474
 30
0.0
 11
-852.8738769539629
 21
833.9015826351474
 31
0.0
  0
LINE
  5
441B
330
19
100
AcDbEntity
  8
1
100
AcDbLine
 10
-856.6327051357827
 20
878.3704406329531
 30
0.0
 11
-860.2612407443523
 21
879.2060089723724
 31
0.0
  0
LINE
  5
441C
330
19
100
AcDbEntity
  8
1
100
AcDbLine
 10
-858.2771109766778
 20
876.1836812892248
 30
0.0
 11
-859.7388552532589
 21
876.520287394165
 31
0.0
  0
LINE
  5
441D
330
19
100
AcDbEntity
  8
1
100
AcDbLine
 10
-859.9601415013799
 20
868.8749599063202
 30
0.0
 11
-861.4218857779608
 21
869.2115660112609
 31
0.0
  0
LINE
  5
441E
330
19
100
AcDbEntity
  8
1
100
AcDbLine
 10
-814.3738769539627
 20
860.9015826351473
 30
0.0
 11
-815.8738769539628
 21
860.9015826351473
 31
0.0
  0
LINE
  5
441F
330
19
100
AcDbEntity
  8
1
100
AcDbLine
 10
-792.8738769539627
 20
849.9613051582086
 30
0.0
 11
-795.4730648637406
 21
851.4593779901041
 31
0.0
  0
ARC
  5
4420
330
19
100
AcDbEntity
  8
1
100
AcDbCircle
 10
-792.8738769539627
 20
849.9613051582086
 30
0.0
 40
2.99999999999979
100
AcDbArc
 50
90.0
 51
150.0424910457395
  0
HATCH
  5
4421
330
19
100
AcDbEntity
  8
1
100
AcDbHatch
 10
0.0
 20
0.0
 30
0.0
210
0.0
220
0.0
230
1.0
  2
ANSI31
 70
     0
 71
     0
 91
        1
 92
        7
 72
     1
 73
     1
 93
        3
 10
-792.9390729707148
 20
852.9470156945134
 42
0.0
 10
-792.9390729707148
 20
849.9470156945132
 42
0.0
 10
-795.5382608804933
 20
851.4450885264089
 42
-0.2681479157447428
 97
        0
 75
     0
 76
     1
 52
0.0
 41
2.0
 77
     0
 78
     1
 53
135.0
 43
-403.6217074585289
 44
172.7835306008838
 45
0.1767766952966369
 46
0.1767766952966369
 79
     0
 47
0.0246687159281208
 98
        1
 10
-794.292036959667
 20
851.6010380518785
  0
ARC
  5
4422
330
19
100
AcDbEntity
  8
1
100
AcDbCircle
 10
-646.4384550452238
 20
870.9612934525488
 30
0.0
 40
39.05400668224409
100
AcDbArc
 50
209.9575089542604
 51
251.6106964051453
  0
ARC
  5
4423
330
19
100
AcDbEntity
  8
1
100
AcDbCircle
 10
-646.4384550452238
 20
870.9612934525488
 30
0.0
 40
42.05400668224409
100
AcDbArc
 50
209.9575089542604
 51
252.2842263377788
  0
LINE
  5
4426
330
19
100
AcDbEntity
  8
1
100
AcDbLine
 10
-677.3610223327901
 20
860.9015826351473
 30
0.0
 11
-661.3738769539627
 21
834.8759971347304
 31
0.0
  0
ARC
  5
4427
330
19
100
AcDbEntity
  8
1
100
AcDbCircle
 10
-682.8738769539627
 20
849.9613051582086
 30
0.0
 40
2.99999999999979
100
AcDbArc
 50
29.95750895426051
 51
90.0
  0
LINE
  5
4428
330
19
100
AcDbEntity
  8
1
100
AcDbLine
 10
-682.8738769539627
 20
849.9613051582086
 30
0.0
 11
-680.2746890441847
 21
851.4593779901041
 31
0.0
  0
HATCH
  5
4429
330
19
100
AcDbEntity
  8
1
100
AcDbHatch
 10
0.0
 20
0.0
 30
0.0
210
0.0
220
0.0
230
1.0
  2
ANSI31
 70
     0
 71
     0
 91
        1
 92
        7
 72
     1
 73
     1
 93
        3
 10
-682.8377655838522
 20
852.9618734794818
 42
0.0
 10
-682.8377655838522
 20
849.9618734794818
 42
0.0
 10
-680.2385776740741
 20
851.4599463113777
 42
0.2681479157447428
 97
        0
 75
     0
 76
     1
 52
0.0
 41
2.0
 77
     0
 78
     1
 53
45.0
 43
-1072.155131096038
 44
172.7983883858526
 45
-0.1767766952966369
 46
0.1767766952966369
 79
     0
 47
0.0246687159281208
 98
        1
 10
-681.4848015949003
 20
851.6158958368473
  0
LINE
  5
442A
330
19
100
AcDbEntity
  8
1
100
AcDbLine
 10
-661.3738769539627
 20
860.9015826351473
 30
0.0
 11
-659.8738769539627
 21
860.9015826351473
 31
0.0
  0
LINE
  5
442B
330
19
100
AcDbEntity
  8
1
100
AcDbLine
 10
-630.3738769539627
 20
830.9015826351474
 30
0.0
 11
-659.2352924379736
 21
830.9015826351474
 31
0.0
  0
LINE
  5
442C
330
19
100
AcDbEntity
  8
1
100
AcDbLine
 10
-658.7588962738228
 20
833.9015826351472
 30
0.0
 11
-630.3738769539627
 21
833.9015826351474
 31
0.0
  0
LINE
  5
442D
330
19
100
AcDbEntity
  8
1
100
AcDbLine
 10
-630.3738769539627
 20
830.9015826351474
 30
0.0
 11
-659.2352924379711
 21
830.9015826351474
 31
0.0
  0
LINE
  5
442E
330
19
100
AcDbEntity
  8
1
100
AcDbLine
 10
-658.7588962738228
 20
833.9015826351472
 30
0.0
 11
-630.3738769539627
 21
833.9015826351474
 31
0.0
  0
LINE
  5
442F
330
19
100
AcDbEntity
  8
1
100
AcDbLine
 10
-622.8738769539627
 20
833.9015826351474
 30
0.0
 11
-622.8738769539627
 21
830.9015826351474
 31
0.0
  0
LINE
  5
4430
330
19
100
AcDbEntity
  8
1
100
AcDbLine
 10
-622.8738769539627
 20
833.9015826351474
 30
0.0
 11
-622.8738769539627
 21
830.9015826351474
 31
0.0
  0
LINE
  5
4431
330
19
100
AcDbEntity
  8
1
100
AcDbLine
 10
-630.3738769539627
 20
833.9015826351474
 30
0.0
 11
-622.8738769539627
 21
833.9015826351474
 31
0.0
  0
LINE
  5
4432
330
19
100
AcDbEntity
  8
1
100
AcDbLine
 10
-622.8738769539627
 20
830.9015826351474
 30
0.0
 11
-630.3738769539627
 21
830.9015826351474
 31
0.0
  0
LINE
  5
4433
330
19
100
AcDbEntity
  8
1
100
AcDbLine
 10
-622.8738769539627
 20
830.9015826351474
 30
0.0
 11
-630.3738769539627
 21
830.9015826351474
 31
0.0
  0
LINE
  5
4434
330
19
100
AcDbEntity
  8
1
100
AcDbLine
 10
-630.3738769539627
 20
833.9015826351474
 30
0.0
 11
-622.8738769539627
 21
833.9015826351474
 31
0.0
  0
LINE
  5
4435
330
19
100
AcDbEntity
  8
1
100
AcDbLine
 10
-615.7876124065454
 20
868.8749599063202
 30
0.0
 11
-614.3258681299649
 21
869.2115660112609
 31
0.0
  0
LINE
  5
4436
330
19
100
AcDbEntity
  8
1
100
AcDbLine
 10
-617.4706429312477
 20
876.1836812892248
 30
0.0
 11
-616.0088986546671
 21
876.520287394165
 31
0.0
  0
LINE
  5
4437
330
19
100
AcDbEntity
  8
1
100
AcDbLine
 10
-619.1150487721428
 20
878.3704406329531
 30
0.0
 11
-615.4865131635731
 21
879.2060089723724
 31
0.0
  0
LINE
  5
4438
330
19
100
AcDbEntity
  8
1
100
AcDbLine
 10
-722.8738769539627
 20
972.9015826351472
 30
0.0
 11
-737.8738769539627
 21
972.9015826351474
 31
0.0
  0
LINE
  5
4439
330
19
100
AcDbEntity
  8
1
100
AcDbLine
 10
-724.3738769539627
 20
971.4015826351472
 30
0.0
 11
-737.8738769539627
 21
971.4015826351474
 31
0.0
  0
LINE
  5
443A
330
19
100
AcDbEntity
  8
1
100
AcDbLine
 10
-842.3738769539625
 20
975.9015826351474
 30
0.0
 11
-633.3738769539627
 21
975.9015826351474
 31
0.0
  0
LINE
  5
443B
330
19
100
AcDbEntity
  8
1
100
AcDbLine
 10
-845.3738769539627
 20
985.9015826351473
 30
0.0
 11
-630.3738769539627
 21
985.9015826351473
 31
0.0
  0
LINE
  5
443C
330
19
100
AcDbEntity
  8
1
  6
HIDDEN
100
AcDbLine
 10
-792.8738769539627
 20
910.9015826351473
 30
0.0
 11
-682.8738769539627
 21
910.9015826351473
 31
0.0
  0
LINE
  5
443D
330
19
100
AcDbEntity
  8
1
  6
HIDDEN
100
AcDbLine
 10
-814.3738769539627
 20
914.8759971347306
 30
0.0
 11
-792.8738769539627
 21
914.8759971347306
 31
0.0
  0
LINE
  5
443E
330
19
100
AcDbEntity
  8
1
100
AcDbLine
 10
-857.1550906268765
 20
881.0561622111608
 30
0.0
 11
-858.6168349034572
 21
881.392768316101
 31
0.0
  0
ARC
  5
443F
330
19
100
AcDbEntity
  8
1
100
AcDbCircle
 10
-845.3738769539627
 20
938.9015826351474
 30
0.0
 40
1.529930292361314
100
AcDbArc
 50
90.0
 51
257.0321621823291
  0
HATCH
  5
4440
330
19
100
AcDbEntity
  8
1
100
AcDbHatch
 10
0.0
 20
0.0
 30
0.0
210
0.0
220
0.0
230
1.0
  2
ANSI31
 70
     0
 71
     0
 91
        1
 92
        7
 72
     1
 73
     1
 93
        3
 10
-845.3738769539627
 20
940.4315129275087
 42
0.0
 10
-845.3738769539627
 20
938.9015826351473
 42
0.0
 10
-845.7171995383241
 20
937.4106714028627
 42
-0.8927862824447483
 97
        0
 75
     0
 76
     1
 52
0.0
 41
2.0
 77
     0
 78
     1
 53
135.0
 43
-405.7065114417769
 44
169.4452043386094
 45
0.1767766952966369
 46
0.1767766952966369
 79
     0
 47
0.0149812146733276
 98
        1
 10
-846.2556639563024
 20
938.7994569018401
  0
LINE
  5
4441
330
19
100
AcDbEntity
  8
1
  6
HIDDEN
100
AcDbLine
 10
-792.8738769539627
 20
914.8759971347306
 30
0.0
 11
-792.8738769539627
 21
860.9015826351473
 31
0.0
  0
LINE
  5
4442
330
19
100
AcDbEntity
  8
1
100
AcDbLine
 10
-842.3738769539625
 20
965.3798495090224
 30
0.0
 11
-779.5042479607237
 21
965.3798495090216
 31
0.0
  0
ARC
  5
4443
330
19
100
AcDbEntity
  8
1
100
AcDbCircle
 10
-736.6427218576143
 20
793.630001570441
 30
0.0
 40
177.0172892313433
100
AcDbArc
 50
95.26098198879681
 51
116.5891608244681
  0
ARC
  5
4444
330
19
100
AcDbEntity
  8
1
100
AcDbCircle
 10
-736.6427218576143
 20
793.630001570441
 30
0.0
 40
175.5172892313433
100
AcDbArc
 50
94.81449491492329
 51
116.2870743014124
  0
LINE
  5
4445
330
19
100
AcDbEntity
  8
1
100
AcDbLine
 10
-842.3738769539625
 20
985.9015826351473
 30
0.0
 11
-842.3738769539625
 21
975.9015826351468
 31
0.0
  0
LINE
  5
4446
330
19
100
AcDbEntity
  8
1
100
AcDbLine
 10
-845.3738769539627
 20
985.9015826351473
 30
0.0
 11
-845.3738769539627
 21
972.8971835746904
 31
0.0
  0
LINE
  5
4447
330
19
100
AcDbEntity
  8
1
100
AcDbLine
 10
-842.3738769539625
 20
972.8971835746904
 30
0.0
 11
-845.3738769539627
 21
972.8971835746904
 31
0.0
  0
LINE
  5
4448
330
19
100
AcDbEntity
  8
1
100
AcDbLine
 10
-842.3738769539625
 20
968.3842485694786
 30
0.0
 11
-845.3738769539627
 21
968.3842485694782
 31
0.0
  0
ARC
  5
4449
330
19
100
AcDbEntity
  8
1
100
AcDbCircle
 10
-842.5605825898371
 20
970.6407160720843
 30
0.0
 40
2.264178567337951
100
AcDbArc
 50
265.2699819316972
 51
94.730018068577
  0
ARC
  5
444A
330
19
100
AcDbEntity
  8
1
100
AcDbCircle
 10
-842.5605825898371
 20
970.6407160720843
 30
0.0
 40
5.264178567337951
100
AcDbArc
 50
272.032546738044
 51
87.96745326195598
  0
LINE
  5
444B
330
19
100
AcDbEntity
  8
1
100
AcDbLine
 10
-752.8738769539627
 20
972.9015826351472
 30
0.0
 11
-737.8738769539627
 21
972.9015826351474
 31
0.0
  0
LINE
  5
444C
330
19
100
AcDbEntity
  8
1
100
AcDbLine
 10
-752.8738769539627
 20
972.9015826351474
 30
0.0
 11
-752.8738769539627
 21
969.9015826351473
 31
0.0
  0
LINE
  5
444D
330
19
100
AcDbEntity
  8
1
100
AcDbLine
 10
-751.3738769539627
 20
971.4015826351472
 30
0.0
 11
-751.3738769539627
 21
968.5280058147617
 31
0.0
  0
LINE
  5
444E
330
19
100
AcDbEntity
  8
1
100
AcDbLine
 10
-751.3738769539627
 20
971.4015826351472
 30
0.0
 11
-737.8738769539627
 21
971.4015826351474
 31
0.0
  0
LINE
  5
444F
330
19
100
AcDbEntity
  8
1
  6
HIDDEN
100
AcDbLine
 10
-661.3738769539627
 20
914.8759971347306
 30
0.0
 11
-682.8738769539627
 21
914.8759971347306
 31
0.0
  0
LINE
  5
4451
330
19
100
AcDbEntity
  8
1
100
AcDbLine
 10
-618.5926632810492
 20
881.0561622111608
 30
0.0
 11
-617.1309190044682
 21
881.392768316101
 31
0.0
  0
LINE
  5
4452
330
19
100
AcDbEntity
  8
1
100
AcDbLine
 10
-696.2435059471972
 20
965.3798495090203
 30
0.0
 11
-633.3738769539627
 21
965.3798495090198
 31
0.0
  0
ARC
  5
4453
330
19
100
AcDbEntity
  8
1
100
AcDbCircle
 10
-739.1050320503111
 20
793.630001570441
 30
0.0
 40
177.0172892313433
100
AcDbArc
 50
63.41083917553191
 51
84.73901801120318
  0
ARC
  5
4454
330
19
100
AcDbEntity
  8
1
100
AcDbCircle
 10
-739.1050320503111
 20
793.630001570441
 30
0.0
 40
175.5172892313433
100
AcDbArc
 50
63.71292569858756
 51
85.1855050850767
  0
LINE
  5
4455
330
19
100
AcDbEntity
  8
1
100
AcDbLine
 10
-724.3738769539627
 20
971.4015826351472
 30
0.0
 11
-724.3738769539627
 21
968.5280058147617
 31
0.0
  0
LINE
  5
4456
330
19
100
AcDbEntity
  8
1
100
AcDbLine
 10
-722.8738769539627
 20
972.9015826351474
 30
0.0
 11
-722.8738769539627
 21
969.9015826351473
 31
0.0
  0
LINE
  5
4457
330
19
100
AcDbEntity
  8
1
100
AcDbLine
 10
-633.3738769539627
 20
985.9015826351473
 30
0.0
 11
-633.3738769539627
 21
975.9015826351497
 31
0.0
  0
LINE
  5
4458
330
19
100
AcDbEntity
  8
1
100
AcDbLine
 10
-630.3738769539627
 20
985.9015826351473
 30
0.0
 11
-630.3738769539627
 21
972.8971835746904
 31
0.0
  0
ARC
  5
4459
330
19
100
AcDbEntity
  8
1
100
AcDbCircle
 10
-633.1871713180881
 20
970.6407160720843
 30
0.0
 40
5.264178567337951
100
AcDbArc
 50
92.032546738044
 51
267.9674532619559
  0
LINE
  5
445A
330
19
100
AcDbEntity
  8
1
100
AcDbLine
 10
-633.3738769539627
 20
972.8971835746904
 30
0.0
 11
-630.3738769539627
 21
972.8971835746904
 31
0.0
  0
LINE
  5
445B
330
19
100
AcDbEntity
  8
1
100
AcDbLine
 10
-633.3738769539627
 20
968.3842485694786
 30
0.0
 11
-630.3738769539627
 21
968.3842485694782
 31
0.0
  0
ARC
  5
445C
330
19
100
AcDbEntity
  8
1
100
AcDbCircle
 10
-633.1871713180881
 20
970.6407160720843
 30
0.0
 40
2.264178567337951
100
AcDbArc
 50
85.26998193142302
 51
274.7300180683026
  0
LINE
  5
4484
330
19
100
AcDbEntity
  8
1
100
AcDbLine
 10
-792.8738769539627
 20
860.9015826351473
 30
0.0
 11
-792.8738769539627
 21
710.9015826351472
 31
0.0
  0
LINE
  5
4485
330
19
100
AcDbEntity
  8
1
100
AcDbLine
 10
-682.8738769539627
 20
860.9015826351473
 30
0.0
 11
-682.8738769539627
 21
710.9015826351472
 31
0.0
  0
LINE
  5
4486
330
19
100
AcDbEntity
  8
1
  6
HIDDEN
100
AcDbLine
 10
-684.3738769539627
 20
860.9015826351473
 30
0.0
 11
-684.3738769539627
 21
910.9015826351473
 31
0.0
  0
LINE
  5
448A
330
19
100
AcDbEntity
  8
1
  6
HIDDEN
100
AcDbLine
 10
-792.8738769539627
 20
869.8759971347305
 30
0.0
 11
-798.3867315751353
 21
860.9015826351473
 31
0.0
  0
LINE
  5
448C
330
19
100
AcDbEntity
  8
1
  6
HIDDEN
100
AcDbLine
 10
-677.3610223327901
 20
860.9015826351473
 30
0.0
 11
-682.8738769539627
 21
869.8759971347305
 31
0.0
  0
DIMENSION
  5
448D
330
19
100
AcDbEntity
  8
1
100
AcDbDimension
  2
*D0
 10
-682.8738769539627
 20
684.0504702870068
 30
0.0
 11
-737.8738769539627
 21
693.4343518659541
 31
0.0
 70
    32
  1
OUTLET
 71
     5
 42
110.0
  3
STANDARD
100
AcDbAlignedDimension
 13
-792.8738769539627
 23
710.9015826351472
 33
0.0
 14
-682.8738769539627
 24
710.9015826351472
 34
0.0
100
AcDbRotatedDimension
1001
ACAD
1000
DSTYLE
1002
{
1070
     4
1000
mm
1070
    40
1040
45.0
1070
    41
1040
0.23
1070
    42
1040
0.12
1070
    77
1070
     1
1070
   140
1040
0.23
1070
   141
1040
0.0
1070
   171
1070
     0
1070
   271
1070
     0
1070
   272
1070
     0
1070
   274
1070
     0
1002
}
  0
DIMENSION
  5
44B6
330
19
100
AcDbEntity
  8
1
100
AcDbDimension
  2
*D1
 10
-889.6347377223849
 20
830.9015826351474
 30
0.0
 11
-889.6347377223854
 21
908.4015826351473
 31
0.0
 70
    32
  1
H
 71
     5
 42
155.0
  3
STANDARD
100
AcDbAlignedDimension
 13
-845.3738769539627
 23
985.9015826351473
 33
0.0
 14
-852.8738769539629
 24
830.9015826351474
 34
0.0
 50
90.0
100
AcDbRotatedDimension
1001
ACAD
1000
DSTYLE
1002
{
1070
     4
1000
mm
1070
    40
1040
45.0
1070
    41
1040
0.23
1070
    42
1040
0.12
1070
    77
1070
     1
1070
   140
1040
0.23
1070
   141
1040
0.0
1070
   171
1070
     0
1070
   271
1070
     0
1070
   272
1070
     0
1070
   274
1070
     0
1002
}
  0
DIMENSION
  5
44D2
330
19
100
AcDbEntity
  8
1
100
AcDbDimension
  2
*D2
 10
-630.3738769539627
 20
1002.308381607308
 30
0.0
 11
-737.8738769539627
 21
1011.593907923096
 31
0.0
 70
    32
  1
D1
 71
     5
 42
215.0
  3
STANDARD
100
AcDbAlignedDimension
 13
-845.3738769539627
 23
985.9015826351473
 33
0.0
 14
-630.3738769539627
 24
985.9015826351473
 34
0.0
100
AcDbRotatedDimension
1001
ACAD
1000
DSTYLE
1002
{
1070
     4
1000
mm
1070
    40
1040
45.0
1070
    41
1040
0.23
1070
    42
1040
0.12
1070
    77
1070
     1
1070
   140
1040
0.23
1070
   141
1040
0.0
1070
   171
1070
     0
1070
   271
1070
     0
1070
   272
1070
     0
1070
   274
1070
     0
1002
}
  0
LINE
  5
4516
330
19
100
AcDbEntity
  8
1
100
AcDbLine
 10
-816.5124614699546
 20
830.9015826351474
 30
0.0
 11
-792.8738769539627
 21
830.9015826351474
 31
0.0
  0
LINE
  5
4517
330
19
100
AcDbEntity
  8
1
100
AcDbLine
 10
-659.2352924379736
 20
830.9015826351474
 30
0.0
 11
-682.8738769539627
 21
830.9015826351474
 31
0.0
  0
LEADER
  5
4594
330
19
100
AcDbEntity
  8
1
100
AcDbLeader
  3
STANDARD
 73
     0
 74
     0
 75
     1
 40
24.27631578947368
 41
92.02631578947368
 76
     3
 10
-657.0581517299736
 20
935.0133065638596
 30
0.0
 10
-623.4699071458737
 20
958.3199222062512
 30
0.0
 10
-613.1199071458738
 20
958.3199222062512
 30
0.0
340
4595
213
0.0
223
-5.174999999999998
233
0.0
1001
ACAD
1000
DSTYLE
1002
{
1070
   147
1040
0.09
1070
     4
1000
mm
1070
    40
1040
45.0
1070
    41
1040
0.23
1070
    42
1040
0.12
1070
    77
1070
     0
1070
   140
1040
0.23
1070
   141
1040
0.0
1070
   171
1070
     0
1070
   271
1070
     0
1070
   272
1070
     0
1070
   274
1070
     0
1002
}
  0
MTEXT
  5
4595
102
{ACAD_REACTORS
330
4594
102
}
330
19
100
AcDbEntity
  8
1
100
AcDbMText
 10
-609.0699071458739
 20
963.4949222062507
 30
0.0
 40
9.0
 41
0.0
 71
     1
 72
     1
  1
REMOVABLE \PFOUL AIR TRAP
 73
     1
 44
1.0
  0
ARC
  5
46D7
330
19
100
AcDbEntity
  8
1
100
AcDbCircle
 10
-239.5982947802854
 20
834.3815826351471
 30
-0.0000000523218922
 40
17.64
100
AcDbArc
 50
270.0
 51
0.0
  0
ARC
  5
46D8
330
19
100
AcDbEntity
  8
1
100
AcDbCircle
 10
-339.9424159852934
 20
783.8680481360762
 30
0.0
 40
154.8062491020448
100
AcDbArc
 50
94.81449491492329
 51
116.2870743014124
  0
ARC
  5
46D9
330
19
100
AcDbEntity
  8
1
100
AcDbCircle
 10
-339.9424159852934
 20
783.8680481360762
 30
0.0
 40
156.1292491020447
100
AcDbArc
 50
95.26098198879681
 51
116.5891608244681
  0
LINE
  5
46DA
330
19
100
AcDbEntity
  8
1
100
AcDbLine
 10
-408.5012947802726
 20
843.2015826351468
 30
0.0
 11
-273.5552947802726
 21
843.2015826351468
 31
0.0
  0
INSERT
  5
46DB
330
19
100
AcDbEntity
  8
1
100
AcDbBlockReference
  2
LADDER2
 10
-480.1645482865631
 20
-267.3023832334683
 30
-0.0000000002952502
 41
0.882
 42
0.882
 43
0.882
  0
DIMENSION
  5
46DC
330
19
100
AcDbEntity
  8
1
100
AcDbDimension
  2
*D4
 10
-221.9582947802854
 20
759.045530134712
 30
-0.000000000232317
 11
-341.0282947802791
 21
759.045530134712
 31
-0.000000000232317
 70
   160
  1
D2
 71
     5
 42
238.139999999987
  3
STANDARD
100
AcDbAlignedDimension
 13
-460.0982947802727
 23
817.724243297745
 33
-0.0000000004744775
 14
-221.9582947802854
 24
817.724243297758
 34
-0.0000000005269035
100
AcDbRotatedDimension
1001
ACAD
1000
DSTYLE
1002
{
1070
     4
1000
mm
1070
    40
1040
45.0
1070
    41
1040
0.23
1070
    42
1040
0.12
1070
    77
1070
     1
1070
   140
1040
0.23
1070
   141
1040
0.0
1070
   171
1070
     0
1070
   271
1070
     0
1070
   272
1070
     0
1070
   274
1070
     0
1002
}
  0
DIMENSION
  5
46DD
330
19
100
AcDbEntity
  8
1
100
AcDbDimension
  2
*D5
 10
-195.4982947802727
 20
1015.570594691146
 30
-0.000000000232317
 11
-341.0282947802854
 21
1024.856121006934
 31
-0.000000000232317
 70
    32
  1
D1
 71
     5
 42
291.0600000000256
  3
STANDARD
100
AcDbAlignedDimension
 13
-486.5582947802984
 23
993.187705616534
 33
0.0000000000003375
 14
-195.4982947802727
 24
993.1877056165212
 34
0.0000000000629554
100
AcDbRotatedDimension
1001
ACAD
1000
DSTYLE
1002
{
1070
     4
1000
mm
1070
    40
1040
45.0
1070
    41
1040
0.23
1070
    42
1040
0.12
1070
    77
1070
     1
1070
   140
1040
0.23
1070
   141
1040
0.0
1070
   171
1070
     0
1070
   271
1070
     0
1070
   272
1070
     0
1070
   274
1070
     0
1002
}
  0
DIMENSION
  5
46DF
330
19
100
AcDbEntity
  8
1
100
AcDbDimension
  2
*D6
 10
-292.5182947802726
 20
683.5659297309766
 30
-0.000000000232317
 11
-341.0282947802727
 21
692.9498113099241
 31
-0.000000000232317
 70
    32
  1
OUTLET
 71
     5
 42
97.01999999999998
  3
STANDARD
100
AcDbAlignedDimension
 13
-389.5382947802727
 23
710.9015826351472
 33
0.0
 14
-292.5182947802726
 24
710.9015826351472
 34
0.0
100
AcDbRotatedDimension
1001
ACAD
1000
DSTYLE
1002
{
1070
     4
1000
mm
1070
    40
1040
45.0
1070
    41
1040
0.23
1070
    42
1040
0.12
1070
    77
1070
     1
1070
   140
1040
0.23
1070
   141
1040
0.0
1070
   171
1070
     0
1070
   271
1070
     0
1070
   272
1070
     0
1070
   274
1070
     0
1002
}
  0
LINE
  5
46E0
330
19
100
AcDbEntity
  8
1
100
AcDbLine
 10
-408.5012947802726
 20
843.2015826351468
 30
0.0
 11
-273.5552947802726
 21
843.2015826351468
 31
0.0
  0
LINE
  5
46E1
330
19
100
AcDbEntity
  8
1
  6
HIDDEN
100
AcDbLine
 10
-389.5382947802727
 20
887.3015826351474
 30
0.0
 11
-292.5182947802726
 21
887.3015826351469
 31
0.0
  0
LINE
  5
46E2
330
19
100
AcDbEntity
  8
1
100
AcDbLine
 10
-292.5182947802726
 20
710.9015826351472
 30
0.0
 11
-389.5382947802727
 21
710.9015826351472
 31
0.0
  0
LINE
  5
46E3
330
19
100
AcDbEntity
  8
1
100
AcDbLine
 10
-460.0982947802854
 20
970.2557056165339
 30
0.0000000000000222
 11
-221.9582947802854
 21
970.2557056165339
 31
0.0000000000000222
  0
LINE
  5
46E4
330
19
100
AcDbEntity
  8
1
100
AcDbLine
 10
-408.5012947802726
 20
843.2015826351468
 30
0.0
 11
-408.5012947802726
 21
922.665219935143
 31
0.0
  0
LINE
  5
46E5
330
19
100
AcDbEntity
  8
1
100
AcDbLine
 10
-409.8242947802726
 20
843.2015826351468
 30
0.0
 11
-409.8242947802726
 21
923.4849004185001
 31
0.0
  0
LINE
  5
46E6
330
19
100
AcDbEntity
  8
1
100
AcDbLine
 10
-408.5012947802726
 20
843.2015826351468
 30
0.0
 11
-408.5012947802726
 21
922.665219935143
 31
0.0
  0
LINE
  5
46E7
330
19
100
AcDbEntity
  8
1
100
AcDbLine
 10
-409.8242947802726
 20
843.2015826351468
 30
0.0
 11
-409.8242947802726
 21
923.4849004185001
 31
0.0
  0
LINE
  5
46E8
330
19
100
AcDbEntity
  8
1
100
AcDbLine
 10
-409.8242947802726
 20
843.2015826351468
 30
0.0
 11
-409.8242947802728
 21
894.3575826351475
 31
0.0
  0
DIMENSION
  5
46E9
330
19
100
AcDbEntity
  8
1
100
AcDbDimension
  2
*D7
 10
-507.0659705648473
 20
993.187705616534
 30
-0.000000000232317
 11
-507.0659705648476
 21
904.9646441258403
 31
-0.000000000232317
 70
    32
  1
H
 71
     5
 42
176.4461229813864
  3
STANDARD
100
AcDbAlignedDimension
 13
-442.4582947802598
 23
816.7415826351474
 33
-0.0000000003613648
 14
-486.5582947802984
 24
993.187705616534
 34
0.0000000000003375
 50
90.0
100
AcDbRotatedDimension
1001
ACAD
1000
DSTYLE
1002
{
1070
     4
1000
mm
1070
    40
1040
45.0
1070
    41
1040
0.23
1070
    42
1040
0.12
1070
    77
1070
     1
1070
   140
1040
0.23
1070
   141
1040
0.0
1070
   171
1070
     0
1070
   271
1070
     0
1070
   272
1070
     0
1070
   274
1070
     0
1002
}
  0
LINE
  5
46EA
330
19
100
AcDbEntity
  8
1
100
AcDbLine
 10
-408.5012947802726
 20
820.2470162237796
 30
0.0
 11
-408.5012947802726
 21
890.8070162237795
 31
0.0
  0
LINE
  5
46EB
330
19
100
AcDbEntity
  8
1
100
AcDbLine
 10
-409.8242947802726
 20
843.2015826351468
 30
0.0
 11
-409.8242947802728
 21
894.3575826351475
 31
0.0
  0
LINE
  5
46EC
330
19
100
AcDbEntity
  8
1
100
AcDbLine
 10
-408.5012947802726
 20
843.2015826351468
 30
0.0
 11
-408.5012947802726
 21
895.7572943829807
 31
0.0
  0
LINE
  5
46ED
330
19
100
AcDbEntity
  8
1
  6
HIDDEN
100
AcDbLine
 10
-389.5382947802727
 20
890.8070162237795
 30
0.0
 11
-389.5382947802729
 21
843.2015826351474
 31
0.0
  0
LINE
  5
46EE
330
19
100
AcDbEntity
  8
1
100
AcDbLine
 10
-458.3342947802856
 20
970.2557056165339
 30
0.0000000000003376
 11
-458.3342947802768
 21
954.0194467975382
 31
-0.0000000001588031
  0
LINE
  5
46EF
330
19
100
AcDbEntity
  8
1
100
AcDbLine
 10
-460.0982947802727
 20
834.3815826351471
 30
-0.0000000004744775
 11
-460.0982947802888
 21
947.8512412948472
 31
-0.0000000001750781
  0
LINE
  5
46F1
330
19
100
AcDbEntity
  8
1
100
AcDbLine
 10
-388.2152947802726
 20
843.2015826351474
 30
0.0
 11
-388.2152947802726
 21
710.9015826351472
 31
0.0
  0
LINE
  5
46F2
330
19
100
AcDbEntity
  8
1
100
AcDbLine
 10
-389.5382947802729
 20
843.2015826351474
 30
0.0
 11
-389.5382947802727
 21
710.9015826351472
 31
0.0
  0
LINE
  5
46F3
330
19
100
AcDbEntity
  8
1
100
AcDbLine
 10
-442.4582947802726
 20
818.5055826351602
 30
-0.0000000005671741
 11
-413.9512268809548
 21
818.505582635159
 31
-0.0000000006356658
  0
LINE
  5
46F4
330
19
100
AcDbEntity
  8
1
100
AcDbLine
 10
-442.4582947802598
 20
816.7415826351474
 30
-0.0000000003613648
 11
-389.5382947802729
 21
816.7415826351474
 31
-0.0000000001892863
  0
ARC
  5
46F5
330
19
100
AcDbEntity
  8
1
100
AcDbCircle
 10
-442.4582947802854
 20
834.3815826351599
 30
-0.0000000021423028
 40
15.876
210
0.000000000003159
220
-0.0000000000002167
230
1.0
100
AcDbArc
 50
180.0
 51
270.0
  0
ARC
  5
46F6
330
19
100
AcDbEntity
  8
1
100
AcDbCircle
 10
-442.4582947802598
 20
834.3815826351471
 30
0.0000000012089185
 40
17.64
210
-0.0000000000034886
220
0.0000000000000327
230
1.0
100
AcDbArc
 50
180.0
 51
270.0
  0
LINE
  5
46F7
330
19
100
AcDbEntity
  8
1
100
AcDbLine
 10
-408.5012947802726
 20
843.2015826351468
 30
0.0
 11
-409.8242947802726
 21
843.2015826351468
 31
0.0
  0
LINE
  5
46F8
330
19
100
AcDbEntity
  8
1
100
AcDbLine
 10
-410.3875263233775
 20
816.7415826351474
 30
0.0
 11
-389.5382947802729
 21
816.7415826351474
 31
0.0
  0
ARC
  5
46F9
330
19
100
AcDbEntity
  8
1
100
AcDbCircle
 10
-421.6743369037804
 20
852.0742475760952
 30
0.0
 40
37.09163389373929
100
AcDbArc
 50
287.7157736622211
 51
330.0424910457394
  0
ARC
  5
46FA
330
19
100
AcDbEntity
  8
1
100
AcDbCircle
 10
-421.6743369037804
 20
852.0742475760952
 30
0.0
 40
34.44563389373929
100
AcDbArc
 50
282.9565206131245
 51
330.0424910457394
  0
LINE
  5
46FB
330
19
100
AcDbEntity
  8
1
  6
HIDDEN
100
AcDbLine
 10
-388.2152947802726
 20
887.3015826351474
 30
0.0
 11
-388.2152947802726
 21
843.2015826351474
 31
0.0
  0
LINE
  5
46FC
330
19
100
AcDbEntity
  8
1
100
AcDbLine
 10
-408.5012947802726
 20
887.3015826351469
 30
0.0
 11
-408.5012947802726
 21
820.2470162237796
 31
0.0
  0
LINE
  5
46FD
330
19
100
AcDbEntity
  8
1
  6
HIDDEN
100
AcDbLine
 10
-389.5382947802727
 20
851.1170162237796
 30
0.0
 11
-394.4006325561471
 21
843.2015826351474
 31
0.0
  0
LINE
  5
46FE
330
19
100
AcDbEntity
  8
1
100
AcDbLine
 10
-394.4006325561471
 20
843.2015826351474
 30
0.0
 11
-408.5012947802726
 21
820.2470162237796
 31
0.0
  0
LINE
  5
46FF
330
19
100
AcDbEntity
  8
1
100
AcDbLine
 10
-389.5382947802727
 20
833.5522579004875
 30
0.0
 11
-391.8307785166968
 21
834.8735581382188
 31
0.0
  0
ARC
  5
4700
330
19
100
AcDbEntity
  8
1
100
AcDbCircle
 10
-389.5382947802727
 20
833.5522579004875
 30
0.0
 40
2.645999999999814
100
AcDbArc
 50
90.0
 51
150.0424910457395
  0
HATCH
  5
4701
330
19
100
AcDbEntity
  8
1
100
AcDbHatch
 10
0.0
 20
0.0
 30
0.0
210
0.0
220
0.0
230
1.0
  2
ANSI31
 70
     0
 71
     0
 91
        1
 92
        7
 72
     1
 73
     1
 93
        3
 10
-389.5957976670482
 20
836.1856545935077
 42
0.0
 10
-389.5957976670482
 20
833.5396545935079
 42
0.0
 10
-391.8882814034726
 20
834.8609548312397
 42
-0.2681479157447428
 97
        0
 75
     0
 76
     1
 52
0.0
 41
1.764
 77
     0
 78
     1
 53
135.0
 43
-46.21788128530021
 44
236.2814607409268
 45
0.1559170452516337
 46
0.1559170452516337
 79
     0
 47
0.0246687159281208
 98
        1
 10
-390.7891119053038
 20
834.9985023127041
  0
LINE
  5
4702
330
19
100
AcDbEntity
  8
1
100
AcDbLine
 10
-470.6822947802983
 20
968.4917056165339
 30
0.0000000000003375
 11
-460.0982947802983
 21
968.4917056165339
 31
0.0000000000003375
  0
LINE
  5
4703
330
19
100
AcDbEntity
  8
1
100
AcDbLine
 10
-468.9182947802983
 20
970.2557056165339
 30
0.0000000000003375
 11
-460.0982947802983
 21
970.2557056165339
 31
0.0000000000003375
  0
LINE
  5
4704
330
19
100
AcDbEntity
  8
1
100
AcDbLine
 10
-486.5582947802984
 20
993.187705616534
 30
0.0000000000003375
 11
-468.9182947802983
 21
993.187705616534
 31
0.0000000000003375
  0
LINE
  5
4705
330
19
100
AcDbEntity
  8
1
100
AcDbLine
 10
-484.7942947802984
 20
991.423705616534
 30
0.0000000000003375
 11
-470.6822947802983
 21
991.423705616534
 31
0.0000000000003375
  0
LINE
  5
4706
330
19
100
AcDbEntity
  8
1
100
AcDbLine
 10
-484.7942947802984
 20
982.603705616534
 30
0.0000000000003375
 11
-484.7942947802984
 21
991.423705616534
 31
0.0000000000003375
  0
LINE
  5
4707
330
19
100
AcDbEntity
  8
1
100
AcDbLine
 10
-486.5582947802984
 20
982.603705616534
 30
0.0000000000003375
 11
-486.5582947802984
 21
993.187705616534
 31
0.0000000000003375
  0
LINE
  5
4708
330
19
100
AcDbEntity
  8
1
100
AcDbLine
 10
-486.5582947802984
 20
982.603705616534
 30
0.0000000000003375
 11
-484.7942947802984
 21
982.603705616534
 31
0.0000000000003375
  0
LINE
  5
4709
330
19
100
AcDbEntity
  8
1
100
AcDbLine
 10
-468.9182947802983
 20
993.187705616534
 30
0.0000000000003375
 11
-468.9182947802983
 21
970.2557056165339
 31
0.0000000000003375
  0
LINE
  5
470A
330
19
100
AcDbEntity
  8
1
100
AcDbLine
 10
-470.6822947802983
 20
991.423705616534
 30
0.0000000000003375
 11
-470.6822947802983
 21
968.4917056165339
 31
0.0000000000003375
  0
LINE
  5
470B
330
19
100
AcDbEntity
  8
1
100
AcDbLine
 10
-468.9182947802983
 20
970.2557056165339
 30
0.0000000000003375
 11
-468.0362947802983
 21
970.2557056165339
 31
0.0000000000003375
  0
LINE
  5
470C
330
19
100
AcDbEntity
  8
1
  6
HIDDEN
100
AcDbLine
 10
-408.5012947802726
 20
890.8070162237795
 30
0.0
 11
-389.5382947802727
 21
890.8070162237795
 31
0.0
  0
LINE
  5
470D
330
19
100
AcDbEntity
  8
1
100
AcDbLine
 10
-272.2322947802727
 20
843.2015826351468
 30
0.0
 11
-272.2322947802727
 21
923.4849004185001
 31
0.0
  0
LINE
  5
470E
330
19
100
AcDbEntity
  8
1
100
AcDbLine
 10
-273.5552947802726
 20
843.2015826351468
 30
0.0
 11
-273.5552947802726
 21
922.665219935143
 31
0.0
  0
LINE
  5
470F
330
19
100
AcDbEntity
  8
1
  6
HIDDEN
100
AcDbLine
 10
-292.5182947802726
 20
890.8070162237795
 30
0.0
 11
-292.5182947802726
 21
843.2015826351474
 31
0.0
  0
LINE
  5
4710
330
19
100
AcDbEntity
  8
1
100
AcDbLine
 10
-273.5552947802726
 20
820.2470162237796
 30
0.0
 11
-273.5552947802726
 21
890.8070162237795
 31
0.0
  0
LINE
  5
4711
330
19
100
AcDbEntity
  8
1
100
AcDbLine
 10
-272.2322947802727
 20
843.2015826351468
 30
0.0
 11
-272.2322947802727
 21
923.4849004185001
 31
0.0
  0
LINE
  5
4712
330
19
100
AcDbEntity
  8
1
100
AcDbLine
 10
-273.5552947802726
 20
843.2015826351468
 30
0.0
 11
-273.5552947802726
 21
922.665219935143
 31
0.0
  0
LINE
  5
4713
330
19
100
AcDbEntity
  8
1
100
AcDbLine
 10
-221.9582947802599
 20
970.2557056165339
 30
0.0000000000629554
 11
-221.9582947802685
 21
954.0194467975382
 31
-0.0000000001347432
  0
LINE
  5
4714
330
19
100
AcDbEntity
  8
1
100
AcDbLine
 10
-223.722294780247
 20
970.2557056165339
 30
0.00000000002338
 11
-223.7222947802556
 21
954.0194467975382
 31
-0.0000000001358432
  0
LINE
  5
4715
330
19
100
AcDbEntity
  8
1
100
AcDbLine
 10
-268.1053626795475
 20
818.5055826351488
 30
-0.0000000011430665
 11
-239.5982947802727
 21
818.5055826351472
 31
-0.0000000012115582
  0
LINE
  5
4716
330
19
100
AcDbEntity
  8
1
100
AcDbLine
 10
-292.5182947802726
 20
816.7415826351474
 30
0.0000000001892863
 11
-239.5982947802854
 21
816.7415826351474
 31
0.0000000003613648
  0
LINE
  5
4717
330
19
100
AcDbEntity
  8
1
100
AcDbLine
 10
-293.8412947802726
 20
843.2015826351474
 30
0.0
 11
-293.8412947802726
 21
710.9015826351472
 31
0.0
  0
LINE
  5
4718
330
19
100
AcDbEntity
  8
1
100
AcDbLine
 10
-292.5182947802726
 20
843.2015826351474
 30
0.0
 11
-292.5182947802726
 21
710.9015826351472
 31
0.0
  0
ARC
  5
4719
330
19
100
AcDbEntity
  8
1
100
AcDbCircle
 10
-260.382252656765
 20
852.0742475760952
 30
0.0
 40
37.09163389373929
100
AcDbArc
 50
209.9575089542604
 51
252.2842263377788
  0
LINE
  5
471A
330
19
100
AcDbEntity
  8
1
  6
HIDDEN
100
AcDbLine
 10
-293.8412947802726
 20
843.2015826351474
 30
0.0
 11
-293.8412947802726
 21
887.3015826351469
 31
0.0
  0
LINE
  5
471B
330
19
100
AcDbEntity
  8
1
  6
HIDDEN
100
AcDbLine
 10
-287.6559570043986
 20
843.2015826351474
 30
0.0
 11
-292.5182947802726
 21
851.1170162237796
 31
0.0
  0
LINE
  5
471C
330
19
100
AcDbEntity
  8
1
100
AcDbLine
 10
-287.6559570043986
 20
843.2015826351474
 30
0.0
 11
-273.5552947802726
 21
820.2470162237796
 31
0.0
  0
LINE
  5
471D
330
19
100
AcDbEntity
  8
1
100
AcDbLine
 10
-271.6690632371702
 20
816.7415826351474
 30
0.0
 11
-292.5182947802726
 21
816.7415826351474
 31
0.0
  0
ARC
  5
471E
330
19
100
AcDbEntity
  8
1
100
AcDbCircle
 10
-260.382252656765
 20
852.0742475760952
 30
0.0
 40
34.44563389373929
100
AcDbArc
 50
209.9575089542604
 51
257.0434793869291
  0
ARC
  5
471F
330
19
100
AcDbEntity
  8
1
100
AcDbCircle
 10
-292.5182947802726
 20
833.5522579004875
 30
0.0
 40
2.645999999999814
100
AcDbArc
 50
29.95750895426051
 51
90.0
  0
LINE
  5
4720
330
19
100
AcDbEntity
  8
1
100
AcDbLine
 10
-292.5182947802726
 20
833.5522579004875
 30
0.0
 11
-290.2258110438483
 21
834.8735581382188
 31
0.0
  0
HATCH
  5
4721
330
19
100
AcDbEntity
  8
1
100
AcDbHatch
 10
0.0
 20
0.0
 30
0.0
210
0.0
220
0.0
230
1.0
  2
ANSI31
 70
     0
 71
     0
 91
        1
 92
        7
 72
     1
 73
     1
 93
        3
 10
-292.4864445518353
 20
836.1987591598508
 42
0.0
 10
-292.4864445518353
 20
833.5527591598506
 42
0.0
 10
-290.1939608154108
 20
834.8740593975826
 42
0.2681479157447428
 97
        0
 75
     0
 76
     1
 52
0.0
 41
1.764
 77
     0
 78
     1
 53
45.0
 43
-635.8643609335831
 44
236.2945653072693
 45
-0.1559170452516337
 46
0.1559170452516337
 79
     0
 47
0.0246687159281208
 98
        1
 10
-291.2931303135796
 20
835.0116068790466
  0
LINE
  5
4722
330
19
100
AcDbEntity
  8
1
100
AcDbLine
 10
-273.5552947802726
 20
843.2015826351468
 30
0.0
 11
-272.2322947802727
 21
843.2015826351468
 31
0.0
  0
ARC
  5
4723
330
19
100
AcDbEntity
  8
1
100
AcDbCircle
 10
-239.5982947802854
 20
834.3815826351344
 30
0.000000031730874
 40
15.876
100
AcDbArc
 50
270.0
 51
0.0
  0
ARC
  5
4724
330
19
100
AcDbEntity
  8
1
100
AcDbCircle
 10
-342.1141735752519
 20
783.8680481360762
 30
0.0
 40
156.1292491020447
100
AcDbArc
 50
63.41083917553191
 51
84.73901801120318
  0
ARC
  5
4725
330
19
100
AcDbEntity
  8
1
100
AcDbCircle
 10
-342.1141735752519
 20
783.8680481360762
 30
0.0
 40
154.8062491020448
100
AcDbArc
 50
63.71292569858756
 51
85.1855050850767
  0
LINE
  5
4726
330
19
100
AcDbEntity
  8
1
100
AcDbLine
 10
-352.9352947802726
 20
940.6625826351469
 30
0.0
 11
-341.0282947802727
 21
940.6625826351474
 31
0.0
  0
LINE
  5
4727
330
19
100
AcDbEntity
  8
1
100
AcDbLine
 10
-354.2582947802726
 20
941.9855826351469
 30
0.0
 11
-341.0282947802727
 21
941.9855826351474
 31
0.0
  0
LINE
  5
4728
330
19
100
AcDbEntity
  8
1
100
AcDbLine
 10
-354.2582947802726
 20
941.9855826351474
 30
0.0
 11
-354.2582947802726
 21
939.3395826351474
 31
0.0
  0
LINE
  5
4729
330
19
100
AcDbEntity
  8
1
100
AcDbLine
 10
-352.9352947802726
 20
940.6625826351469
 30
0.0
 11
-352.9352947802726
 21
938.1280878795667
 31
0.0
  0
LINE
  5
472A
330
19
100
AcDbEntity
  8
1
100
AcDbLine
 10
-327.7982947802726
 20
941.9855826351469
 30
0.0
 11
-341.0282947802727
 21
941.9855826351474
 31
0.0
  0
LINE
  5
472B
330
19
100
AcDbEntity
  8
1
100
AcDbLine
 10
-329.1212947802726
 20
940.6625826351469
 30
0.0
 11
-341.0282947802727
 21
940.6625826351474
 31
0.0
  0
LINE
  5
472C
330
19
100
AcDbEntity
  8
1
100
AcDbLine
 10
-329.1212947802726
 20
940.6625826351469
 30
0.0
 11
-329.1212947802726
 21
938.1280878795667
 31
0.0
  0
LINE
  5
472D
330
19
100
AcDbEntity
  8
1
100
AcDbLine
 10
-327.7982947802726
 20
941.9855826351474
 30
0.0
 11
-327.7982947802726
 21
939.3395826351474
 31
0.0
  0
LINE
  5
472E
330
19
100
AcDbEntity
  8
1
  6
HIDDEN
100
AcDbLine
 10
-273.5552947802726
 20
890.8070162237795
 30
0.0
 11
-292.5182947802726
 21
890.8070162237795
 31
0.0
  0
LINE
  5
472F
330
19
100
AcDbEntity
  8
1
100
AcDbLine
 10
-197.2622947802726
 20
991.4237056165212
 30
0.0000000000629554
 11
-211.3742947802726
 21
991.4237056165212
 31
0.0000000000629554
  0
LINE
  5
4730
330
19
100
AcDbEntity
  8
1
100
AcDbLine
 10
-195.4982947802727
 20
993.1877056165212
 30
0.0000000000629554
 11
-213.1382947802726
 21
993.1877056165212
 31
0.0000000000629554
  0
LINE
  5
4731
330
19
100
AcDbEntity
  8
1
100
AcDbLine
 10
-213.1382947802726
 20
970.2557056165213
 30
0.0000000000629554
 11
-221.9582947802726
 21
970.2557056165213
 31
0.0000000000629554
  0
LINE
  5
4732
330
19
100
AcDbEntity
  8
1
100
AcDbLine
 10
-211.3742947802726
 20
968.4917056165213
 30
0.0000000000629554
 11
-221.9582947802726
 21
968.4917056165213
 31
0.0000000000629554
  0
LINE
  5
4733
330
19
100
AcDbEntity
  8
1
100
AcDbLine
 10
-211.3742947802726
 20
991.4237056165212
 30
0.0000000000629554
 11
-211.3742947802726
 21
968.4917056165213
 31
0.0000000000629554
  0
LINE
  5
4734
330
19
100
AcDbEntity
  8
1
100
AcDbLine
 10
-213.1382947802726
 20
993.1877056165212
 30
0.0000000000629554
 11
-213.1382947802726
 21
970.2557056165213
 31
0.0000000000629554
  0
LINE
  5
4735
330
19
100
AcDbEntity
  8
1
100
AcDbLine
 10
-213.1382947802726
 20
970.2557056165213
 30
0.0000000000629554
 11
-214.0202947802726
 21
970.2557056165213
 31
0.0000000000629554
  0
LINE
  5
4736
330
19
100
AcDbEntity
  8
1
100
AcDbLine
 10
-195.4982947802727
 20
982.603705616521
 30
0.0000000000629554
 11
-197.2622947802726
 21
982.603705616521
 31
0.0000000000629554
  0
LINE
  5
4737
330
19
100
AcDbEntity
  8
1
100
AcDbLine
 10
-195.4982947802727
 20
982.603705616521
 30
0.0000000000629554
 11
-195.4982947802727
 21
993.1877056165212
 31
0.0000000000629554
  0
LINE
  5
4738
330
19
100
AcDbEntity
  8
1
100
AcDbLine
 10
-197.2622947802726
 20
982.603705616521
 30
0.0000000000629554
 11
-197.2622947802726
 21
991.4237056165212
 31
0.0000000000629554
  0
LINE
  5
4834
330
19
100
AcDbEntity
  8
1
100
AcDbLine
 10
-477.5911662505271
 20
947.8512412948472
 30
0.0
 11
-342.4422274240466
 21
947.8512412948472
 31
0.0
  0
LINE
  5
4835
330
19
100
AcDbEntity
  8
1
100
AcDbLine
 10
-342.4422274240466
 20
947.8512412948472
 30
0.0
 11
-341.1684413882324
 21
951.7685198173223
 31
0.0
  0
LINE
  5
4836
330
19
100
AcDbEntity
  8
1
100
AcDbLine
 10
-339.8946553524181
 20
947.8512412948472
 30
0.0
 11
-341.1684413882324
 21
951.7685198173223
 31
0.0
  0
LINE
  5
4837
330
19
100
AcDbEntity
  8
1
100
AcDbLine
 10
-202.1981444543091
 20
947.8512412948472
 30
0.0
 11
-337.3470832807896
 21
947.8512412948472
 31
0.0
  0
LINE
  5
4838
330
19
100
AcDbEntity
  8
1
100
AcDbLine
 10
-339.8946553524181
 20
947.8512412948472
 30
0.0
 11
-338.620869316604
 21
943.933962772372
 31
0.0
  0
LINE
  5
4839
330
19
100
AcDbEntity
  8
1
100
AcDbLine
 10
-337.3470832807896
 20
947.8512412948472
 30
0.0
 11
-338.620869316604
 21
943.933962772372
 31
0.0
  0
LEADER
  5
483A
330
19
100
AcDbEntity
  8
1
100
AcDbLeader
  3
STANDARD
 73
     0
 75
     1
 40
24.27631578947368
 41
92.02631578947368
 76
     3
 10
-398.4752382493498
 20
869.3922607126918
 30
0.0
 10
-501.8444701914504
 20
785.4722337013598
 30
0.0
 10
-512.1944701914505
 20
785.4722337013598
 30
0.0
340
483B
1001
ACAD
1000
DSTYLE
1002
{
1070
   147
1040
0.09
1070
     4
1000
mm
1070
    40
1040
45.0
1070
    41
1040
0.23
1070
    42
1040
0.12
1070
    77
1070
     0
1070
   140
1040
0.23
1070
   141
1040
0.0
1070
   171
1070
     0
1070
   271
1070
     0
1070
   272
1070
     0
1070
   274
1070
     0
1002
}
  0
MTEXT
  5
483B
102
{ACAD_REACTORS
330
483A
102
}
330
19
100
AcDbEntity
  8
1
100
AcDbMText
 10
-516.2444701914503
 20
785.4722337013598
 30
0.0
 40
9.0
 41
0.0
 71
     6
 72
     1
  1
REMOVABLE \PFOUL AIR TRAP
 73
     1
 44
1.0
  0
LINE
  5
483C
330
19
100
AcDbEntity
  8
1
100
AcDbLine
 10
-202.1981444543091
 20
954.0194467975382
 30
0.0
 11
-337.3470832807896
 21
954.0194467975382
 31
0.0
  0
LINE
  5
483D
330
19
100
AcDbEntity
  8
1
100
AcDbLine
 10
-477.5911662505271
 20
954.0194467975382
 30
0.0
 11
-342.4422274240466
 21
954.0194467975382
 31
0.0
  0
LINE
  5
483E
330
19
100
AcDbEntity
  8
1
100
AcDbLine
 10
-339.8946553524181
 20
954.0194467975382
 30
0.0
 11
-341.1684413882324
 21
957.9367253200134
 31
0.0
  0
LINE
  5
483F
330
19
100
AcDbEntity
  8
1
100
AcDbLine
 10
-342.4422274240466
 20
954.0194467975382
 30
0.0
 11
-341.1684413882324
 21
957.9367253200134
 31
0.0
  0
LINE
  5
4840
330
19
100
AcDbEntity
  8
1
100
AcDbLine
 10
-337.3470832807896
 20
954.0194467975382
 30
0.0
 11
-338.620869316604
 21
950.1021682750634
 31
0.0
  0
LINE
  5
4841
330
19
100
AcDbEntity
  8
1
100
AcDbLine
 10
-339.8946553524181
 20
954.0194467975382
 30
0.0
 11
-338.620869316604
 21
950.1021682750634
 31
0.0
  0
LINE
  5
4842
330
19
100
AcDbEntity
  8
1
100
AcDbLine
 10
-460.0982947802896
 20
954.0194467975382
 30
-0.0000000001588027
 11
-460.0982947802983
 21
970.2557056165339
 31
0.0000000000003375
  0
LINE
  5
4843
330
19
100
AcDbEntity
  8
1
100
AcDbLine
 10
-458.334294780276
 20
947.8512412948472
 30
-0.0000000001750784
 11
-458.3342947802599
 21
834.3815826351471
 31
-0.0000000004744787
  0
LINE
  5
4844
330
19
100
AcDbEntity
  8
1
100
AcDbLine
 10
-221.9582947802694
 20
947.8512412948472
 30
-0.000000000154962
 11
-221.9582947802854
 21
834.3815826351599
 31
-0.0000000005269035
  0
LINE
  5
4845
330
19
100
AcDbEntity
  8
1
100
AcDbLine
 10
-223.7222947802564
 20
947.8512412948472
 30
-0.000000000152127
 11
-223.7222947802727
 21
834.3815826351471
 31
-0.0000000004516824
  0
MTEXT
  5
48C0
330
19
100
AcDbEntity
  8
1
100
AcDbMText
 10
-401.0291843280982
 20
657.1400759204675
 30
0.0
 40
11.0
 41
277.87
 71
     1
 72
     5
  1
{\fTechnicLite|b0|i0|c2|p2;KV ROUND RANGE}
  7
ROMANC
 73
     1
 44
1.0
  0
VIEWPORT
  5
3E4E
330
3E47
100
AcDbEntity
 67
     1
  8
0
100
AcDbViewport
 10
5.678333072211798
 20
3.966666563289372
 30
0.0
 40
18.02443831169918
 41
8.746133096049151
 68
     1
 69
     1
 12
5.678333072211798
 22
3.966666563289372
 13
0.0
 23
0.0
 14
10.0
 24
10.0
 15
10.0
 25
10.0
 16
0.0
 26
0.0
 36
1.0
 17
0.0
 27
0.0
 37
0.0
 42
50.0
 43
0.0
 44
0.0
 45
8.746133096049151
 50
0.0
 51
0.0
 72
 20000
 90
    32800
  1

281
     0
 71
     1
 74
     0
110
0.0
120
0.0
130
0.0
111
1.0
121
0.0
131
0.0
112
0.0
122
1.0
132
0.0
 79
     0
146
0.0
  0
ENDSEC
  0
SECTION
  2
OBJECTS
  0
DICTIONARY
  5
C
330
0
100
AcDbDictionary
281
     1
  3
ACAD_GROUP
350
D
  3
ACAD_LAYOUT
350
37B7
  3
ACAD_MLINESTYLE
350
E
  3
ACAD_PLOTSETTINGS
350
37B8
  3
ACAD_PLOTSTYLENAME
350
37B5
  3
ACDBVARIABLEDICTIONARY
350
C69
  0
DICTIONARY
  5
391B
330
19
100
AcDbDictionary
280
     1
281
     1
  3
ACAD_LAYOUTSELFREF
360
3E35
  0
DICTIONARY
  5
D
102
{ACAD_REACTORS
330
C
102
}
330
C
100
AcDbDictionary
281
     1
  0
DICTIONARY
  5
37B7
102
{ACAD_REACTORS
330
C
102
}
330
C
100
AcDbDictionary
281
     1
  3
Layout1
350
3E48
  3
Model
350
37B9
  0
DICTIONARY
  5
E
102
{ACAD_REACTORS
330
C
102
}
330
C
100
AcDbDictionary
281
     1
  3
STANDARD
350
12
  0
DICTIONARY
  5
37B8
102
{ACAD_REACTORS
330
C
102
}
330
C
100
AcDbDictionary
281
     1
  0
ACDBDICTIONARYWDFLT
  5
37B5
102
{ACAD_REACTORS
330
C
102
}
330
C
100
AcDbDictionary
281
     1
  3
Normal
350
37B6
100
AcDbDictionaryWithDefault
340
37B6
  0
DICTIONARY
  5
C69
102
{ACAD_REACTORS
330
C
102
}
330
C
100
AcDbDictionary
281
     1
  3
DIMASSOC
350
3E51
  3
SORTENTS
350
C6A
  0
XRECORD
  5
3E35
102
{ACAD_REACTORS
330
391B
102
}
330
391B
100
AcDbXrecord
280
     1
340
19
  0
LAYOUT
  5
3E48
102
{ACAD_REACTORS
330
37B7
102
}
330
37B7
100
AcDbPlotSettings
  1

  2
HP LaserJet 1200
  4
A4
  6

 40
4.233333110809326
 41
4.233341693878172
 42
7.789321899414062
 43
4.23333740234375
 44
209.9733276367186
 45
296.9259948730469
 46
0.0
 47
0.0
 48
0.0
 49
0.0
140
0.0
141
0.0
142
1.0
143
1.0
 70
   688
 72
     0
 73
     1
 74
     5
  7

 75
    16
147
1.0
148
0.0
149
0.0
100
AcDbLayout
  1
Layout1
 70
     1
 71
     1
 10
-0.1666668268639272
 20
-0.166666657905879
 11
11.52333297128752
 21
8.099999784484621
 12
0.0
 22
0.0
 32
0.0
 14
1.000000000000000E+20
 24
1.000000000000000E+20
 34
1.000000000000000E+20
 15
-1.000000000000000E+20
 25
-1.000000000000000E+20
 35
-1.000000000000000E+20
146
0.0
 13
0.0
 23
0.0
 33
0.0
 16
1.0
 26
0.0
 36
0.0
 17
0.0
 27
1.0
 37
0.0
 76
     0
330
3E47
331
3E4E
  0
LAYOUT
  5
37B9
102
{ACAD_REACTORS
330
37B7
102
}
330
37B7
100
AcDbPlotSettings
  1

  2
none_device
  4
Letter_(8.50_x_11.00_Inches)
  6

 40
6.349999904632567
 41
6.349999904632567
 42
6.350006103515625
 43
6.350006103515625
 44
215.8999938964842
 45
279.3999938964843
 46
0.0
 47
0.0
 48
0.0
 49
0.0
140
0.0
141
0.0
142
1.0
143
1.0
 70
 11952
 72
     0
 73
     1
 74
     0
  7

 75
     0
147
1.0
148
22009.97398741658
149
-18121.52369272841
100
AcDbLayout
  1
Model
 70
     1
 71
     0
 10
0.0
 20
0.0
 11
12.0
 21
9.0
 12
0.0
 22
0.0
 32
0.0
 14
0.0
 24
0.0
 34
0.0
 15
0.0
 25
0.0
 35
0.0
146
0.0
 13
0.0
 23
0.0
 33
0.0
 16
1.0
 26
0.0
 36
0.0
 17
0.0
 27
1.0
 37
0.0
 76
     0
330
19
  0
MLINESTYLE
  5
12
102
{ACAD_REACTORS
330
E
102
}
330
E
100
AcDbMlineStyle
  2
STANDARD
 70
     0
  3

 62
     0
 51
90.0
 52
90.0
 71
     2
 49
0.5
 62
   256
  6
BYLAYER
 49
-0.5
 62
   256
  6
BYLAYER
  0
ACDBPLACEHOLDER
  5
37B6
102
{ACAD_REACTORS
330
37B5
102
}
330
37B5
  0
DICTIONARYVAR
  5
3E51
102
{ACAD_REACTORS
330
C69
102
}
330
C69
100
DictionaryVariables
280
     0
  1
1
  0
DICTIONARYVAR
  5
C6A
102
{ACAD_REACTORS
330
C69
102
}
330
C69
100
DictionaryVariables
280
     0
  1
96
  0
ENDSEC
  0
EOF
