  0
SECTION
  2
HEADER
  9
$ACADVER
  1
AC1015
  9
$ACADMAINTVER
 70
    13
  9
$DWGCODEPAGE
  3
ANSI_1252
  9
$INSBASE
 10
0.0
 20
0.0
 30
0.0
  9
$EXTMIN
 10
1257.656076843603
 20
859.5213102461991
 30
-0.000000000000013
  9
$EXTMAX
 10
1658.648332454011
 20
923.2896423102367
 30
0.0000000000000023
  9
$LIMMIN
 10
-702.5638614136987
 20
157.8715568061255
  9
$LIMMAX
 10
-313.6316672333482
 20
442.5869997172253
  9
$ORTHOMODE
 70
     1
  9
$REGENMODE
 70
     1
  9
$FILLMODE
 70
     1
  9
$QTEXTMODE
 70
     0
  9
$MIRRTEXT
 70
     1
  9
$LTSCALE
 40
30.0
  9
$ATTMODE
 70
     1
  9
$TEXTSIZE
 40
4.009999999999998
  9
$TRACEWID
 40
0.05
  9
$TEXTSTYLE
  7
ROMANC
  9
$CLAYER
  8
1
  9
$CELTYPE
  6
BYLAYER
  9
$CECOLOR
 62
   256
  9
$CELTSCALE
 40
1.0
  9
$DISPSILH
 70
     0
  9
$DIMSCALE
 40
23.0
  9
$DIMASZ
 40
0.23
  9
$DIMEXO
 40
0.12
  9
$DIMDLI
 40
0.38
  9
$DIMRND
 40
0.0
  9
$DIMDLE
 40
0.0
  9
$DIMEXE
 40
0.18
  9
$DIMTP
 40
0.0
  9
$DIMTM
 40
0.0
  9
$DIMTXT
 40
0.23
  9
$DIMCEN
 40
0.0
  9
$DIMTSZ
 40
0.0
  9
$DIMTOL
 70
     0
  9
$DIMLIM
 70
     0
  9
$DIMTIH
 70
     1
  9
$DIMTOH
 70
     1
  9
$DIMSE1
 70
     0
  9
$DIMSE2
 70
     0
  9
$DIMTAD
 70
     1
  9
$DIMZIN
 70
     0
  9
$DIMBLK
  1

  9
$DIMASO
 70
     1
  9
$DIMSHO
 70
     0
  9
$DIMPOST
  1

  9
$DIMAPOST
  1
mm
  9
$DIMALT
 70
     0
  9
$DIMALTD
 70
     0
  9
$DIMALTF
 40
25.4
  9
$DIMLFAC
 40
1.0
  9
$DIMTOFL
 70
     0
  9
$DIMTVP
 40
0.0
  9
$DIMTIX
 70
     0
  9
$DIMSOXD
 70
     0
  9
$DIMSAH
 70
     0
  9
$DIMBLK1
  1

  9
$DIMBLK2
  1

  9
$DIMSTYLE
  2
STANDARD
  9
$DIMCLRD
 70
     0
  9
$DIMCLRE
 70
     0
  9
$DIMCLRT
 70
     0
  9
$DIMTFAC
 40
1.0
  9
$DIMGAP
 40
0.09
  9
$DIMJUST
 70
     0
  9
$DIMSD1
 70
     0
  9
$DIMSD2
 70
     0
  9
$DIMTOLJ
 70
     1
  9
$DIMTZIN
 70
     0
  9
$DIMALTZ
 70
     0
  9
$DIMALTTZ
 70
     0
  9
$DIMUPT
 70
     0
  9
$DIMDEC
 70
     0
  9
$DIMTDEC
 70
     0
  9
$DIMALTU
 70
     2
  9
$DIMALTTD
 70
     0
  9
$DIMTXSTY
  7
STANDARD
  9
$DIMAUNIT
 70
     0
  9
$DIMADEC
 70
     0
  9
$DIMALTRND
 40
0.0
  9
$DIMAZIN
 70
     0
  9
$DIMDSEP
 70
    46
  9
$DIMATFIT
 70
     3
  9
$DIMFRAC
 70
     0
  9
$DIMLDRBLK
  1

  9
$DIMLUNIT
 70
     2
  9
$DIMLWD
 70
    -2
  9
$DIMLWE
 70
    -2
  9
$DIMTMOVE
 70
     0
  9
$LUNITS
 70
     2
  9
$LUPREC
 70
     2
  9
$SKETCHINC
 40
0.0
  9
$FILLETRAD
 40
1.0
  9
$AUNITS
 70
     0
  9
$AUPREC
 70
     2
  9
$MENU
  1
acad
  9
$ELEVATION
 40
0.0
  9
$PELEVATION
 40
0.0
  9
$THICKNESS
 40
0.0
  9
$LIMCHECK
 70
     0
  9
$CHAMFERA
 40
0.0
  9
$CHAMFERB
 40
0.0
  9
$CHAMFERC
 40
0.0
  9
$CHAMFERD
 40
0.0
  9
$SKPOLY
 70
     0
  9
$TDCREATE
 40
2450224.417987847
  9
$TDUCREATE
 40
2450224.376321180
  9
$TDUPDATE
 40
2452410.633684375
  9
$TDUUPDATE
 40
2452410.592017708
  9
$TDINDWG
 40
0.6885758102
  9
$TDUSRTIMER
 40
0.6885745370
  9
$USRTIMER
 70
     1
  9
$ANGBASE
 50
0.0
  9
$ANGDIR
 70
     0
  9
$PDMODE
 70
    34
  9
$PDSIZE
 40
0.0
  9
$PLINEWID
 40
0.0
  9
$SPLFRAME
 70
     0
  9
$SPLINETYPE
 70
     6
  9
$SPLINESEGS
 70
     8
  9
$HANDSEED
  5
52A4
  9
$SURFTAB1
 70
     6
  9
$SURFTAB2
 70
     6
  9
$SURFTYPE
 70
     6
  9
$SURFU
 70
     6
  9
$SURFV
 70
     6
  9
$UCSBASE
  2

  9
$UCSNAME
  2

  9
$UCSORG
 10
-881.3725378634428
 20
-169.8351068294423
 30
0.0
  9
$UCSXDIR
 10
1.0
 20
0.0
 30
0.0
  9
$UCSYDIR
 10
0.0
 20
1.0
 30
0.0
  9
$UCSORTHOREF
  2

  9
$UCSORTHOVIEW
 70
     0
  9
$UCSORGTOP
 10
0.0
 20
0.0
 30
0.0
  9
$UCSORGBOTTOM
 10
0.0
 20
0.0
 30
0.0
  9
$UCSORGLEFT
 10
0.0
 20
0.0
 30
0.0
  9
$UCSORGRIGHT
 10
0.0
 20
0.0
 30
0.0
  9
$UCSORGFRONT
 10
0.0
 20
0.0
 30
0.0
  9
$UCSORGBACK
 10
0.0
 20
0.0
 30
0.0
  9
$PUCSBASE
  2

  9
$PUCSNAME
  2

  9
$PUCSORG
 10
0.0
 20
0.0
 30
0.0
  9
$PUCSXDIR
 10
1.0
 20
0.0
 30
0.0
  9
$PUCSYDIR
 10
0.0
 20
1.0
 30
0.0
  9
$PUCSORTHOREF
  2

  9
$PUCSORTHOVIEW
 70
     0
  9
$PUCSORGTOP
 10
0.0
 20
0.0
 30
0.0
  9
$PUCSORGBOTTOM
 10
0.0
 20
0.0
 30
0.0
  9
$PUCSORGLEFT
 10
0.0
 20
0.0
 30
0.0
  9
$PUCSORGRIGHT
 10
0.0
 20
0.0
 30
0.0
  9
$PUCSORGFRONT
 10
0.0
 20
0.0
 30
0.0
  9
$PUCSORGBACK
 10
0.0
 20
0.0
 30
0.0
  9
$USERI1
 70
     0
  9
$USERI2
 70
     0
  9
$USERI3
 70
     0
  9
$USERI4
 70
     0
  9
$USERI5
 70
     0
  9
$USERR1
 40
0.0
  9
$USERR2
 40
0.0
  9
$USERR3
 40
0.0
  9
$USERR4
 40
0.0
  9
$USERR5
 40
0.0
  9
$WORLDVIEW
 70
     1
  9
$SHADEDGE
 70
     3
  9
$SHADEDIF
 70
    70
  9
$TILEMODE
 70
     1
  9
$MAXACTVP
 70
    16
  9
$PINSBASE
 10
0.0
 20
0.0
 30
0.0
  9
$PLIMCHECK
 70
     0
  9
$PEXTMIN
 10
1.000000000000000E+20
 20
1.000000000000000E+20
 30
1.000000000000000E+20
  9
$PEXTMAX
 10
-1.000000000000000E+20
 20
-1.000000000000000E+20
 30
-1.000000000000000E+20
  9
$PLIMMIN
 10
-0.1666668268639272
 20
-0.166666657905879
  9
$PLIMMAX
 10
11.52333297128752
 20
8.099999784484621
  9
$UNITMODE
 70
     0
  9
$VISRETAIN
 70
     0
  9
$PLINEGEN
 70
     0
  9
$PSLTSCALE
 70
     1
  9
$TREEDEPTH
 70
  3020
  9
$CMLSTYLE
  2
STANDARD
  9
$CMLJUST
 70
     0
  9
$CMLSCALE
 40
1.0
  9
$PROXYGRAPHICS
 70
     1
  9
$MEASUREMENT
 70
     0
  9
$CELWEIGHT
370
    -1
  9
$ENDCAPS
280
     0
  9
$JOINSTYLE
280
     0
  9
$LWDISPLAY
290
     0
  9
$INSUNITS
 70
     0
  9
$HYPERLINKBASE
  1

  9
$STYLESHEET
  1

  9
$XEDIT
290
     1
  9
$CEPSNTYPE
380
     0
  9
$PSTYLEMODE
290
     1
  9
$FINGERPRINTGUID
  2
{6C551284-AFF8-11D5-9ED5-00025574647A}
  9
$VERSIONGUID
  2
{9274BE15-6813-11D6-8FCF-0050DA4C4468}
  9
$EXTNAMES
290
     1
  9
$PSVPSCALE
 40
0.0
  9
$OLESTARTUP
290
     0
  0
ENDSEC
  0
SECTION
  2
CLASSES
  0
CLASS
  1
LWPOLYLINE
  2
AcDbPolyline
  3
AutoCAD 2000
 90
    32768
280
     0
281
     1
  0
CLASS
  1
DICTIONARYVAR
  2
AcDbDictionaryVar
  3
AutoCAD 2000
 90
        0
280
     0
281
     0
  0
CLASS
  1
HATCH
  2
AcDbHatch
  3
AutoCAD 2000
 90
    32768
280
     0
281
     1
  0
CLASS
  1
ACDBDICTIONARYWDFLT
  2
AcDbDictionaryWithDefault
  3
AutoCAD 2000
 90
        0
280
     0
281
     0
  0
CLASS
  1
ACDBPLACEHOLDER
  2
AcDbPlaceHolder
  3
AutoCAD 2000
 90
        0
280
     0
281
     0
  0
CLASS
  1
LAYOUT
  2
AcDbLayout
  3
AutoCAD 2000
 90
        0
280
     0
281
     0
  0
CLASS
  1
LONG_TRANSACTION
  2
AcDbLongTransaction
  3
AutoCAD 2000
 90
    32768
280
     0
281
     0
  0
CLASS
  1
LWPOLYLINE
  2
AcDbPolyline
  3
AutoCAD 2000
 90
    32768
280
     0
281
     1
  0
CLASS
  1
HATCH
  2
AcDbHatch
  3
AutoCAD 2000
 90
    32768
280
     0
281
     1
  0
CLASS
  1
XRECORD
  2
AcDbXrecord
  3
AutoCAD 2000
 90
    32768
280
     0
281
     0
  0
CLASS
  1
LONG_TRANSACTION
  2
AcDbLongTransaction
  3
AutoCAD 2000
 90
    32768
280
     0
281
     0
  0
CLASS
  1
LWPOLYLINE
  2
AcDbPolyline
  3
AutoCAD 2000
 90
    32768
280
     0
281
     1
  0
CLASS
  1
HATCH
  2
AcDbHatch
  3
AutoCAD 2000
 90
    32768
280
     0
281
     1
  0
CLASS
  1
XRECORD
  2
AcDbXrecord
  3
AutoCAD 2000
 90
    32768
280
     0
281
     0
  0
CLASS
  1
LONG_TRANSACTION
  2
AcDbLongTransaction
  3
AutoCAD 2000
 90
    32768
280
     0
281
     0
  0
CLASS
  1
LWPOLYLINE
  2
AcDbPolyline
  3
AutoCAD 2000
 90
    32768
280
     0
281
     1
  0
CLASS
  1
HATCH
  2
AcDbHatch
  3
AutoCAD 2000
 90
    32768
280
     0
281
     1
  0
CLASS
  1
XRECORD
  2
AcDbXrecord
  3
AutoCAD 2000
 90
    32768
280
     0
281
     0
  0
CLASS
  1
LONG_TRANSACTION
  2
AcDbLongTransaction
  3
AutoCAD 2000
 90
    32768
280
     0
281
     0
  0
CLASS
  1
LWPOLYLINE
  2
AcDbPolyline
  3
AutoCAD 2000
 90
    32768
280
     0
281
     1
  0
CLASS
  1
HATCH
  2
AcDbHatch
  3
AutoCAD 2000
 90
    32768
280
     0
281
     1
  0
CLASS
  1
XRECORD
  2
AcDbXrecord
  3
AutoCAD 2000
 90
    32768
280
     0
281
     0
  0
CLASS
  1
LONG_TRANSACTION
  2
AcDbLongTransaction
  3
AutoCAD 2000
 90
    32768
280
     0
281
     0
  0
CLASS
  1
LWPOLYLINE
  2
AcDbPolyline
  3
AutoCAD 2000
 90
    32768
280
     0
281
     1
  0
CLASS
  1
HATCH
  2
AcDbHatch
  3
AutoCAD 2000
 90
    32768
280
     0
281
     1
  0
CLASS
  1
XRECORD
  2
AcDbXrecord
  3
AutoCAD 2000
 90
    32768
280
     0
281
     0
  0
CLASS
  1
LONG_TRANSACTION
  2
AcDbLongTransaction
  3
AutoCAD 2000
 90
    32768
280
     0
281
     0
  0
CLASS
  1
LWPOLYLINE
  2
AcDbPolyline
  3
AutoCAD 2000
 90
    32768
280
     0
281
     1
  0
CLASS
  1
HATCH
  2
AcDbHatch
  3
AutoCAD 2000
 90
    32768
280
     0
281
     1
  0
CLASS
  1
XRECORD
  2
AcDbXrecord
  3
AutoCAD 2000
 90
    32768
280
     0
281
     0
  0
CLASS
  1
LONG_TRANSACTION
  2
AcDbLongTransaction
  3
AutoCAD 2000
 90
    32768
280
     0
281
     0
  0
CLASS
  1
LWPOLYLINE
  2
AcDbPolyline
  3
AutoCAD 2000
 90
    32768
280
     0
281
     1
  0
CLASS
  1
HATCH
  2
AcDbHatch
  3
AutoCAD 2000
 90
    32768
280
     0
281
     1
  0
CLASS
  1
XRECORD
  2
AcDbXrecord
  3
AutoCAD 2000
 90
    32768
280
     0
281
     0
  0
ENDSEC
  0
SECTION
  2
TABLES
  0
TABLE
  2
VPORT
  5
8
330
0
100
AcDbSymbolTable
 70
     3
  0
VPORT
  5
52A3
330
8
100
AcDbSymbolTableRecord
100
AcDbViewportTableRecord
  2
*Active
 70
     0
 10
0.0
 20
0.0
 11
1.0
 21
1.0
 12
1458.152204648807
 22
891.405476278218
 13
0.0
 23
0.0
 14
20.0
 24
20.0
 15
10.0
 25
10.0
 16
0.0
 26
0.0
 36
1.0
 17
0.0
 27
0.0
 37
0.0
 40
196.0711824051195
 41
2.06084656084656
 42
50.0
 43
0.0
 44
0.0
 50
0.0
 51
0.0
 71
     0
 72
 20000
 73
     1
 74
     3
 75
     0
 76
     0
 77
     0
 78
     1
281
     0
 65
     1
110
-881.3725378634428
120
-169.8351068294423
130
0.0
111
1.0
121
0.0
131
0.0
112
0.0
122
1.0
132
0.0
 79
     0
146
0.0
  0
ENDTAB
  0
TABLE
  2
LTYPE
  5
5
330
0
100
AcDbSymbolTable
 70
     3
  0
LTYPE
  5
13
330
5
100
AcDbSymbolTableRecord
100
AcDbLinetypeTableRecord
  2
BYBLOCK
 70
     0
  3

 72
    65
 73
     0
 40
0.0
  0
LTYPE
  5
14
330
5
100
AcDbSymbolTableRecord
100
AcDbLinetypeTableRecord
  2
BYLAYER
 70
     0
  3

 72
    65
 73
     0
 40
0.0
  0
LTYPE
  5
15
330
5
100
AcDbSymbolTableRecord
100
AcDbLinetypeTableRecord
  2
CONTINUOUS
 70
     0
  3
Solid line
 72
    65
 73
     0
 40
0.0
  0
LTYPE
  5
2C
330
5
100
AcDbSymbolTableRecord
100
AcDbLinetypeTableRecord
  2
DASHED
 70
     0
  3
__ __ __ __ __ __ __ __ __ __ __ __ __ __ __
 72
    65
 73
     2
 40
0.75
 49
0.5
 74
     0
 49
-0.25
 74
     0
  0
LTYPE
  5
4BB8
330
5
100
AcDbSymbolTableRecord
100
AcDbLinetypeTableRecord
  2
HIDDEN
 70
     0
  3
_ _ _ _ _ _ _ _ _ _ _ _ _ _ _ _ _ _ _ _ _ _ _
 72
    65
 73
     2
 40
0.375
 49
0.25
 74
     0
 49
-0.125
 74
     0
  0
ENDTAB
  0
TABLE
  2
LAYER
  5
2
330
0
100
AcDbSymbolTable
 70
     6
  0
LAYER
  5
F
330
2
100
AcDbSymbolTableRecord
100
AcDbLayerTableRecord
  2
0
 70
     0
 62
    30
  6
CONTINUOUS
370
    -3
390
37B6
  0
LAYER
  5
30
330
2
100
AcDbSymbolTableRecord
100
AcDbLayerTableRecord
  2
1
 70
     0
 62
     7
  6
CONTINUOUS
370
    -3
390
37B6
  0
LAYER
  5
31
330
2
100
AcDbSymbolTableRecord
100
AcDbLayerTableRecord
  2
DEFPOINTS
 70
     0
 62
     6
  6
CONTINUOUS
290
     0
370
    -3
390
37B6
  0
LAYER
  5
F62
330
2
100
AcDbSymbolTableRecord
100
AcDbLayerTableRecord
  2
DIM
 70
     0
 62
     3
  6
CONTINUOUS
370
    -3
390
37B6
  0
LAYER
  5
4EB8
330
2
100
AcDbSymbolTableRecord
100
AcDbLayerTableRecord
  2
DRAW
 70
     0
 62
     4
  6
CONTINUOUS
370
    -3
390
37B6
  0
LAYER
  5
4EB9
330
2
100
AcDbSymbolTableRecord
100
AcDbLayerTableRecord
  2
HID
 70
     0
 62
     1
  6
HIDDEN
370
    -3
390
37B6
  0
ENDTAB
  0
TABLE
  2
STYLE
  5
3
330
0
100
AcDbSymbolTable
 70
     3
  0
STYLE
  5
10
330
3
100
AcDbSymbolTableRecord
100
AcDbTextStyleTableRecord
  2
STANDARD
 70
     0
 40
0.0
 41
1.0
 50
0.0
 71
     0
 42
19.71412580829619
  3
techl___.ttf
  4

1001
ACAD
1000
TechnicLite
1071
      514
  0
STYLE
  5
2B
330
3
100
AcDbSymbolTableRecord
100
AcDbTextStyleTableRecord
  2
ROMANC
 70
     0
 40
4.009999999999998
 41
1.0
 50
0.0
 71
     0
 42
4.009999999999998
  3
romanc
  4

  0
STYLE
  5
4EBA
330
3
100
AcDbSymbolTableRecord
100
AcDbTextStyleTableRecord
  2
ROMAND
 70
     0
 40
0.0
 41
1.0
 50
0.0
 71
     0
 42
6.7412923403282
  3
C:\ACADR13\COMMON\FONTS\romand.shx
  4

  0
ENDTAB
  0
TABLE
  2
VIEW
  5
6
330
0
100
AcDbSymbolTable
 70
     1
  0
VIEW
  5
2B15
330
6
100
AcDbSymbolTableRecord
100
AcDbViewTableRecord
  2
P1
 70
     1
 40
195.7116207376954
 10
156.3078220645051
 20
105.1927068532014
 41
281.044737853693
 11
0.0
 21
0.0
 31
1.0
 12
0.0
 22
0.0
 32
0.0
 42
50.0
 43
0.0
 44
0.0
 50
0.0
 71
     0
281
     0
 72
     0
  0
ENDTAB
  0
TABLE
  2
UCS
  5
7
330
0
100
AcDbSymbolTable
 70
     0
  0
ENDTAB
  0
TABLE
  2
APPID
  5
9
330
0
100
AcDbSymbolTable
 70
     3
  0
APPID
  5
11
330
9
100
AcDbSymbolTableRecord
100
AcDbRegAppTableRecord
  2
ACAD
 70
     0
  0
APPID
  5
21B6
330
9
100
AcDbSymbolTableRecord
100
AcDbRegAppTableRecord
  2
CONTENTTABDATA
 70
     0
  0
APPID
  5
21B7
330
9
100
AcDbSymbolTableRecord
100
AcDbRegAppTableRecord
  2
CONTENTCURRENTTAB
 70
     0
  0
ENDTAB
  0
TABLE
  2
DIMSTYLE
  5
A
330
0
100
AcDbSymbolTable
 70
     2
100
AcDbDimStyleTable
 71
     1
340
AD6
  0
DIMSTYLE
105
AD6
102
{ACAD_REACTORS
330
5038
330
518D
330
502A
330
5278
102
}
330
A
100
AcDbSymbolTableRecord
100
AcDbDimStyleTableRecord
  2
STANDARD
 70
     0
340
10
  0
DIMSTYLE
105
4EBB
330
A
100
AcDbSymbolTableRecord
100
AcDbDimStyleTableRecord
  2
ISO-25
 70
     0
 41
2.5
 42
0.625
 43
3.75
 44
1.25
 74
     0
 77
     1
 78
     8
140
2.5
141
2.5
143
0.0394
145
1.0
147
0.625
172
     1
340
10
  0
ENDTAB
  0
TABLE
  2
BLOCK_RECORD
  5
1
330
0
100
AcDbSymbolTable
 70
    20
  0
BLOCK_RECORD
  5
19
102
{ACAD_XDICTIONARY
360
391B
102
}
330
1
100
AcDbSymbolTableRecord
100
AcDbBlockTableRecord
  2
*MODEL_SPACE
340
37B9
  0
BLOCK_RECORD
  5
3E47
330
1
100
AcDbSymbolTableRecord
100
AcDbBlockTableRecord
  2
*Paper_Space
340
3E48
  0
BLOCK_RECORD
  5
3E5F
330
1
100
AcDbSymbolTableRecord
100
AcDbBlockTableRecord
  2
*X0
340
0
102
{BLKREFS
331
3FB6
331
3FD6
102
}
  0
BLOCK_RECORD
  5
3F90
330
1
100
AcDbSymbolTableRecord
100
AcDbBlockTableRecord
  2
foul air trap
340
0
310
28000000200000002000000001000800000000000004000000000000000000000000000000000000000000004000000080000000FF000000002000004020000080200000FF200000004000004040000080400000FF400000006000004060000080600000FF600000008000004080000080800000FF80000000A0000040A000
310
0080A00000FFA0000000C0000040C0000080C00000FFC0000000FF000040FF000080FF0000FFFF0000000020004000200080002000FF002000002020004020200080202000FF202000004020004040200080402000FF402000006020004060200080602000FF602000008020004080200080802000FF80200000A0200040A0
310
200080A02000FFA0200000C0200040C0200080C02000FFC0200000FF200040FF200080FF2000FFFF2000000040004000400080004000FF004000002040004020400080204000FF204000004040004040400080404000FF404000006040004060400080604000FF604000008040004080400080804000FF80400000A0400040
310
A0400080A04000FFA0400000C0400040C0400080C04000FFC0400000FF400040FF400080FF4000FFFF4000000060004000600080006000FF006000002060004020600080206000FF206000004060004040600080406000FF406000006060004060600080606000FF606000008060004080600080806000FF80600000A06000
310
40A0600080A06000FFA0600000C0600040C0600080C06000FFC0600000FF600040FF600080FF6000FFFF6000000080004000800080008000FF008000002080004020800080208000FF208000004080004040800080408000FF408000006080004060800080608000FF608000008080004080800080808000FF80800000A080
310
0040A0800080A08000FFA0800000C0800040C0800080C08000FFC0800000FF800040FF800080FF8000FFFF80000000A0004000A0008000A000FF00A0000020A0004020A0008020A000FF20A0000040A0004040A0008040A000FF40A0000060A0004060A0008060A000FF60A0000080A0004080A0008080A000FF80A00000A0
310
A00040A0A00080A0A000FFA0A00000C0A00040C0A00080C0A000FFC0A00000FFA00040FFA00080FFA000FFFFA0000000C0004000C0008000C000FF00C0000020C0004020C0008020C000FF20C0000040C0004040C0008040C000FF40C0000060C0004060C0008060C000FF60C0000080C0004080C0008080C000FF80C00000
310
A0C00040A0C00080A0C000FFA0C00000C0C00040C0C00080C0C000FFC0C00000FFC00040FFC00080FFC000FFFFC0000000FF004000FF008000FF00FF00FF000020FF004020FF008020FF00FF20FF000040FF004040FF008040FF00FF40FF000060FF004060FF008060FF00FF60FF000080FF004080FF008080FF00FF80FF00
310
00A0FF0040A0FF0080A0FF00FFA0FF0000C0FF0040C0FF0080C0FF00FFC0FF0000FFFF0040FFFF0080FFFF00FFFFFF00FFFFFFFFFFFFFFFFFFFFFFFFFFFFFFFFFFFFFFFFFFFFFFFFFFFFFFFFFFFFFFFFFFFFFFFFFFFFFFFFFFFFFFFFFFFFFFFFFFFFFFFFFFFFFFFFFFFFFFFFFFFFFFFFFFFFFFFFFFFFFFFF0000FFFFFFFFFF
310
FFFFFFFFFFFF0000FFFFFFFFFFFFFFFFFFFFFFFFFFFFFFFF00FFFF0000FFFFFFFFFFFFFF0000FFFF00FFFFFFFFFFFFFFFFFFFFFFFFFFFF00FFFFFFFFFF00000000000000FFFFFFFFFF00FFFFFFFFFFFFFFFFFFFFFFFF00FFFFFFFFFFFFFFFFFFFFFFFFFFFFFFFFFFFF0000FFFFFFFFFFFFFFFFFFFF00FFFFFFFFFFFFFFFFFF
310
FFFFFFFFFFFFFFFFFFFFFF000000FFFFFFFFFFFFFFFF00FFFFFFFF00000000000000000000000000FFFFFFFF0000FFFFFFFFFFFFFFFF00FFFFFFFF0000FFFFFFFFFFFFFFFFFFFF00FFFFFFFF0000FFFFFFFFFFFFFFFF00FFFFFFFF0000FFFFFFFFFFFFFFFFFFFF00FFFFFFFF0000FFFFFFFFFFFFFFFF00FFFFFFFF0000FFFF
310
FFFFFFFFFFFFFFFF00FFFFFFFF0000FFFFFFFFFFFFFFFF00FFFFFFFF0000FFFFFFFFFFFFFFFFFFFF00FFFFFFFF0000FFFFFFFFFFFFFFFF00FFFFFFFF0000FFFFFFFFFFFFFFFFFFFF00FFFFFFFF0000FFFFFFFFFFFFFFFF00FFFFFFFF0000FFFFFFFFFFFFFFFFFFFF00FFFFFFFF0000FFFFFFFFFFFFFFFF00FFFFFFFF0000FF
310
FFFFFFFFFFFFFFFFFF00FFFFFFFF0000FFFFFFFFFFFFFFFF00FFFFFFFF0000FFFFFFFFFFFFFFFFFFFF00FFFFFFFF0000FFFFFFFFFFFFFFFF00FFFFFFFF0000FFFFFFFFFFFFFFFFFFFF00FFFFFFFF0000FFFFFFFFFFFFFFFF00FFFFFFFF0000FFFFFFFFFFFFFFFFFFFF00FFFFFFFF0000FFFFFFFFFFFFFF0000FFFFFFFF0000
310
FFFFFFFFFFFFFFFFFFFF00FFFFFFFF000000FFFFFFFFFF000000000000000000FFFFFFFFFFFFFFFFFFFF0000000000000000FFFFFFFFFFFFFFFFFFFFFFFF0000FFFFFFFFFFFFFFFFFFFF00FFFFFFFFFFFFFFFFFFFFFFFFFFFFFFFFFFFFFF0000FFFFFFFFFFFFFFFFFFFF00FFFFFFFFFFFFFFFFFFFFFFFFFFFFFFFFFFFFFF00
310
00FFFFFFFFFFFFFFFFFFFF00FFFFFFFFFFFFFFFFFFFFFFFFFFFFFFFFFFFFFF0000000000000000000000000000FFFFFFFFFFFFFFFFFFFFFFFFFFFFFFFF0000FFFFFFFFFFFFFFFFFFFFFFFFFF000000FFFFFFFFFFFFFFFFFFFFFFFF0000FFFFFFFFFFFFFFFFFFFFFFFFFFFFFFFFFFFF0000FFFFFFFFFFFFFFFFFFFF00FFFFFF
310
FFFFFFFFFFFFFFFFFFFFFFFFFFFFFFFFFFFF00FFFFFFFFFFFFFFFF00FFFFFFFFFFFFFFFFFFFFFFFFFFFFFFFFFFFFFFFFFFFF00FFFFFFFFFFFFFF0000000000000000000000000000000000000000000000000000FFFFFFFF000000000000000000000000000000000000000000000000000000000000FFFFFFFFFFFFFFFFFF
310
FFFFFFFFFFFFFFFFFFFFFFFFFFFFFFFFFFFFFFFFFFFFFFFFFFFFFFFFFFFFFFFFFFFFFFFFFFFFFFFFFFFFFFFFFFFFFFFFFFFFFFFFFFFFFFFF
102
{BLKREFS
331
4723
102
}
  0
BLOCK_RECORD
  5
4172
330
1
100
AcDbSymbolTableRecord
100
AcDbBlockTableRecord
  2
WELD
340
0
102
{BLKREFS
331
4594
331
4692
331
4538
331
4545
102
}
  0
BLOCK_RECORD
  5
4177
330
1
100
AcDbSymbolTableRecord
100
AcDbBlockTableRecord
  2
*X3
340
0
102
{BLKREFS
331
4173
102
}
  0
BLOCK_RECORD
  5
476F
330
1
100
AcDbSymbolTableRecord
100
AcDbBlockTableRecord
  2
*D4
340
0
  0
BLOCK_RECORD
  5
47C9
330
1
100
AcDbSymbolTableRecord
100
AcDbBlockTableRecord
  2
*X5
340
0
102
{BLKREFS
331
4B30
331
4B4E
102
}
  0
BLOCK_RECORD
  5
4B14
330
1
100
AcDbSymbolTableRecord
100
AcDbBlockTableRecord
  2
BODY
340
0
310
28000000200000002000000001000800000000000004000000000000000000000000000000000000000000004000000080000000FF000000002000004020000080200000FF200000004000004040000080400000FF400000006000004060000080600000FF600000008000004080000080800000FF80000000A0000040A000
310
0080A00000FFA0000000C0000040C0000080C00000FFC0000000FF000040FF000080FF0000FFFF0000000020004000200080002000FF002000002020004020200080202000FF202000004020004040200080402000FF402000006020004060200080602000FF602000008020004080200080802000FF80200000A0200040A0
310
200080A02000FFA0200000C0200040C0200080C02000FFC0200000FF200040FF200080FF2000FFFF2000000040004000400080004000FF004000002040004020400080204000FF204000004040004040400080404000FF404000006040004060400080604000FF604000008040004080400080804000FF80400000A0400040
310
A0400080A04000FFA0400000C0400040C0400080C04000FFC0400000FF400040FF400080FF4000FFFF4000000060004000600080006000FF006000002060004020600080206000FF206000004060004040600080406000FF406000006060004060600080606000FF606000008060004080600080806000FF80600000A06000
310
40A0600080A06000FFA0600000C0600040C0600080C06000FFC0600000FF600040FF600080FF6000FFFF6000000080004000800080008000FF008000002080004020800080208000FF208000004080004040800080408000FF408000006080004060800080608000FF608000008080004080800080808000FF80800000A080
310
0040A0800080A08000FFA0800000C0800040C0800080C08000FFC0800000FF800040FF800080FF8000FFFF80000000A0004000A0008000A000FF00A0000020A0004020A0008020A000FF20A0000040A0004040A0008040A000FF40A0000060A0004060A0008060A000FF60A0000080A0004080A0008080A000FF80A00000A0
310
A00040A0A00080A0A000FFA0A00000C0A00040C0A00080C0A000FFC0A00000FFA00040FFA00080FFA000FFFFA0000000C0004000C0008000C000FF00C0000020C0004020C0008020C000FF20C0000040C0004040C0008040C000FF40C0000060C0004060C0008060C000FF60C0000080C0004080C0008080C000FF80C00000
310
A0C00040A0C00080A0C000FFA0C00000C0C00040C0C00080C0C000FFC0C00000FFC00040FFC00080FFC000FFFFC0000000FF004000FF008000FF00FF00FF000020FF004020FF008020FF00FF20FF000040FF004040FF008040FF00FF40FF000060FF004060FF008060FF00FF60FF000080FF004080FF008080FF00FF80FF00
310
00A0FF0040A0FF0080A0FF00FFA0FF0000C0FF0040C0FF0080C0FF00FFC0FF0000FFFF0040FFFF0080FFFF00FFFFFF00FFFFFFFFFFFFFFFFFFFFFFFFFFFFFFFFFFFFFFFFFFFFFFFFFFFFFFFFFFFFFFFFFFFFFFFFFFFFFF000000000000000000000000000000000000FFFFFFFFFFFFFFFFFFFFFFFFFFFF00FFFFFFFFFFFFFF
310
FFFFFFFFFFFFFFFFFF00FFFFFFFFFFFFFFFFFFFFFFFFFFFF00FFFFFFFFFFFFFFFFFFFFFFFFFFFFFFFF00FFFFFFFFFFFFFFFFFFFFFFFFFFFF00FFFFFFFFFFFFFFFFFFFFFFFFFFFFFFFF00FFFFFFFFFFFFFFFFFFFFFFFFFFFF00FFFFFFFFFFFFFFFFFFFFFFFFFFFFFFFF00FFFFFFFFFFFFFFFFFFFFFFFFFFFF00FFFFFFFFFFFF
310
FFFFFFFFFFFFFFFFFFFF00FFFFFFFFFFFFFFFFFFFFFFFFFFFF00FFFFFFFFFFFFFFFFFFFFFFFFFFFFFFFF00FFFFFFFFFFFFFFFFFFFFFFFFFFFF00FFFFFFFFFFFFFFFFFFFFFFFFFFFFFFFF00FFFFFFFFFFFFFFFFFFFFFFFFFFFF00FFFFFFFFFFFFFFFFFFFFFFFFFFFFFFFF00FFFFFFFFFFFFFFFFFFFFFFFFFFFF00FFFFFFFFFF
310
FFFFFFFFFFFFFFFFFFFFFF00FFFFFFFFFFFFFFFFFFFFFFFFFFFF00FFFFFFFFFFFFFFFFFFFFFFFFFFFFFFFF00FFFFFFFFFFFFFFFFFFFFFFFFFFFF00FFFFFFFFFFFFFFFFFFFFFFFFFFFFFFFF00FFFFFFFFFFFFFFFFFFFFFFFFFFFF00FFFFFFFFFFFFFFFFFFFFFFFFFFFFFFFF00FFFFFFFFFFFFFFFFFFFFFFFFFF0000FFFFFFFF
310
FFFFFFFFFFFFFFFFFFFFFFFF0000FFFFFFFFFFFFFFFFFFFF0000FFFFFFFFFFFFFFFFFFFFFFFFFFFFFFFFFFFFFFFF0000FFFFFFFFFFFFFFFF00FFFFFFFFFFFFFFFFFFFFFFFFFFFFFFFFFFFFFFFFFFFF00FFFFFFFFFFFFFFFF00FFFFFFFFFFFFFFFFFFFFFFFFFFFFFFFFFFFFFFFFFFFF00FFFFFFFFFFFFFFFF00FFFFFFFFFFFF
310
FFFFFFFFFFFFFFFFFFFFFFFFFFFFFFFF00FFFFFFFFFFFFFFFF00FFFFFFFFFFFFFFFFFFFFFFFFFFFFFFFFFFFFFFFFFFFF00FFFFFFFFFFFFFFFF00FFFFFFFFFFFFFFFFFFFFFFFFFFFFFFFFFFFFFFFFFFFF00FFFFFFFFFFFFFFFF00FFFFFFFFFFFFFFFFFFFFFFFFFFFFFFFFFFFFFFFFFFFF00FFFFFFFFFFFFFFFF00FFFFFFFFFF
310
FFFFFFFFFFFFFFFFFFFFFFFFFFFFFFFFFF00FFFFFFFFFFFFFFFF00FFFFFFFFFFFFFFFFFFFFFFFFFFFFFFFFFFFFFFFFFFFF00FFFFFFFFFFFFFFFF00FFFFFFFFFFFFFFFFFFFFFFFFFFFFFFFFFFFFFFFFFFFF00FFFFFFFFFFFFFFFF00FFFFFFFFFFFFFFFFFFFFFFFFFFFFFFFFFFFFFFFFFFFF00FFFFFFFFFFFFFFFF00FFFFFFFF
310
FFFFFFFFFFFFFFFFFFFFFFFFFFFFFFFFFFFF00FFFFFFFFFFFFFFFF00000000FFFFFFFFFFFFFFFFFFFFFFFFFFFFFFFF00000000FFFFFFFFFFFFFFFF00000000FFFFFFFFFFFFFFFFFFFFFFFFFFFFFFFF00000000FFFFFFFFFFFFFFFF00000000FFFFFFFFFFFFFFFFFFFFFFFFFFFFFFFF00000000FFFFFFFFFFFFFFFF00000000
310
FFFFFFFFFFFFFFFFFFFFFFFFFFFFFFFF00000000FFFFFFFFFFFFFFFFFFFFFFFFFFFFFFFFFFFFFFFFFFFFFFFFFFFFFFFFFFFFFFFFFFFFFFFF
102
{BLKREFS
331
4B68
102
}
  0
BLOCK_RECORD
  5
4B75
330
1
100
AcDbSymbolTableRecord
100
AcDbBlockTableRecord
  2
*D7
340
0
  0
BLOCK_RECORD
  5
4B99
330
1
100
AcDbSymbolTableRecord
100
AcDbBlockTableRecord
  2
*D8
340
0
  0
BLOCK_RECORD
  5
4C64
330
1
100
AcDbSymbolTableRecord
100
AcDbBlockTableRecord
  2
*D9
340
0
  0
BLOCK_RECORD
  5
4C93
330
1
100
AcDbSymbolTableRecord
100
AcDbBlockTableRecord
  2
*X10
340
0
102
{BLKREFS
331
4D4E
331
4DBB
102
}
  0
BLOCK_RECORD
  5
4CA0
330
1
100
AcDbSymbolTableRecord
100
AcDbBlockTableRecord
  2
*X11
340
0
102
{BLKREFS
331
4D5B
331
4D62
331
4DAB
331
4DB9
102
}
  0
BLOCK_RECORD
  5
4FB4
330
1
100
AcDbSymbolTableRecord
100
AcDbBlockTableRecord
  2
*D12
340
0
  0
BLOCK_RECORD
  5
4FCA
330
1
100
AcDbSymbolTableRecord
100
AcDbBlockTableRecord
  2
*D13
340
0
  0
BLOCK_RECORD
  5
502B
330
1
100
AcDbSymbolTableRecord
100
AcDbBlockTableRecord
  2
*D14
340
0
  0
BLOCK_RECORD
  5
5039
330
1
100
AcDbSymbolTableRecord
100
AcDbBlockTableRecord
  2
*D15
340
0
  0
BLOCK_RECORD
  5
50E6
330
1
100
AcDbSymbolTableRecord
100
AcDbBlockTableRecord
  2
*D16
340
0
  0
BLOCK_RECORD
  5
5222
330
1
100
AcDbSymbolTableRecord
100
AcDbBlockTableRecord
  2
*D18
340
0
  0
BLOCK_RECORD
  5
5279
330
1
100
AcDbSymbolTableRecord
100
AcDbBlockTableRecord
  2
*D19
340
0
  0
ENDTAB
  0
ENDSEC
  0
SECTION
  2
BLOCKS
  0
BLOCK
  5
35
330
19
100
AcDbEntity
  8
0
100
AcDbBlockBegin
  2
*MODEL_SPACE
 70
     0
 10
0.0
 20
0.0
 30
0.0
  3
*MODEL_SPACE
  1

  0
ENDBLK
  5
36
330
19
100
AcDbEntity
  8
0
100
AcDbBlockEnd
  0
BLOCK
  5
3E49
330
3E47
100
AcDbEntity
 67
     1
  8
0
100
AcDbBlockBegin
  2
*Paper_Space
 70
     0
 10
0.0
 20
0.0
 30
0.0
  3
*Paper_Space
  1

  0
ENDBLK
  5
3E4A
330
3E47
100
AcDbEntity
 67
     1
  8
0
100
AcDbBlockEnd
  0
BLOCK
  5
3EC6
330
3E5F
100
AcDbEntity
  8
0
100
AcDbBlockBegin
  2
*X0
 70
     1
 10
0.0
 20
0.0
 30
0.0
  3
*X0
  1

  0
LINE
  5
3E60
330
3E5F
100
AcDbEntity
  8
0
 62
     0
100
AcDbLine
 10
-405.75
 20
360.7368135792118
 30
0.0
 11
-405.75
 21
361.8370122704502
 31
0.0
  0
LINE
  5
3E61
330
3E5F
100
AcDbEntity
  8
0
 62
     0
100
AcDbLine
 10
-406.0
 20
360.933384413112
 30
0.0
 11
-406.0
 21
361.8370122704502
 31
0.0
  0
LINE
  5
3E62
330
3E5F
100
AcDbEntity
  8
0
 62
     0
100
AcDbLine
 10
-406.25
 20
361.1395398149058
 30
0.0
 11
-406.25
 21
361.8370122704502
 31
0.0
  0
LINE
  5
3E63
330
3E5F
100
AcDbEntity
  8
0
 62
     0
100
AcDbLine
 10
-406.5
 20
361.2469848382478
 30
0.0
 11
-406.5
 21
361.8370122704502
 31
0.0
  0
LINE
  5
3E64
330
3E5F
100
AcDbEntity
  8
0
 62
     0
100
AcDbLine
 10
-406.7499999999998
 20
361.389534041392
 30
0.0
 11
-406.7499999999998
 21
361.8370122704502
 31
0.0
  0
LINE
  5
3E65
330
3E5F
100
AcDbEntity
  8
0
 62
     0
100
AcDbLine
 10
-407.0
 20
361.6300486768183
 30
0.0
 11
-407.0
 21
361.8370122704502
 31
0.0
  0
LINE
  5
3E66
330
3E5F
100
AcDbEntity
  8
0
 62
     0
100
AcDbLine
 10
-407.2499999999998
 20
361.7419786282082
 30
0.0
 11
-407.2499999999998
 21
361.8370122704502
 31
0.0
  0
LINE
  5
3E67
330
3E5F
100
AcDbEntity
  8
0
 62
     0
100
AcDbLine
 10
-407.5
 20
361.8321716164932
 30
0.0
 11
-407.5
 21
361.8370122704502
 31
0.0
  0
LINE
  5
3E68
330
3E5F
100
AcDbEntity
  8
0
 62
     0
100
AcDbLine
 10
-405.4999999999997
 20
360.5564276026421
 30
0.0
 11
-405.4999999999997
 21
361.8370122704502
 31
0.0
  0
LINE
  5
3E69
330
3E5F
100
AcDbEntity
  8
0
 62
     0
100
AcDbLine
 10
-405.25
 20
360.274289276432
 30
0.0
 11
-405.25
 21
361.8370122704502
 31
0.0
  0
LINE
  5
3E6A
330
3E5F
100
AcDbEntity
  8
0
 62
     0
100
AcDbLine
 10
-404.9999999999998
 20
359.9991459799346
 30
0.0
 11
-405.0
 21
361.8370122704502
 31
0.0
  0
LINE
  5
3E6B
330
3E5F
100
AcDbEntity
  8
0
 62
     0
100
AcDbLine
 10
-404.7499999999998
 20
359.6570949230565
 30
0.0
 11
-404.75
 21
361.8370122704502
 31
0.0
  0
LINE
  5
3E6C
330
3E5F
100
AcDbEntity
  8
0
 62
     0
100
AcDbLine
 10
-404.4999999999998
 20
358.6790058066241
 30
0.0
 11
-404.4999999999998
 21
361.8370122704502
 31
0.0
  0
LINE
  5
3E6D
330
3E5F
100
AcDbEntity
  8
0
 62
     0
100
AcDbLine
 10
-404.25
 20
358.3305332124405
 30
0.0
 11
-404.25
 21
361.8370122704502
 31
0.0
  0
LINE
  5
3E6E
330
3E5F
100
AcDbEntity
  8
0
 62
     0
100
AcDbLine
 10
-404.0
 20
358.1759166610952
 30
0.0
 11
-404.0
 21
361.8370122704502
 31
0.0
  0
LINE
  5
3E6F
330
3E5F
100
AcDbEntity
  8
0
 62
     0
100
AcDbLine
 10
-405.8749999999998
 20
360.8303067122148
 30
0.0
 11
-405.8749999999998
 21
360.875
 31
0.0
  0
LINE
  5
3E70
330
3E5F
100
AcDbEntity
  8
0
 62
     0
100
AcDbLine
 10
-405.8749999999998
 20
361.0
 30
0.0
 11
-405.8749999999998
 21
361.125
 31
0.0
  0
LINE
  5
3E71
330
3E5F
100
AcDbEntity
  8
0
 62
     0
100
AcDbLine
 10
-405.8749999999998
 20
361.25
 30
0.0
 11
-405.8749999999998
 21
361.375
 31
0.0
  0
LINE
  5
3E72
330
3E5F
100
AcDbEntity
  8
0
 62
     0
100
AcDbLine
 10
-405.8749999999998
 20
361.5
 30
0.0
 11
-405.8749999999998
 21
361.6249999999998
 31
0.0
  0
LINE
  5
3E73
330
3E5F
100
AcDbEntity
  8
0
 62
     0
100
AcDbLine
 10
-405.8749999999998
 20
361.75
 30
0.0
 11
-405.8749999999998
 21
361.8370122704502
 31
0.0
  0
LINE
  5
3E74
330
3E5F
100
AcDbEntity
  8
0
 62
     0
100
AcDbLine
 10
-406.125
 20
361.036462114009
 30
0.0
 11
-406.125
 21
361.125
 31
0.0
  0
LINE
  5
3E75
330
3E5F
100
AcDbEntity
  8
0
 62
     0
100
AcDbLine
 10
-406.125
 20
361.25
 30
0.0
 11
-406.125
 21
361.375
 31
0.0
  0
LINE
  5
3E76
330
3E5F
100
AcDbEntity
  8
0
 62
     0
100
AcDbLine
 10
-406.125
 20
361.5
 30
0.0
 11
-406.125
 21
361.6249999999998
 31
0.0
  0
LINE
  5
3E77
330
3E5F
100
AcDbEntity
  8
0
 62
     0
100
AcDbLine
 10
-406.125
 20
361.75
 30
0.0
 11
-406.125
 21
361.8370122704502
 31
0.0
  0
LINE
  5
3E78
330
3E5F
100
AcDbEntity
  8
0
 62
     0
100
AcDbLine
 10
-406.3749999999997
 20
361.25
 30
0.0
 11
-406.3749999999997
 21
361.375
 31
0.0
  0
LINE
  5
3E79
330
3E5F
100
AcDbEntity
  8
0
 62
     0
100
AcDbLine
 10
-406.3749999999997
 20
361.5
 30
0.0
 11
-406.3749999999997
 21
361.6249999999998
 31
0.0
  0
LINE
  5
3E7A
330
3E5F
100
AcDbEntity
  8
0
 62
     0
100
AcDbLine
 10
-406.3749999999997
 20
361.75
 30
0.0
 11
-406.3749999999997
 21
361.8370122704502
 31
0.0
  0
LINE
  5
3E7B
330
3E5F
100
AcDbEntity
  8
0
 62
     0
100
AcDbLine
 10
-406.625
 20
361.2985236886962
 30
0.0
 11
-406.625
 21
361.375
 31
0.0
  0
LINE
  5
3E7C
330
3E5F
100
AcDbEntity
  8
0
 62
     0
100
AcDbLine
 10
-406.625
 20
361.5
 30
0.0
 11
-406.625
 21
361.6249999999998
 31
0.0
  0
LINE
  5
3E7D
330
3E5F
100
AcDbEntity
  8
0
 62
     0
100
AcDbLine
 10
-406.625
 20
361.75
 30
0.0
 11
-406.625
 21
361.8370122704502
 31
0.0
  0
LINE
  5
3E7E
330
3E5F
100
AcDbEntity
  8
0
 62
     0
100
AcDbLine
 10
-406.8749999999998
 20
361.5097913591051
 30
0.0
 11
-406.8749999999998
 21
361.6249999999998
 31
0.0
  0
LINE
  5
3E7F
330
3E5F
100
AcDbEntity
  8
0
 62
     0
100
AcDbLine
 10
-406.8749999999998
 20
361.75
 30
0.0
 11
-406.8749999999998
 21
361.8370122704502
 31
0.0
  0
LINE
  5
3E80
330
3E5F
100
AcDbEntity
  8
0
 62
     0
100
AcDbLine
 10
-407.125
 20
361.75
 30
0.0
 11
-407.125
 21
361.8370122704502
 31
0.0
  0
LINE
  5
3E81
330
3E5F
100
AcDbEntity
  8
0
 62
     0
100
AcDbLine
 10
-407.375
 20
361.7870751223508
 30
0.0
 11
-407.375
 21
361.8370122704502
 31
0.0
  0
LINE
  5
3E82
330
3E5F
100
AcDbEntity
  8
0
 62
     0
100
AcDbLine
 10
-405.625
 20
360.7499999999998
 30
0.0
 11
-405.625
 21
360.875
 31
0.0
  0
LINE
  5
3E83
330
3E5F
100
AcDbEntity
  8
0
 62
     0
100
AcDbLine
 10
-405.625
 20
361.0
 30
0.0
 11
-405.625
 21
361.125
 31
0.0
  0
LINE
  5
3E84
330
3E5F
100
AcDbEntity
  8
0
 62
     0
100
AcDbLine
 10
-405.625
 20
361.25
 30
0.0
 11
-405.625
 21
361.375
 31
0.0
  0
LINE
  5
3E85
330
3E5F
100
AcDbEntity
  8
0
 62
     0
100
AcDbLine
 10
-405.625
 20
361.5
 30
0.0
 11
-405.625
 21
361.6249999999998
 31
0.0
  0
LINE
  5
3E86
330
3E5F
100
AcDbEntity
  8
0
 62
     0
100
AcDbLine
 10
-405.625
 20
361.75
 30
0.0
 11
-405.625
 21
361.8370122704502
 31
0.0
  0
LINE
  5
3E87
330
3E5F
100
AcDbEntity
  8
0
 62
     0
100
AcDbLine
 10
-405.3749999999998
 20
360.4999999999998
 30
0.0
 11
-405.3749999999998
 21
360.625
 31
0.0
  0
LINE
  5
3E88
330
3E5F
100
AcDbEntity
  8
0
 62
     0
100
AcDbLine
 10
-405.3749999999998
 20
360.7499999999998
 30
0.0
 11
-405.3749999999998
 21
360.875
 31
0.0
  0
LINE
  5
3E89
330
3E5F
100
AcDbEntity
  8
0
 62
     0
100
AcDbLine
 10
-405.3749999999998
 20
361.0
 30
0.0
 11
-405.3749999999998
 21
361.125
 31
0.0
  0
LINE
  5
3E8A
330
3E5F
100
AcDbEntity
  8
0
 62
     0
100
AcDbLine
 10
-405.3749999999998
 20
361.25
 30
0.0
 11
-405.3749999999998
 21
361.375
 31
0.0
  0
LINE
  5
3E8B
330
3E5F
100
AcDbEntity
  8
0
 62
     0
100
AcDbLine
 10
-405.3749999999998
 20
361.5
 30
0.0
 11
-405.3749999999998
 21
361.6249999999998
 31
0.0
  0
LINE
  5
3E8C
330
3E5F
100
AcDbEntity
  8
0
 62
     0
100
AcDbLine
 10
-405.3749999999998
 20
361.75
 30
0.0
 11
-405.3749999999998
 21
361.8370122704502
 31
0.0
  0
LINE
  5
3E8D
330
3E5F
100
AcDbEntity
  8
0
 62
     0
100
AcDbLine
 10
-405.1249999999998
 20
360.25
 30
0.0
 11
-405.1249999999998
 21
360.375
 31
0.0
  0
LINE
  5
3E8E
330
3E5F
100
AcDbEntity
  8
0
 62
     0
100
AcDbLine
 10
-405.1249999999998
 20
360.4999999999998
 30
0.0
 11
-405.1249999999998
 21
360.625
 31
0.0
  0
LINE
  5
3E8F
330
3E5F
100
AcDbEntity
  8
0
 62
     0
100
AcDbLine
 10
-405.1249999999998
 20
360.7499999999998
 30
0.0
 11
-405.1249999999998
 21
360.875
 31
0.0
  0
LINE
  5
3E90
330
3E5F
100
AcDbEntity
  8
0
 62
     0
100
AcDbLine
 10
-405.1249999999998
 20
361.0
 30
0.0
 11
-405.1249999999998
 21
361.125
 31
0.0
  0
LINE
  5
3E91
330
3E5F
100
AcDbEntity
  8
0
 62
     0
100
AcDbLine
 10
-405.1249999999998
 20
361.25
 30
0.0
 11
-405.1249999999998
 21
361.375
 31
0.0
  0
LINE
  5
3E92
330
3E5F
100
AcDbEntity
  8
0
 62
     0
100
AcDbLine
 10
-405.1249999999998
 20
361.5
 30
0.0
 11
-405.1249999999998
 21
361.6249999999998
 31
0.0
  0
LINE
  5
3E93
330
3E5F
100
AcDbEntity
  8
0
 62
     0
100
AcDbLine
 10
-405.1249999999998
 20
361.75
 30
0.0
 11
-405.1249999999998
 21
361.8370122704502
 31
0.0
  0
LINE
  5
3E94
330
3E5F
100
AcDbEntity
  8
0
 62
     0
100
AcDbLine
 10
-404.8749999999998
 20
359.8374808996261
 30
0.0
 11
-404.8749999999998
 21
359.8749999999998
 31
0.0
  0
LINE
  5
3E95
330
3E5F
100
AcDbEntity
  8
0
 62
     0
100
AcDbLine
 10
-404.8749999999998
 20
360.0
 30
0.0
 11
-404.8749999999998
 21
360.125
 31
0.0
  0
LINE
  5
3E96
330
3E5F
100
AcDbEntity
  8
0
 62
     0
100
AcDbLine
 10
-404.8749999999998
 20
360.25
 30
0.0
 11
-404.8749999999998
 21
360.375
 31
0.0
  0
LINE
  5
3E97
330
3E5F
100
AcDbEntity
  8
0
 62
     0
100
AcDbLine
 10
-404.8749999999998
 20
360.4999999999998
 30
0.0
 11
-404.8749999999998
 21
360.625
 31
0.0
  0
LINE
  5
3E98
330
3E5F
100
AcDbEntity
  8
0
 62
     0
100
AcDbLine
 10
-404.8749999999998
 20
360.7499999999998
 30
0.0
 11
-404.8749999999998
 21
360.875
 31
0.0
  0
LINE
  5
3E99
330
3E5F
100
AcDbEntity
  8
0
 62
     0
100
AcDbLine
 10
-404.8749999999998
 20
361.0
 30
0.0
 11
-404.8749999999998
 21
361.125
 31
0.0
  0
LINE
  5
3E9A
330
3E5F
100
AcDbEntity
  8
0
 62
     0
100
AcDbLine
 10
-404.8749999999998
 20
361.25
 30
0.0
 11
-404.8749999999998
 21
361.375
 31
0.0
  0
LINE
  5
3E9B
330
3E5F
100
AcDbEntity
  8
0
 62
     0
100
AcDbLine
 10
-404.8749999999998
 20
361.5
 30
0.0
 11
-404.8749999999998
 21
361.6249999999998
 31
0.0
  0
LINE
  5
3E9C
330
3E5F
100
AcDbEntity
  8
0
 62
     0
100
AcDbLine
 10
-404.8749999999998
 20
361.75
 30
0.0
 11
-404.8749999999998
 21
361.8370122704502
 31
0.0
  0
LINE
  5
3E9D
330
3E5F
100
AcDbEntity
  8
0
 62
     0
100
AcDbLine
 10
-404.6249999999998
 20
359.0
 30
0.0
 11
-404.6249999999998
 21
359.125
 31
0.0
  0
LINE
  5
3E9E
330
3E5F
100
AcDbEntity
  8
0
 62
     0
100
AcDbLine
 10
-404.6249999999998
 20
359.25
 30
0.0
 11
-404.6249999999998
 21
359.375
 31
0.0
  0
LINE
  5
3E9F
330
3E5F
100
AcDbEntity
  8
0
 62
     0
100
AcDbLine
 10
-404.6249999999998
 20
359.5
 30
0.0
 11
-404.6249999999998
 21
359.6249999999998
 31
0.0
  0
LINE
  5
3EA0
330
3E5F
100
AcDbEntity
  8
0
 62
     0
100
AcDbLine
 10
-404.6249999999998
 20
359.75
 30
0.0
 11
-404.6249999999998
 21
359.8749999999998
 31
0.0
  0
LINE
  5
3EA1
330
3E5F
100
AcDbEntity
  8
0
 62
     0
100
AcDbLine
 10
-404.6249999999998
 20
360.0
 30
0.0
 11
-404.6249999999998
 21
360.125
 31
0.0
  0
LINE
  5
3EA2
330
3E5F
100
AcDbEntity
  8
0
 62
     0
100
AcDbLine
 10
-404.6249999999998
 20
360.25
 30
0.0
 11
-404.6249999999998
 21
360.375
 31
0.0
  0
LINE
  5
3EA3
330
3E5F
100
AcDbEntity
  8
0
 62
     0
100
AcDbLine
 10
-404.6249999999998
 20
360.4999999999998
 30
0.0
 11
-404.6249999999998
 21
360.625
 31
0.0
  0
LINE
  5
3EA4
330
3E5F
100
AcDbEntity
  8
0
 62
     0
100
AcDbLine
 10
-404.6249999999998
 20
360.7499999999998
 30
0.0
 11
-404.6249999999998
 21
360.875
 31
0.0
  0
LINE
  5
3EA5
330
3E5F
100
AcDbEntity
  8
0
 62
     0
100
AcDbLine
 10
-404.6249999999998
 20
361.0
 30
0.0
 11
-404.6249999999998
 21
361.125
 31
0.0
  0
LINE
  5
3EA6
330
3E5F
100
AcDbEntity
  8
0
 62
     0
100
AcDbLine
 10
-404.6249999999998
 20
361.25
 30
0.0
 11
-404.6249999999998
 21
361.375
 31
0.0
  0
LINE
  5
3EA7
330
3E5F
100
AcDbEntity
  8
0
 62
     0
100
AcDbLine
 10
-404.6249999999998
 20
361.5
 30
0.0
 11
-404.6249999999998
 21
361.6249999999998
 31
0.0
  0
LINE
  5
3EA8
330
3E5F
100
AcDbEntity
  8
0
 62
     0
100
AcDbLine
 10
-404.6249999999998
 20
361.75
 30
0.0
 11
-404.6249999999998
 21
361.8370122704502
 31
0.0
  0
LINE
  5
3EA9
330
3E5F
100
AcDbEntity
  8
0
 62
     0
100
AcDbLine
 10
-404.3749999999998
 20
358.4999999999998
 30
0.0
 11
-404.3749999999998
 21
358.625
 31
0.0
  0
LINE
  5
3EAA
330
3E5F
100
AcDbEntity
  8
0
 62
     0
100
AcDbLine
 10
-404.3749999999998
 20
358.7499999999998
 30
0.0
 11
-404.3749999999998
 21
358.875
 31
0.0
  0
LINE
  5
3EAB
330
3E5F
100
AcDbEntity
  8
0
 62
     0
100
AcDbLine
 10
-404.3749999999998
 20
359.0
 30
0.0
 11
-404.3749999999998
 21
359.125
 31
0.0
  0
LINE
  5
3EAC
330
3E5F
100
AcDbEntity
  8
0
 62
     0
100
AcDbLine
 10
-404.3749999999998
 20
359.25
 30
0.0
 11
-404.3749999999998
 21
359.375
 31
0.0
  0
LINE
  5
3EAD
330
3E5F
100
AcDbEntity
  8
0
 62
     0
100
AcDbLine
 10
-404.3749999999998
 20
359.5
 30
0.0
 11
-404.3749999999998
 21
359.6249999999998
 31
0.0
  0
LINE
  5
3EAE
330
3E5F
100
AcDbEntity
  8
0
 62
     0
100
AcDbLine
 10
-404.3749999999998
 20
359.75
 30
0.0
 11
-404.3749999999998
 21
359.8749999999998
 31
0.0
  0
LINE
  5
3EAF
330
3E5F
100
AcDbEntity
  8
0
 62
     0
100
AcDbLine
 10
-404.3749999999998
 20
360.0
 30
0.0
 11
-404.3749999999998
 21
360.125
 31
0.0
  0
LINE
  5
3EB0
330
3E5F
100
AcDbEntity
  8
0
 62
     0
100
AcDbLine
 10
-404.3749999999998
 20
360.25
 30
0.0
 11
-404.3749999999998
 21
360.375
 31
0.0
  0
LINE
  5
3EB1
330
3E5F
100
AcDbEntity
  8
0
 62
     0
100
AcDbLine
 10
-404.3749999999998
 20
360.4999999999998
 30
0.0
 11
-404.3749999999998
 21
360.625
 31
0.0
  0
LINE
  5
3EB2
330
3E5F
100
AcDbEntity
  8
0
 62
     0
100
AcDbLine
 10
-404.3749999999998
 20
360.7499999999998
 30
0.0
 11
-404.3749999999998
 21
360.875
 31
0.0
  0
LINE
  5
3EB3
330
3E5F
100
AcDbEntity
  8
0
 62
     0
100
AcDbLine
 10
-404.3749999999998
 20
361.0
 30
0.0
 11
-404.3749999999998
 21
361.125
 31
0.0
  0
LINE
  5
3EB4
330
3E5F
100
AcDbEntity
  8
0
 62
     0
100
AcDbLine
 10
-404.3749999999998
 20
361.25
 30
0.0
 11
-404.3749999999998
 21
361.375
 31
0.0
  0
LINE
  5
3EB5
330
3E5F
100
AcDbEntity
  8
0
 62
     0
100
AcDbLine
 10
-404.3749999999998
 20
361.5
 30
0.0
 11
-404.3749999999998
 21
361.6249999999998
 31
0.0
  0
LINE
  5
3EB6
330
3E5F
100
AcDbEntity
  8
0
 62
     0
100
AcDbLine
 10
-404.3749999999998
 20
361.75
 30
0.0
 11
-404.3749999999998
 21
361.8370122704502
 31
0.0
  0
LINE
  5
3EB7
330
3E5F
100
AcDbEntity
  8
0
 62
     0
100
AcDbLine
 10
-404.1249999999998
 20
358.2532249367679
 30
0.0
 11
-404.1249999999998
 21
358.375
 31
0.0
  0
LINE
  5
3EB8
330
3E5F
100
AcDbEntity
  8
0
 62
     0
100
AcDbLine
 10
-404.1249999999998
 20
358.4999999999998
 30
0.0
 11
-404.1249999999998
 21
358.625
 31
0.0
  0
LINE
  5
3EB9
330
3E5F
100
AcDbEntity
  8
0
 62
     0
100
AcDbLine
 10
-404.1249999999998
 20
358.7499999999998
 30
0.0
 11
-404.1249999999998
 21
358.875
 31
0.0
  0
LINE
  5
3EBA
330
3E5F
100
AcDbEntity
  8
0
 62
     0
100
AcDbLine
 10
-404.1249999999998
 20
359.0
 30
0.0
 11
-404.1249999999998
 21
359.125
 31
0.0
  0
LINE
  5
3EBB
330
3E5F
100
AcDbEntity
  8
0
 62
     0
100
AcDbLine
 10
-404.1249999999998
 20
359.25
 30
0.0
 11
-404.1249999999998
 21
359.375
 31
0.0
  0
LINE
  5
3EBC
330
3E5F
100
AcDbEntity
  8
0
 62
     0
100
AcDbLine
 10
-404.1249999999998
 20
359.5
 30
0.0
 11
-404.1249999999998
 21
359.6249999999998
 31
0.0
  0
LINE
  5
3EBD
330
3E5F
100
AcDbEntity
  8
0
 62
     0
100
AcDbLine
 10
-404.1249999999998
 20
359.75
 30
0.0
 11
-404.1249999999998
 21
359.8749999999998
 31
0.0
  0
LINE
  5
3EBE
330
3E5F
100
AcDbEntity
  8
0
 62
     0
100
AcDbLine
 10
-404.1249999999998
 20
360.0
 30
0.0
 11
-404.1249999999998
 21
360.125
 31
0.0
  0
LINE
  5
3EBF
330
3E5F
100
AcDbEntity
  8
0
 62
     0
100
AcDbLine
 10
-404.1249999999998
 20
360.25
 30
0.0
 11
-404.1249999999998
 21
360.375
 31
0.0
  0
LINE
  5
3EC0
330
3E5F
100
AcDbEntity
  8
0
 62
     0
100
AcDbLine
 10
-404.1249999999998
 20
360.4999999999998
 30
0.0
 11
-404.1249999999998
 21
360.625
 31
0.0
  0
LINE
  5
3EC1
330
3E5F
100
AcDbEntity
  8
0
 62
     0
100
AcDbLine
 10
-404.1249999999998
 20
360.7499999999998
 30
0.0
 11
-404.1249999999998
 21
360.875
 31
0.0
  0
LINE
  5
3EC2
330
3E5F
100
AcDbEntity
  8
0
 62
     0
100
AcDbLine
 10
-404.1249999999998
 20
361.0
 30
0.0
 11
-404.1249999999998
 21
361.125
 31
0.0
  0
LINE
  5
3EC3
330
3E5F
100
AcDbEntity
  8
0
 62
     0
100
AcDbLine
 10
-404.1249999999998
 20
361.25
 30
0.0
 11
-404.1249999999998
 21
361.375
 31
0.0
  0
LINE
  5
3EC4
330
3E5F
100
AcDbEntity
  8
0
 62
     0
100
AcDbLine
 10
-404.1249999999998
 20
361.5
 30
0.0
 11
-404.1249999999998
 21
361.6249999999998
 31
0.0
  0
LINE
  5
3EC5
330
3E5F
100
AcDbEntity
  8
0
 62
     0
100
AcDbLine
 10
-404.1249999999998
 20
361.75
 30
0.0
 11
-404.1249999999998
 21
361.8370122704502
 31
0.0
  0
ENDBLK
  5
3EC7
330
3E5F
100
AcDbEntity
  8
0
100
AcDbBlockEnd
  0
BLOCK
  5
3F91
330
3F90
100
AcDbEntity
  8
0
100
AcDbBlockBegin
  2
foul air trap
 70
     0
 10
0.0
 20
0.0
 30
0.0
  3
foul air trap
  1

  0
LINE
  5
3F93
330
3F90
100
AcDbEntity
  8
1
100
AcDbLine
 10
1208.491325910673
 20
1107.075306674516
 30
0.0
 11
1295.12942308226
 21
1107.075306674516
 31
0.0
  0
LINE
  5
3F94
330
3F90
100
AcDbEntity
  8
1
100
AcDbLine
 10
1201.090813605436
 20
1111.395306674515
 30
0.0
 11
1301.071511657789
 21
1111.395306674515
 31
0.0
  0
LINE
  5
3F95
330
3F90
100
AcDbEntity
  8
1
100
AcDbLine
 10
1232.045984437966
 20
1090.084261559292
 30
0.0
 11
1269.990977729441
 21
1090.084261559292
 31
0.0
  0
LINE
  5
3F96
330
3F90
100
AcDbEntity
  8
1
100
AcDbLine
 10
1232.045984437966
 20
1087.456409429085
 30
0.0
 11
1269.625868436242
 21
1087.456409429085
 31
0.0
  0
LINE
  5
3F97
330
3F90
100
AcDbEntity
  8
1
100
AcDbLine
 10
1228.335926437104
 20
1028.132369218754
 30
0.0
 11
1273.335926437104
 21
1028.132369218754
 31
0.0
  0
ARC
  5
3F98
330
3F90
100
AcDbEntity
  8
1
100
AcDbCircle
 10
1253.036451608067
 20
985.8193351931156
 30
0.0
 40
32.96637336539447
100
AcDbArc
 50
51.66227832045802
 51
81.30584230748334
  0
ARC
  5
3F99
330
3F90
100
AcDbEntity
  8
1
100
AcDbCircle
 10
1253.036451608067
 20
985.8193351931156
 30
0.0
 40
33.93862821539446
100
AcDbArc
 50
51.73541606254531
 51
81.43151591761862
  0
LINE
  5
3F9A
330
3F90
100
AcDbEntity
  8
1
100
AcDbLine
 10
1232.045984437966
 20
1087.456409429085
 30
0.0
 11
1232.045984437966
 21
1089.871131139661
 31
0.0
  0
LINE
  5
3F9B
330
3F90
100
AcDbEntity
  8
1
100
AcDbLine
 10
1230.245984437967
 20
1087.456409429085
 30
0.0
 11
1230.245984437967
 21
1089.389543793718
 31
0.0
  0
LINE
  5
3F9C
330
3F90
100
AcDbEntity
  8
1
100
AcDbLine
 10
1228.335926437104
 20
1028.132369218754
 30
0.0
 11
1228.335926437104
 21
1090.708360225801
 31
0.0
  0
ARC
  5
3F9D
330
3F90
100
AcDbEntity
  8
1
100
AcDbCircle
 10
1226.008606951122
 20
1028.129450528705
 30
0.0
 40
17.5005873
100
AcDbArc
 50
183.2361150823935
 51
268.054434265495
  0
LINE
  5
3F9E
330
3F90
100
AcDbEntity
  8
1
100
AcDbLine
 10
1209.435926437103
 20
1026.447911591658
 30
0.0
 11
1209.435926437103
 21
1074.862554575739
 31
0.0
  0
ARC
  5
3F9F
330
3F90
100
AcDbEntity
  8
1
100
AcDbCircle
 10
1225.878499240073
 20
1028.129450528705
 30
0.0
 40
16.52833245
100
AcDbArc
 50
185.8391894377785
 51
266.0563377827114
  0
ARC
  5
3FA0
330
3F90
100
AcDbEntity
  8
1
100
AcDbCircle
 10
1248.565759644177
 20
985.8193351931156
 30
0.0
 40
33.93862821539446
100
AcDbArc
 50
98.56848408238136
 51
128.2645839374547
  0
ARC
  5
3FA1
330
3F90
100
AcDbEntity
  8
1
100
AcDbCircle
 10
1248.565759644177
 20
985.8193351931156
 30
0.0
 40
32.96637336539447
100
AcDbArc
 50
98.69415769251663
 51
128.337721679542
  0
ARC
  5
3FA2
330
3F90
100
AcDbEntity
  8
1
100
AcDbCircle
 10
1225.139331173716
 20
1015.520065373245
 30
0.0
 40
3.889019399999998
100
AcDbArc
 50
266.0563377827114
 51
308.2645839374547
  0
ARC
  5
3FA3
330
3F90
100
AcDbEntity
  8
1
100
AcDbCircle
 10
1225.10143745401
 20
1015.490137478705
 30
0.0
 40
4.86127425
100
AcDbArc
 50
273.6919127553225
 51
308.3377216795419
  0
LINE
  5
3FA4
330
3F90
100
AcDbEntity
  8
1
100
AcDbLine
 10
1243.509194251122
 20
1019.379156878705
 30
0.0
 11
1258.093017001121
 21
1019.379156878705
 31
0.0
  0
LINE
  5
3FA5
330
3F90
100
AcDbEntity
  8
1
100
AcDbLine
 10
1243.509194251122
 20
1018.406902028704
 30
0.0
 11
1258.093017001121
 21
1018.406902028704
 31
0.0
  0
LINE
  5
3FA6
330
3F90
100
AcDbEntity
  8
1
100
AcDbLine
 10
1211.235926437104
 20
1074.862554575739
 30
0.0
 11
1228.335926437104
 21
1074.862554575739
 31
0.0
  0
LINE
  5
3FA7
330
3F90
100
AcDbEntity
  8
1
100
AcDbLine
 10
1206.432278019232
 20
1075.762554575738
 30
0.0
 11
1226.535926437104
 21
1075.762554575738
 31
0.0
  0
LINE
  5
3FA8
330
3F90
100
AcDbEntity
  8
1
100
AcDbLine
 10
1208.535926437104
 20
1027.141527707833
 30
0.0
 11
1208.535926437104
 21
1073.962554575738
 31
0.0
  0
LINE
  5
3FA9
330
3F90
100
AcDbEntity
  8
1
100
AcDbLine
 10
1210.335926437104
 20
1066.762554575737
 30
0.0
 11
1210.335926437104
 21
1073.962554575738
 31
0.0
  0
LINE
  5
3FAA
330
3F90
100
AcDbEntity
  8
1
100
AcDbLine
 10
1204.750938375634
 20
1073.526543741794
 30
0.0
 11
1208.509843233555
 21
1066.738838687578
 31
0.0
  0
LINE
  5
3FAB
330
3F90
100
AcDbEntity
  8
1
100
AcDbLine
 10
1203.135926437104
 20
1074.585126446083
 30
0.0
 11
1208.535926437104
 21
1064.83398650554
 31
0.0
  0
LINE
  5
3FAC
330
3F90
100
AcDbEntity
  8
1
100
AcDbLine
 10
1209.435926437103
 20
1066.762554575737
 30
0.0
 11
1210.335926437104
 21
1066.762554575737
 31
0.0
  0
LINE
  5
3FAD
330
3F90
100
AcDbEntity
  8
1
100
AcDbLine
 10
1206.432278019232
 20
1074.862554575739
 30
0.0
 11
1207.635926437104
 21
1074.862554575739
 31
0.0
  0
ARC
  5
3FAE
330
3F90
100
AcDbEntity
  8
1
100
AcDbCircle
 10
1208.535926437104
 20
1074.862554575739
 30
0.0
 40
0.9
100
AcDbArc
 50
0.0
 51
90.0
  0
ARC
  5
3FAF
330
3F90
100
AcDbEntity
  8
1
100
AcDbCircle
 10
1204.035926437104
 20
1074.862554575739
 30
0.0
 40
0.9
100
AcDbArc
 50
90.0
 51
180.0
  0
LINE
  5
3FB0
330
3F90
100
AcDbEntity
  8
1
100
AcDbLine
 10
1204.035926437104
 20
1075.762554575738
 30
0.0
 11
1208.535926437104
 21
1075.762554575738
 31
0.0
  0
LINE
  5
3FB1
330
3F90
100
AcDbEntity
  8
1
100
AcDbLine
 10
1205.538272201075
 20
1074.862554575739
 30
0.0
 11
1207.635926437104
 21
1074.862554575739
 31
0.0
  0
ARC
  5
3FB2
330
3F90
100
AcDbEntity
  8
1
100
AcDbCircle
 10
1205.538272201075
 20
1073.962554575738
 30
0.0
 40
0.9
100
AcDbArc
 50
90.0
 51
208.9768687366412
  0
ARC
  5
3FB3
330
3F90
100
AcDbEntity
  8
1
100
AcDbCircle
 10
1211.235926437104
 20
1073.962554575738
 30
0.0
 40
0.9
100
AcDbArc
 50
90.0
 51
180.0
  0
ARC
  5
3FB4
330
3F90
100
AcDbEntity
  8
1
100
AcDbCircle
 10
1207.635926437104
 20
1073.962554575738
 30
0.0
 40
0.9
100
AcDbArc
 50
0.0
 51
90.0
  0
LINE
  5
3FB5
330
3F90
100
AcDbEntity
  8
1
100
AcDbLine
 10
1230.135926437104
 20
1028.132369218754
 30
0.0
 11
1230.135926437104
 21
1076.303742262229
 31
0.0
  0
INSERT
  5
3FB6
330
3F90
100
AcDbEntity
  8
1
100
AcDbBlockReference
  2
*X0
 10
1591.922371740148
 20
749.2103183711956
 30
0.0
 41
0.899999999999977
 42
0.9000000000000909
 43
0.9
  0
LINE
  5
3FB7
330
3F90
100
AcDbEntity
  8
1
100
AcDbLine
 10
1230.245984437967
 20
1087.456409429085
 30
0.0
 11
1232.045984437966
 21
1087.456409429085
 31
0.0
  0
LINE
  5
3FB8
330
3F90
100
AcDbEntity
  8
1
100
AcDbLine
 10
1227.435926437103
 20
1076.662554575739
 30
0.0
 11
1227.435926437103
 21
1084.762554575739
 31
0.0
  0
ARC
  5
3FB9
330
3F90
100
AcDbEntity
  8
1
100
AcDbCircle
 10
1226.535926437104
 20
1076.662554575739
 30
0.0
 40
0.9
100
AcDbArc
 50
270.0
 51
0.0
  0
LINE
  5
3FBA
330
3F90
100
AcDbEntity
  8
1
100
AcDbLine
 10
1227.435926437103
 20
1084.762554575739
 30
0.0
 11
1228.335926437104
 21
1084.762554575739
 31
0.0
  0
LINE
  5
3FBB
330
3F90
100
AcDbEntity
  8
1
100
AcDbLine
 10
1230.135926437104
 20
1077.03883416508
 30
0.0
 11
1230.135926437104
 21
1087.388767686755
 31
0.0
  0
LINE
  5
3FBC
330
3F90
100
AcDbEntity
  8
1
100
AcDbLine
 10
1212.626944424235
 20
1097.475223166107
 30
0.0
 11
1231.450062716213
 21
1090.718206343347
 31
0.0
  0
LINE
  5
3FBD
330
3F90
100
AcDbEntity
  8
1
100
AcDbLine
 10
1212.268326666004
 20
1096.476216553888
 30
0.0
 11
1229.650062716213
 21
1090.236618997403
 31
0.0
  0
LINE
  5
3FBE
330
3F90
100
AcDbEntity
  8
1
100
AcDbLine
 10
1208.41010697363
 20
1103.966163008732
 30
0.0
 11
1208.41010697363
 21
1103.469262839418
 31
0.0
  0
LINE
  5
3FBF
330
3F90
100
AcDbEntity
  8
1
100
AcDbLine
 10
1207.34868297363
 20
1103.966163008732
 30
0.0
 11
1207.34868297363
 21
1103.469262839418
 31
0.0
  0
ARC
  5
3FC0
330
3F90
100
AcDbEntity
  8
1
100
AcDbCircle
 10
1214.77865097363
 20
1103.469262839418
 30
0.0
 40
6.368543999999999
100
AcDbArc
 50
180.0
 51
250.2531633945703
  0
ARC
  5
3FC1
330
3F90
100
AcDbEntity
  8
1
100
AcDbCircle
 10
1214.77865097363
 20
1103.469262839418
 30
0.0
 40
7.429967999999997
100
AcDbArc
 50
180.0
 51
250.2531633945703
  0
LINE
  5
3FC2
330
3F90
100
AcDbEntity
  8
1
100
AcDbLine
 10
1199.268556683942
 20
1111.396131008732
 30
0.0
 11
1200.98013897363
 21
1111.396131008732
 31
0.0
  0
LINE
  5
3FC3
330
3F90
100
AcDbEntity
  8
1
100
AcDbLine
 10
1199.268556683942
 20
1110.334707008732
 30
0.0
 11
1200.98013897363
 21
1110.334707008732
 31
0.0
  0
LINE
  5
3FC4
330
3F90
100
AcDbEntity
  8
1
100
AcDbLine
 10
1199.268556683942
 20
1111.396131008732
 30
0.0
 11
1199.268556683942
 21
1110.334707008732
 31
0.0
  0
ARC
  5
3FC5
330
3F90
100
AcDbEntity
  8
1
100
AcDbCircle
 10
1200.98013897363
 20
1103.966163008732
 30
0.0
 40
6.368543999999999
100
AcDbArc
 50
0.0
 51
90.0
  0
ARC
  5
3FC6
330
3F90
100
AcDbEntity
  8
1
100
AcDbCircle
 10
1200.98013897363
 20
1103.966163008732
 30
0.0
 40
7.429967999999997
100
AcDbArc
 50
0.0
 51
90.0
  0
ARC
  5
3FC7
330
3F90
100
AcDbEntity
  8
1
100
AcDbCircle
 10
1201.743166891606
 20
1103.966163008732
 30
0.0
 40
7.429967999999997
100
AcDbArc
 50
24.73739265893866
 51
90.0
  0
ARC
  5
3FC8
330
3F90
100
AcDbEntity
  8
1
100
AcDbCircle
 10
1231.145984437967
 20
1089.871131139661
 30
0.0
 40
0.9
100
AcDbArc
 50
0.0
 51
70.25316339457774
  0
ARC
  5
3FC9
330
3F90
100
AcDbEntity
  8
1
100
AcDbCircle
 10
1229.345984437967
 20
1089.389543793718
 30
0.0
 40
0.9
100
AcDbArc
 50
0.0
 51
70.25316339457049
  0
LINE
  5
3FCA
330
3F90
100
AcDbEntity
  8
1
100
AcDbLine
 10
1269.625868436242
 20
1087.456409429085
 30
0.0
 11
1269.625868436242
 21
1089.147327345961
 31
0.0
  0
LINE
  5
3FCB
330
3F90
100
AcDbEntity
  8
1
100
AcDbLine
 10
1271.425868436242
 20
1087.456409429085
 30
0.0
 11
1271.425868436242
 21
1088.665740000018
 31
0.0
  0
LINE
  5
3FCC
330
3F90
100
AcDbEntity
  8
1
100
AcDbLine
 10
1271.535926437104
 20
1028.132369218754
 30
0.0
 11
1271.535926437104
 21
1089.097007478506
 31
0.0
  0
LINE
  5
3FCD
330
3F90
100
AcDbEntity
  8
1
100
AcDbLine
 10
1273.335926437104
 20
1028.132369218754
 30
0.0
 11
1273.335926437104
 21
1089.984556432101
 31
0.0
  0
ARC
  5
3FCE
330
3F90
100
AcDbEntity
  8
1
100
AcDbCircle
 10
1275.72371201217
 20
1028.129450528705
 30
0.0
 40
16.52833245
100
AcDbArc
 50
273.9436622172885
 51
0.0
  0
ARC
  5
3FCF
330
3F90
100
AcDbEntity
  8
1
100
AcDbCircle
 10
1275.593604301122
 20
1028.129450528705
 30
0.0
 40
17.5005873
100
AcDbArc
 50
271.9455657345049
 51
0.0
  0
LINE
  5
3FD0
330
3F90
100
AcDbEntity
  8
1
100
AcDbLine
 10
1293.060256799416
 20
1027.040135905333
 30
0.0
 11
1293.060256799416
 21
1074.142329839042
 31
0.0
  0
ARC
  5
3FD1
330
3F90
100
AcDbEntity
  8
1
100
AcDbCircle
 10
1276.462880078527
 20
1015.520065373245
 30
0.0
 40
3.889019399999998
100
AcDbArc
 50
231.7354160625453
 51
273.9436622172885
  0
ARC
  5
3FD2
330
3F90
100
AcDbEntity
  8
1
100
AcDbCircle
 10
1276.500773798233
 20
1015.490137478705
 30
0.0
 40
4.86127425
100
AcDbArc
 50
231.6622783204579
 51
266.3080872446775
  0
LINE
  5
3FD3
330
3F90
100
AcDbEntity
  8
1
100
AcDbLine
 10
1292.235926437104
 20
1027.39969141589
 30
0.0
 11
1292.235926437104
 21
1074.862554575739
 31
0.0
  0
LINE
  5
3FD4
330
3F90
100
AcDbEntity
  8
1
100
AcDbLine
 10
1275.135926437104
 20
1075.762554575738
 30
0.0
 11
1296.242513997039
 21
1075.762554575738
 31
0.0
  0
LINE
  5
3FD5
330
3F90
100
AcDbEntity
  8
1
100
AcDbLine
 10
1273.335926437104
 20
1074.862554575739
 30
0.0
 11
1290.435926437104
 21
1074.862554575739
 31
0.0
  0
INSERT
  5
3FD6
330
3F90
100
AcDbEntity
  8
1
100
AcDbBlockReference
  2
*X0
 10
909.7362896308206
 20
749.2103183711956
 30
0.0
 41
-0.899999999999977
 42
0.9000000000000909
 43
0.9
  0
LINE
  5
3FD7
330
3F90
100
AcDbEntity
  8
1
100
AcDbLine
 10
1271.425868436242
 20
1087.456409429085
 30
0.0
 11
1269.625868436242
 21
1087.456409429085
 31
0.0
  0
LINE
  5
3FD8
330
3F90
100
AcDbEntity
  8
1
100
AcDbLine
 10
1274.235926437104
 20
1076.662554575739
 30
0.0
 11
1274.235926437104
 21
1084.762554575739
 31
0.0
  0
ARC
  5
3FD9
330
3F90
100
AcDbEntity
  8
1
100
AcDbCircle
 10
1275.135926437104
 20
1076.662554575739
 30
0.0
 40
0.9
100
AcDbArc
 50
180.0
 51
270.0
  0
LINE
  5
3FDA
330
3F90
100
AcDbEntity
  8
1
100
AcDbLine
 10
1273.335926437104
 20
1084.762554575739
 30
0.0
 11
1274.235926437104
 21
1084.762554575739
 31
0.0
  0
LINE
  5
3FDB
330
3F90
100
AcDbEntity
  8
1
100
AcDbLine
 10
1296.950070173883
 20
1073.526543741794
 30
0.0
 11
1293.060256799416
 21
1066.502448453459
 31
0.0
  0
LINE
  5
3FDC
330
3F90
100
AcDbEntity
  8
1
100
AcDbLine
 10
1291.335926437104
 20
1066.762554575737
 30
0.0
 11
1291.335926437104
 21
1073.962554575738
 31
0.0
  0
LINE
  5
3FDD
330
3F90
100
AcDbEntity
  8
1
100
AcDbLine
 10
1298.565082112412
 20
1074.585126446083
 30
0.0
 11
1293.060256799416
 21
1064.644696450665
 31
0.0
  0
LINE
  5
3FDE
330
3F90
100
AcDbEntity
  8
1
100
AcDbLine
 10
1291.335926437104
 20
1066.762554575737
 30
0.0
 11
1292.235926437104
 21
1066.762554575737
 31
0.0
  0
LINE
  5
3FDF
330
3F90
100
AcDbEntity
  8
1
100
AcDbLine
 10
1297.665082112413
 20
1075.762554575738
 30
0.0
 11
1293.165082112413
 21
1075.762554575738
 31
0.0
  0
ARC
  5
3FE0
330
3F90
100
AcDbEntity
  8
1
100
AcDbCircle
 10
1293.165082112413
 20
1074.862554575739
 30
0.0
 40
0.9
100
AcDbArc
 50
90.0
 51
180.0
  0
LINE
  5
3FE1
330
3F90
100
AcDbEntity
  8
1
100
AcDbLine
 10
1296.162736348442
 20
1074.862554575739
 30
0.0
 11
1294.065082112412
 21
1074.862554575739
 31
0.0
  0
ARC
  5
3FE2
330
3F90
100
AcDbEntity
  8
1
100
AcDbCircle
 10
1297.665082112413
 20
1074.862554575739
 30
0.0
 40
0.9
100
AcDbArc
 50
0.0
 51
90.0
  0
LINE
  5
3FE3
330
3F90
100
AcDbEntity
  8
1
100
AcDbLine
 10
1298.565082112412
 20
1074.585126446083
 30
0.0
 11
1298.565082112412
 21
1074.862554575739
 31
0.0
  0
ARC
  5
3FE4
330
3F90
100
AcDbEntity
  8
1
100
AcDbCircle
 10
1296.162736348442
 20
1073.962554575738
 30
0.0
 40
0.9
100
AcDbArc
 50
331.0231312633586
 51
90.0
  0
ARC
  5
3FE5
330
3F90
100
AcDbEntity
  8
1
100
AcDbCircle
 10
1293.942118951171
 20
1073.962554575738
 30
0.0
 40
0.9
100
AcDbArc
 50
83.52634024789486
 51
180.0
  0
ARC
  5
3FE6
330
3F90
100
AcDbEntity
  8
1
100
AcDbCircle
 10
1290.435926437104
 20
1073.962554575738
 30
0.0
 40
0.9
100
AcDbArc
 50
0.0
 51
90.0
  0
LINE
  5
3FE7
330
3F90
100
AcDbEntity
  8
1
100
AcDbLine
 10
1290.595634252651
 20
1097.308090173368
 30
0.0
 11
1270.221790157995
 21
1089.994402549645
 31
0.0
  0
LINE
  5
3FE8
330
3F90
100
AcDbEntity
  8
1
100
AcDbLine
 10
1290.954252010884
 20
1096.30908356115
 30
0.0
 11
1272.021790157995
 21
1089.512815203703
 31
0.0
  0
ARC
  5
3FE9
330
3F90
100
AcDbEntity
  8
1
100
AcDbCircle
 10
1270.525868436242
 20
1089.147327345961
 30
0.0
 40
0.9
100
AcDbArc
 50
109.7468366054294
 51
180.0
  0
ARC
  5
3FEA
330
3F90
100
AcDbEntity
  8
1
100
AcDbCircle
 10
1272.325868436242
 20
1088.665740000018
 30
0.0
 40
0.9
100
AcDbArc
 50
109.7468366054294
 51
180.0
  0
LINE
  5
3FEB
330
3F90
100
AcDbEntity
  8
1
100
AcDbLine
 10
1295.873895703258
 20
1103.799030015994
 30
0.0
 11
1295.873895703256
 21
1103.30212984668
 31
0.0
  0
LINE
  5
3FEC
330
3F90
100
AcDbEntity
  8
1
100
AcDbLine
 10
1294.812471703258
 20
1103.799030015994
 30
0.0
 11
1294.812471703258
 21
1103.30212984668
 31
0.0
  0
ARC
  5
3FED
330
3F90
100
AcDbEntity
  8
1
100
AcDbCircle
 10
1288.443927703257
 20
1103.30212984668
 30
0.0
 40
7.429967999999997
100
AcDbArc
 50
289.7468366054294
 51
0.0
  0
ARC
  5
3FEE
330
3F90
100
AcDbEntity
  8
1
100
AcDbCircle
 10
1288.443927703258
 20
1103.30212984668
 30
0.0
 40
6.368543999999999
100
AcDbArc
 50
289.7468366054294
 51
0.0
  0
ARC
  5
3FEF
330
3F90
100
AcDbEntity
  8
1
100
AcDbCircle
 10
1302.174743641883
 20
1103.8275830409
 30
0.0
 40
6.300912633968848
100
AcDbArc
 50
87.89156686214006
 51
180.2596407082099
  0
LINE
  5
3FF0
330
3F90
100
AcDbEntity
  8
1
100
AcDbLine
 10
1304.466416769479
 20
1111.184829556717
 30
0.0
 11
1301.433496179113
 21
1111.184829556717
 31
0.0
  0
ARC
  5
3FF1
330
3F90
100
AcDbEntity
  8
1
100
AcDbCircle
 10
1302.242439703257
 20
1103.799030015994
 30
0.0
 40
7.429967999999997
100
AcDbArc
 50
96.25051298958091
 51
180.0
  0
ARC
  5
3FF2
330
3F90
100
AcDbEntity
  8
1
100
AcDbCircle
 10
1301.898277976136
 20
1104.01148097669
 30
0.0
 40
7.429967999999997
100
AcDbArc
 50
96.25051298958091
 51
155.6467925743058
  0
LINE
  5
3FF3
330
3F90
100
AcDbEntity
  8
1
100
AcDbLine
 10
1304.466416769479
 20
1110.124229890933
 30
0.0
 11
1302.423286532922
 21
1110.124229890933
 31
0.0
  0
LINE
  5
3FF4
330
3F90
100
AcDbEntity
  8
1
100
AcDbLine
 10
1304.466416769479
 20
1111.185653890933
 30
0.0
 11
1304.466416769479
 21
1110.124229890933
 31
0.0
  0
ENDBLK
  5
3F92
330
3F90
100
AcDbEntity
  8
0
100
AcDbBlockEnd
  0
BLOCK
  5
4175
330
4172
100
AcDbEntity
  8
1
100
AcDbBlockBegin
  2
WELD
 70
     0
 10
0.0
 20
0.0
 30
0.0
  3
WELD
  1

  0
INSERT
  5
4173
330
4172
100
AcDbEntity
  8
1
100
AcDbBlockReference
  2
*X3
 10
1807.918320525746
 20
-1230.1583404367
 30
0.0
  0
LWPOLYLINE
  5
4174
330
4172
100
AcDbEntity
  8
1
100
AcDbPolyline
 90
        3
 70
     1
 43
0.0
 10
-0.7264291908145424
 20
0.4224310227373281
 10
1.894316483983399
 20
0.4224310227373281
 10
-0.7264291908145424
 20
-2.032451147131723
  0
ENDBLK
  5
4176
330
4172
100
AcDbEntity
  8
1
100
AcDbBlockEnd
  0
BLOCK
  5
4187
330
4177
100
AcDbEntity
  8
1
100
AcDbBlockBegin
  2
*X3
 70
     1
 10
0.0
 20
0.0
 30
0.0
  3
*X3
  1

  0
LINE
  5
4178
330
4177
100
AcDbEntity
  8
0
 62
     0
100
AcDbLine
 10
-1807.05572592346
 20
1229.614345882168
 30
0.0
 11
-1806.089300346189
 21
1230.580771459437
 31
0.0
  0
LINE
  5
4179
330
4177
100
AcDbEntity
  8
0
 62
     0
100
AcDbLine
 10
-1808.64474971656
 20
1228.202098784364
 30
0.0
 11
-1806.266077041487
 21
1230.580771459437
 31
0.0
  0
LINE
  5
417A
330
4177
100
AcDbEntity
  8
0
 62
     0
100
AcDbLine
 10
-1808.64474971656
 20
1228.37887547966
 30
0.0
 11
-1806.442853736784
 21
1230.580771459437
 31
0.0
  0
LINE
  5
417B
330
4177
100
AcDbEntity
  8
0
 62
     0
100
AcDbLine
 10
-1808.64474971656
 20
1228.555652174956
 30
0.0
 11
-1806.619630432081
 21
1230.580771459437
 31
0.0
  0
LINE
  5
417C
330
4177
100
AcDbEntity
  8
0
 62
     0
100
AcDbLine
 10
-1808.64474971656
 20
1228.732428870254
 30
0.0
 11
-1806.796407127377
 21
1230.580771459437
 31
0.0
  0
LINE
  5
417D
330
4177
100
AcDbEntity
  8
0
 62
     0
100
AcDbLine
 10
-1808.64474971656
 20
1228.909205565551
 30
0.0
 11
-1806.973183822674
 21
1230.580771459437
 31
0.0
  0
LINE
  5
417E
330
4177
100
AcDbEntity
  8
0
 62
     0
100
AcDbLine
 10
-1808.64474971656
 20
1229.085982260847
 30
0.0
 11
-1807.149960517971
 21
1230.580771459437
 31
0.0
  0
LINE
  5
417F
330
4177
100
AcDbEntity
  8
0
 62
     0
100
AcDbLine
 10
-1808.64474971656
 20
1229.262758956144
 30
0.0
 11
-1807.326737213267
 21
1230.580771459437
 31
0.0
  0
LINE
  5
4180
330
4177
100
AcDbEntity
  8
0
 62
     0
100
AcDbLine
 10
-1808.64474971656
 20
1229.43953565144
 30
0.0
 11
-1807.503513908564
 21
1230.580771459437
 31
0.0
  0
LINE
  5
4181
330
4177
100
AcDbEntity
  8
0
 62
     0
100
AcDbLine
 10
-1808.64474971656
 20
1229.616312346736
 30
0.0
 11
-1807.68029060386
 21
1230.580771459437
 31
0.0
  0
LINE
  5
4182
330
4177
100
AcDbEntity
  8
0
 62
     0
100
AcDbLine
 10
-1808.64474971656
 20
1229.793089042034
 30
0.0
 11
-1807.857067299157
 21
1230.580771459437
 31
0.0
  0
LINE
  5
4183
330
4177
100
AcDbEntity
  8
0
 62
     0
100
AcDbLine
 10
-1808.64474971656
 20
1229.96986573733
 30
0.0
 11
-1808.033843994454
 21
1230.580771459437
 31
0.0
  0
LINE
  5
4184
330
4177
100
AcDbEntity
  8
0
 62
     0
100
AcDbLine
 10
-1808.64474971656
 20
1230.146642432627
 30
0.0
 11
-1808.210620689751
 21
1230.580771459437
 31
0.0
  0
LINE
  5
4185
330
4177
100
AcDbEntity
  8
0
 62
     0
100
AcDbLine
 10
-1808.64474971656
 20
1230.323419127923
 30
0.0
 11
-1808.387397385047
 21
1230.580771459437
 31
0.0
  0
LINE
  5
4186
330
4177
100
AcDbEntity
  8
0
 62
     0
100
AcDbLine
 10
-1808.64474971656
 20
1230.50019582322
 30
0.0
 11
-1808.564174080343
 21
1230.580771459437
 31
0.0
  0
ENDBLK
  5
4188
330
4177
100
AcDbEntity
  8
1
100
AcDbBlockEnd
  0
BLOCK
  5
4779
330
476F
100
AcDbEntity
  8
0
100
AcDbBlockBegin
  2
*D4
 70
     1
 10
0.0
 20
0.0
 30
0.0
  3
*D4
  1

  0
LINE
  5
4EA7
330
476F
100
AcDbEntity
  8
1
 62
     0
370
    -2
100
AcDbLine
 10
1941.130076671105
 20
1090.83118366981
 30
0.0
 11
1941.130076671105
 21
1110.629933566152
 31
0.0
  0
LINE
  5
4EA8
330
476F
100
AcDbEntity
  8
1
 62
     0
370
    -2
100
AcDbLine
 10
2166.024188505644
 20
1090.83118366981
 30
0.0
 11
2166.024188505644
 21
1110.629933566152
 31
0.0
  0
LINE
  5
4EA9
330
476F
100
AcDbEntity
  8
1
 62
     0
370
    -2
100
AcDbLine
 10
1948.030076671105
 20
1105.229933566152
 30
0.0
 11
2159.124188505642
 21
1105.229933566152
 31
0.0
  0
SOLID
  5
4EAA
330
476F
100
AcDbEntity
  8
1
 62
     0
100
AcDbTrace
 10
1948.030076671105
 20
1106.379933566151
 30
0.0
 11
1948.030076671105
 21
1104.07993356615
 31
0.0
 12
1941.130076671105
 22
1105.229933566152
 32
0.0
 13
1941.130076671105
 23
1105.229933566152
 33
0.0
  0
SOLID
  5
4EAB
330
476F
100
AcDbEntity
  8
1
 62
     0
100
AcDbTrace
 10
2159.124188505642
 20
1106.379933566151
 30
0.0
 11
2159.124188505642
 21
1104.07993356615
 31
0.0
 12
2166.024188505644
 22
1105.229933566152
 32
0.0
 13
2166.024188505644
 23
1105.229933566152
 33
0.0
  0
MTEXT
  5
4EAC
330
476F
100
AcDbEntity
  8
1
 62
     0
100
AcDbMText
 10
2053.577132588374
 20
1111.420284443344
 30
0.0
 40
6.9
 41
0.0
 71
     5
 72
     1
  1
\A1;D1
 73
     1
 44
1.0
  0
POINT
  5
4EAD
330
476F
100
AcDbEntity
  8
DEFPOINTS
 62
     0
100
AcDbPoint
 10
1941.130076671105
 20
1087.23118366981
 30
0.0
  0
POINT
  5
4EAE
330
476F
100
AcDbEntity
  8
DEFPOINTS
 62
     0
100
AcDbPoint
 10
2166.024188505644
 20
1087.23118366981
 30
0.0
  0
POINT
  5
4EAF
330
476F
100
AcDbEntity
  8
DEFPOINTS
 62
     0
100
AcDbPoint
 10
2166.024188505644
 20
1105.229933566152
 30
0.0
  0
ENDBLK
  5
477A
330
476F
100
AcDbEntity
  8
0
100
AcDbBlockEnd
  0
BLOCK
  5
47E1
330
47C9
100
AcDbEntity
  8
0
100
AcDbBlockBegin
  2
*X5
 70
     1
 10
0.0
 20
0.0
 30
0.0
  3
*X5
  1

  0
LINE
  5
47CA
330
47C9
100
AcDbEntity
  8
0
 62
     0
100
AcDbLine
 10
-623.9302995495727
 20
381.5755432976976
 30
0.0
 11
-614.5617905610541
 21
390.9440522862162
 31
0.0
  0
LINE
  5
47CB
330
47C9
100
AcDbEntity
  8
0
 62
     0
100
AcDbLine
 10
-613.8056723237488
 20
391.7001705235218
 30
0.0
 11
-612.8808332083372
 21
392.6250096389334
 31
0.0
  0
LINE
  5
47CC
330
47C9
100
AcDbEntity
  8
0
 62
     0
100
AcDbLine
 10
-628.4449997445888
 20
383.4248041333606
 30
0.0
 11
-615.4235554359719
 21
396.4462484419773
 31
0.0
  0
LINE
  5
47CD
330
47C9
100
AcDbEntity
  8
0
 62
     0
100
AcDbLine
 10
-629.5370516436562
 20
388.6967132649721
 30
0.0
 11
-621.7875164666508
 21
396.4462484419773
 31
0.0
  0
LINE
  5
47CE
330
47C9
100
AcDbEntity
  8
0
 62
     0
100
AcDbLine
 10
-628.4449997445888
 20
396.1527261947184
 30
0.0
 11
-628.1514774973299
 21
396.4462484419773
 31
0.0
  0
LINE
  5
47CF
330
47C9
100
AcDbEntity
  8
0
 62
     0
100
AcDbLine
 10
-617.5663385188937
 20
381.5755432976978
 30
0.0
 11
-615.0268103541512
 21
384.1150714624403
 31
0.0
  0
LINE
  5
47D0
330
47C9
100
AcDbEntity
  8
0
 62
     0
100
AcDbLine
 10
-622.8696393795727
 20
381.5755432976978
 30
0.0
 11
-614.8545140772687
 21
389.5906686000015
 31
0.0
  0
LINE
  5
47D1
330
47C9
100
AcDbEntity
  8
0
 62
     0
100
AcDbLine
 10
-614.1429190600057
 20
390.3022636172646
 30
0.0
 11
-612.5160076678881
 21
391.9291750093825
 31
0.0
  0
LINE
  5
47D2
330
47C9
100
AcDbEntity
  8
0
 62
     0
100
AcDbLine
 10
-628.4449997445888
 20
382.3641439633606
 30
0.0
 11
-614.6206702372349
 21
396.1884734707142
 31
0.0
  0
LINE
  5
47D3
330
47C9
100
AcDbEntity
  8
0
 62
     0
100
AcDbLine
 10
-629.5370516436562
 20
387.6360530949721
 30
0.0
 11
-620.7268562966508
 21
396.4462484419773
 31
0.0
  0
LINE
  5
47D4
330
47C9
100
AcDbEntity
  8
0
 62
     0
100
AcDbLine
 10
-628.4449997445888
 20
395.0920660247184
 30
0.0
 11
-627.0908173273299
 21
396.4462484419773
 31
0.0
  0
LINE
  5
47D5
330
47C9
100
AcDbEntity
  8
0
 62
     0
100
AcDbLine
 10
-616.5056783488937
 20
381.5755432976978
 30
0.0
 11
-615.265230655631
 21
382.8159909909604
 31
0.0
  0
LINE
  5
47D6
330
47C9
100
AcDbEntity
  8
0
 62
     0
100
AcDbLine
 10
-628.1729402342517
 20
381.5755432976976
 30
0.0
 11
-614.4213801978792
 21
395.3271033340702
 31
0.0
  0
LINE
  5
47D7
330
47C9
100
AcDbEntity
  8
0
 62
     0
100
AcDbLine
 10
-628.6793799970197
 20
387.4330645656086
 30
0.0
 11
-619.6661961206507
 21
396.4462484419773
 31
0.0
  0
LINE
  5
47D8
330
47C9
100
AcDbEntity
  8
0
 62
     0
100
AcDbLine
 10
-628.4449997445888
 20
394.0314058487183
 30
0.0
 11
-626.0301571513297
 21
396.4462484419773
 31
0.0
  0
LINE
  5
47D9
330
47C9
100
AcDbEntity
  8
0
 62
     0
100
AcDbLine
 10
-621.8089792035727
 20
381.5755432976978
 30
0.0
 11
-615.0348342961567
 21
388.3496882051137
 31
0.0
  0
LINE
  5
47DA
330
47C9
100
AcDbEntity
  8
0
 62
     0
100
AcDbLine
 10
-614.480165798171
 20
388.9043567030995
 30
0.0
 11
-612.8532407135801
 21
390.5312817876902
 31
0.0
  0
LINE
  5
47DB
330
47C9
100
AcDbEntity
  8
0
 62
     0
100
AcDbLine
 10
-615.4450181728937
 20
381.5755432976978
 30
0.0
 11
-615.1101886743478
 21
381.9103727962438
 31
0.0
  0
LINE
  5
47DC
330
47C9
100
AcDbEntity
  8
0
 62
     0
100
AcDbLine
 10
-627.1122800642517
 20
381.5755432976976
 30
0.0
 11
-614.2220901596507
 21
394.4657332022986
 31
0.0
  0
LINE
  5
47DD
330
47C9
100
AcDbEntity
  8
0
 62
     0
100
AcDbLine
 10
-628.4449997445888
 20
386.6067846480396
 30
0.0
 11
-618.6055359506507
 21
396.4462484419773
 31
0.0
  0
LINE
  5
47DE
330
47C9
100
AcDbEntity
  8
0
 62
     0
100
AcDbLine
 10
-628.4449997445888
 20
392.9707456787186
 30
0.0
 11
-624.9694969813297
 21
396.4462484419773
 31
0.0
  0
LINE
  5
47DF
330
47C9
100
AcDbEntity
  8
0
 62
     0
100
AcDbLine
 10
-620.7483190335728
 20
381.5755432976978
 30
0.0
 11
-614.9847325819527
 21
387.3391297493178
 31
0.0
  0
LINE
  5
47E0
330
47C9
100
AcDbEntity
  8
0
 62
     0
100
AcDbLine
 10
-614.817412534428
 20
387.5064497968425
 30
0.0
 11
-613.1904874498372
 21
389.133374881433
 31
0.0
  0
ENDBLK
  5
47E2
330
47C9
100
AcDbEntity
  8
0
100
AcDbBlockEnd
  0
BLOCK
  5
4B15
330
4B14
100
AcDbEntity
  8
0
100
AcDbBlockBegin
  2
BODY
 70
     0
 10
0.0
 20
0.0
 30
0.0
  3
BODY
  1

  0
LINE
  5
4B17
330
4B14
100
AcDbEntity
  8
1
100
AcDbLine
 10
2879.449670451817
 20
1037.376563944991
 30
0.0
 11
2879.449670451819
 21
963.461743449452
 31
0.0
  0
LINE
  5
4B18
330
4B14
100
AcDbEntity
  8
1
100
AcDbLine
 10
2880.949670451817
 20
1037.376563944991
 30
0.0
 11
2880.949670451819
 21
963.4617434494513
 31
0.0
  0
LINE
  5
4B19
330
4B14
100
AcDbEntity
  8
1
100
AcDbLine
 10
2988.949670451818
 20
1037.376563944991
 30
0.0
 11
2988.949670451816
 21
963.3957679859951
 31
0.0
  0
LINE
  5
4B1A
330
4B14
100
AcDbEntity
  8
1
100
AcDbLine
 10
2990.449670451818
 20
1037.376563944991
 30
0.0
 11
2990.449670451815
 21
963.3957679859951
 31
0.0
  0
LINE
  5
4B1B
330
4B14
100
AcDbEntity
  8
1
100
AcDbLine
 10
2881.90156175463
 20
956.4581037357163
 30
0.0
 11
2988.020876377255
 21
956.4581037357163
 31
0.0
  0
LINE
  5
4B1C
330
4B14
100
AcDbEntity
  8
1
100
AcDbLine
 10
2880.949670451819
 20
963.461743449452
 30
0.0
 11
2883.40156175463
 21
956.4581037357163
 31
0.0
  0
LINE
  5
4B1D
330
4B14
100
AcDbEntity
  8
1
100
AcDbLine
 10
2879.449670451819
 20
963.461743449452
 30
0.0
 11
2881.90156175463
 21
956.4581037357163
 31
0.0
  0
LINE
  5
4B1E
330
4B14
100
AcDbEntity
  8
1
100
AcDbLine
 10
2988.961219065941
 20
963.4287557177232
 30
0.0
 11
2986.520876377255
 21
956.4581037357163
 31
0.0
  0
LINE
  5
4B1F
330
4B14
100
AcDbEntity
  8
1
100
AcDbLine
 10
2990.449670451815
 20
963.3957679859951
 30
0.0
 11
2988.020876377255
 21
956.4581037357163
 31
0.0
  0
LINE
  5
4B20
330
4B14
100
AcDbEntity
  8
1
100
AcDbLine
 10
2859.949670451817
 20
1140.87656394499
 30
0.0
 11
2859.949670451817
 21
1046.876563944991
 31
0.0
  0
LINE
  5
4B21
330
4B14
100
AcDbEntity
  8
1
100
AcDbLine
 10
2860.949670451818
 20
1140.87656394499
 30
0.0
 11
2860.949670451818
 21
1047.521747808954
 31
0.0
  0
LINE
  5
4B22
330
4B14
100
AcDbEntity
  8
1
100
AcDbLine
 10
2860.949670451818
 20
1047.521747808954
 30
0.0
 11
2881.949670451818
 21
1038.021747808953
 31
0.0
  0
LINE
  5
4B23
330
4B14
100
AcDbEntity
  8
1
100
AcDbLine
 10
2859.949670451817
 20
1046.876563944991
 30
0.0
 11
2880.949670451817
 21
1037.376563944991
 31
0.0
  0
LINE
  5
4B24
330
4B14
100
AcDbEntity
  8
1
100
AcDbLine
 10
2881.949670451818
 20
1038.021747808953
 30
0.0
 11
2881.949670451818
 21
1029.87656394499
 31
0.0
  0
LINE
  5
4B25
330
4B14
100
AcDbEntity
  8
1
100
AcDbLine
 10
2880.949670451817
 20
1037.376563944991
 30
0.0
 11
2879.449670451817
 21
1037.376563944991
 31
0.0
  0
LINE
  5
4B26
330
4B14
100
AcDbEntity
  8
1
100
AcDbLine
 10
3008.949670451817
 20
1140.87656394499
 30
0.0
 11
3008.949670451817
 21
1047.521747808954
 31
0.0
  0
LINE
  5
4B27
330
4B14
100
AcDbEntity
  8
1
100
AcDbLine
 10
3009.949670451817
 20
1140.87656394499
 30
0.0
 11
3009.949670451817
 21
1046.876563944991
 31
0.0
  0
LINE
  5
4B28
330
4B14
100
AcDbEntity
  8
1
100
AcDbLine
 10
3009.949670451817
 20
1046.876563944991
 30
0.0
 11
2988.949670451818
 21
1037.376563944991
 31
0.0
  0
LINE
  5
4B29
330
4B14
100
AcDbEntity
  8
1
100
AcDbLine
 10
3008.949670451817
 20
1047.521747808954
 30
0.0
 11
2987.949670451818
 21
1038.021747808953
 31
0.0
  0
LINE
  5
4B2A
330
4B14
100
AcDbEntity
  8
1
100
AcDbLine
 10
2988.949670451818
 20
1037.376563944991
 30
0.0
 11
2990.449670451818
 21
1037.376563944991
 31
0.0
  0
LINE
  5
4B2B
330
4B14
100
AcDbEntity
  8
1
100
AcDbLine
 10
2987.949670451818
 20
1038.021747808953
 30
0.0
 11
2987.949670451818
 21
1029.87656394499
 31
0.0
  0
LWPOLYLINE
  5
4B2C
330
4B14
100
AcDbEntity
  8
1
100
AcDbPolyline
 90
        5
 70
     0
 43
0.0
 10
2876.798522128624
 20
1128.495116010886
 10
2875.60113468058
 20
1126.770002547996
 10
2875.60113468058
 20
1125.973348407993
 10
2875.60113468058
 20
1125.375857802991
 10
2875.867325671747
 20
1124.573973951903
  0
LINE
  5
4B2D
330
4B14
100
AcDbEntity
  8
1
100
AcDbLine
 10
2861.245195599236
 20
1124.200043446556
 30
0.0
 11
2861.245195599236
 21
1130.200043446556
 31
0.0
  0
LINE
  5
4B2E
330
4B14
100
AcDbEntity
  8
1
100
AcDbLine
 10
2862.131361557112
 20
1124.700043446556
 30
0.0
 11
2862.131361557112
 21
1130.200043446556
 31
0.0
  0
LINE
  5
4B2F
330
4B14
100
AcDbEntity
  8
1
100
AcDbLine
 10
2862.421365591623
 20
1124.573973951903
 30
0.0
 11
2862.421365591623
 21
1130.431495219814
 31
0.0
  0
INSERT
  5
4B30
330
4B14
100
AcDbEntity
  8
1
100
AcDbBlockReference
  2
*X5
 10
3490.866365336211
 20
742.9984306542053
 30
0.0
  0
LINE
  5
4B31
330
4B14
100
AcDbEntity
  8
1
100
AcDbLine
 10
2877.972065105573
 20
1123.200043446556
 30
0.0
 11
2862.245195599236
 21
1123.200043446556
 31
0.0
  0
LINE
  5
4B32
330
4B14
100
AcDbEntity
  8
1
100
AcDbLine
 10
2877.972065105573
 20
1124.200043446556
 30
0.0
 11
2862.631361557111
 21
1124.200043446556
 31
0.0
  0
LINE
  5
4B33
330
4B14
100
AcDbEntity
  8
1
100
AcDbLine
 10
2862.421365591623
 20
1124.573973951903
 30
0.0
 11
2875.867325671747
 21
1124.573973951903
 31
0.0
  0
ARC
  5
4B34
330
4B14
100
AcDbEntity
  8
1
100
AcDbCircle
 10
2862.631361557111
 20
1124.700043446556
 30
0.0
 40
0.5
100
AcDbArc
 50
180.0
 51
270.0
  0
ARC
  5
4B35
330
4B14
100
AcDbEntity
  8
1
100
AcDbCircle
 10
2862.245195599236
 20
1124.200043446556
 30
0.0
 40
1.0
100
AcDbArc
 50
180.0
 51
270.0
  0
LINE
  5
4B36
330
4B14
100
AcDbEntity
  8
1
100
AcDbLine
 10
2877.972065105573
 20
1124.200043446556
 30
0.0
 11
2877.972065105573
 21
1123.200043446556
 31
0.0
  0
LINE
  5
4B37
330
4B14
100
AcDbEntity
  8
1
100
AcDbLine
 10
2862.421365591623
 20
1139.444679096183
 30
0.0
 11
2876.186055250807
 21
1139.444679096183
 31
0.0
  0
LINE
  5
4B38
330
4B14
100
AcDbEntity
  8
1
100
AcDbLine
 10
2877.972065105572
 20
1139.849975431699
 30
0.0
 11
2862.631361557111
 21
1139.849975431699
 31
0.0
  0
LINE
  5
4B39
330
4B14
100
AcDbEntity
  8
1
100
AcDbLine
 10
2877.972065105572
 20
1140.849975431698
 30
0.0
 11
2862.245195599236
 21
1140.849975431698
 31
0.0
  0
LINE
  5
4B3A
330
4B14
100
AcDbEntity
  8
1
100
AcDbLine
 10
2859.949670451817
 20
1140.87656394499
 30
0.0
 11
2860.949670451818
 21
1140.87656394499
 31
0.0
  0
LINE
  5
4B3B
330
4B14
100
AcDbEntity
  8
1
100
AcDbLine
 10
2862.421365591623
 20
1139.444679096183
 30
0.0
 11
2862.421365591623
 21
1133.624189639103
 31
0.0
  0
LINE
  5
4B3C
330
4B14
100
AcDbEntity
  8
1
100
AcDbLine
 10
2861.245195599236
 20
1139.849975431699
 30
0.0
 11
2861.245195599236
 21
1133.849975431699
 31
0.0
  0
LINE
  5
4B3D
330
4B14
100
AcDbEntity
  8
1
100
AcDbLine
 10
2862.131361557112
 20
1139.349975431698
 30
0.0
 11
2862.131361557112
 21
1133.849975431699
 31
0.0
  0
LINE
  5
4B3E
330
4B14
100
AcDbEntity
  8
1
100
AcDbLine
 10
2862.421365591623
 20
1133.624189639103
 30
0.0
 11
2861.329313692555
 21
1133.624189639103
 31
0.0
  0
LINE
  5
4B3F
330
4B14
100
AcDbEntity
  8
1
100
AcDbLine
 10
2862.131361557112
 20
1133.849975431699
 30
0.0
 11
2861.245195599236
 21
1133.849975431699
 31
0.0
  0
ARC
  5
4B40
330
4B14
100
AcDbEntity
  8
1
100
AcDbCircle
 10
2862.631361557111
 20
1139.349975431698
 30
0.0
 40
0.5
100
AcDbArc
 50
90.0
 51
180.0
  0
LINE
  5
4B41
330
4B14
100
AcDbEntity
  8
1
100
AcDbLine
 10
2862.131361557112
 20
1130.200043446556
 30
0.0
 11
2861.245195599236
 21
1130.200043446556
 31
0.0
  0
LINE
  5
4B42
330
4B14
100
AcDbEntity
  8
1
100
AcDbLine
 10
2862.421365591623
 20
1130.431495219814
 30
0.0
 11
2861.329313692555
 21
1130.431495219814
 31
0.0
  0
LINE
  5
4B43
330
4B14
100
AcDbEntity
  8
1
100
AcDbLine
 10
2861.329313692555
 20
1133.624189639103
 30
0.0
 11
2861.329313692555
 21
1130.431495219814
 31
0.0
  0
ARC
  5
4B44
330
4B14
100
AcDbEntity
  8
1
100
AcDbCircle
 10
2862.245195599236
 20
1139.849975431699
 30
0.0
 40
1.0
100
AcDbArc
 50
90.0
 51
180.0
  0
ARC
  5
4B45
330
4B14
100
AcDbEntity
  8
1
100
AcDbCircle
 10
2877.766284690739
 20
1135.064932852368
 30
0.0
 40
0.5999999999999909
100
AcDbArc
 50
346.43650119414
 51
166.4365011941463
  0
LWPOLYLINE
  5
4B46
330
4B14
100
AcDbEntity
  8
1
100
AcDbPolyline
 90
        7
 70
     0
 43
0.0
 10
2876.186055250807
 20
1139.444679096183
 10
2876.660957934162
 20
1137.392057748035
 10
2876.753116477951
 20
1135.533198088028
 10
2876.154085943319
 20
1133.408787048018
 10
2875.831531040054
 20
1131.549927388014
 10
2875.831531040054
 20
1130.55410971301
 10
2875.943781744325
 20
1130.068940435167
  0
LINE
  5
4B47
330
4B14
100
AcDbEntity
  8
1
100
AcDbLine
 10
2875.943781744325
 20
1130.068940435167
 30
0.0
 11
2877.18301832811
 21
1135.205646569629
 31
0.0
  0
LINE
  5
4B48
330
4B14
100
AcDbEntity
  8
1
100
AcDbLine
 10
2876.798522128624
 20
1128.495116010886
 30
0.0
 11
2878.349551053368
 21
1134.924219135106
 31
0.0
  0
LINE
  5
4B49
330
4B14
100
AcDbEntity
  8
1
100
AcDbLine
 10
2877.972065105572
 20
1140.849975431698
 30
0.0
 11
2877.972065105572
 21
1139.849975431699
 31
0.0
  0
LINE
  5
4B4A
330
4B14
100
AcDbEntity
  8
1
100
AcDbLine
 10
3007.477975312011
 20
1124.573973951903
 30
0.0
 11
3007.477975312011
 21
1130.431495219814
 31
0.0
  0
LINE
  5
4B4B
330
4B14
100
AcDbEntity
  8
1
100
AcDbLine
 10
3008.654145304399
 20
1124.200043446556
 30
0.0
 11
3008.654145304399
 21
1130.200043446556
 31
0.0
  0
LINE
  5
4B4C
330
4B14
100
AcDbEntity
  8
1
100
AcDbLine
 10
3007.767979346522
 20
1124.700043446556
 30
0.0
 11
3007.767979346522
 21
1130.200043446556
 31
0.0
  0
LWPOLYLINE
  5
4B4D
330
4B14
100
AcDbEntity
  8
1
100
AcDbPolyline
 90
        5
 70
     0
 43
0.0
 10
2993.10081877501
 20
1128.495116010886
 10
2994.298206223054
 20
1126.770002547996
 10
2994.298206223054
 20
1125.973348407993
 10
2994.298206223054
 20
1125.375857802991
 10
2994.032015231887
 20
1124.573973951903
  0
INSERT
  5
4B4E
330
4B14
100
AcDbEntity
  8
1
100
AcDbBlockReference
  2
*X5
 10
2379.032975567422
 20
742.9984306542053
 30
0.0
 41
-1.0
  0
ARC
  5
4B4F
330
4B14
100
AcDbEntity
  8
1
100
AcDbCircle
 10
3007.267979346522
 20
1124.700043446556
 30
0.0
 40
0.5
100
AcDbArc
 50
270.0
 51
0.0
  0
LINE
  5
4B50
330
4B14
100
AcDbEntity
  8
1
100
AcDbLine
 10
2991.927275798062
 20
1124.200043446556
 30
0.0
 11
2991.927275798062
 21
1123.200043446556
 31
0.0
  0
LINE
  5
4B51
330
4B14
100
AcDbEntity
  8
1
100
AcDbLine
 10
3007.477975312011
 20
1124.573973951903
 30
0.0
 11
2994.032015231887
 21
1124.573973951903
 31
0.0
  0
LINE
  5
4B52
330
4B14
100
AcDbEntity
  8
1
100
AcDbLine
 10
2991.927275798062
 20
1123.200043446556
 30
0.0
 11
3007.654145304398
 21
1123.200043446556
 31
0.0
  0
LINE
  5
4B53
330
4B14
100
AcDbEntity
  8
1
100
AcDbLine
 10
2991.927275798062
 20
1124.200043446556
 30
0.0
 11
3007.267979346522
 21
1124.200043446556
 31
0.0
  0
ARC
  5
4B54
330
4B14
100
AcDbEntity
  8
1
100
AcDbCircle
 10
3007.654145304398
 20
1124.200043446556
 30
0.0
 40
1.0
100
AcDbArc
 50
270.0
 51
0.0
  0
LINE
  5
4B55
330
4B14
100
AcDbEntity
  8
1
100
AcDbLine
 10
3009.949670451817
 20
1140.87656394499
 30
0.0
 11
3008.949670451817
 21
1140.87656394499
 31
0.0
  0
LINE
  5
4B56
330
4B14
100
AcDbEntity
  8
1
100
AcDbLine
 10
2991.927275798062
 20
1140.849975431698
 30
0.0
 11
3007.654145304398
 21
1140.849975431698
 31
0.0
  0
LINE
  5
4B57
330
4B14
100
AcDbEntity
  8
1
100
AcDbLine
 10
3007.477975312011
 20
1139.444679096183
 30
0.0
 11
3007.477975312011
 21
1133.624189639103
 31
0.0
  0
LINE
  5
4B58
330
4B14
100
AcDbEntity
  8
1
100
AcDbLine
 10
3007.767979346522
 20
1139.349975431698
 30
0.0
 11
3007.767979346522
 21
1133.849975431699
 31
0.0
  0
LINE
  5
4B59
330
4B14
100
AcDbEntity
  8
1
100
AcDbLine
 10
3008.654145304399
 20
1139.849975431699
 30
0.0
 11
3008.654145304399
 21
1133.849975431699
 31
0.0
  0
LINE
  5
4B5A
330
4B14
100
AcDbEntity
  8
1
100
AcDbLine
 10
3007.477975312011
 20
1133.624189639103
 30
0.0
 11
3008.57002721108
 21
1133.624189639103
 31
0.0
  0
LINE
  5
4B5B
330
4B14
100
AcDbEntity
  8
1
100
AcDbLine
 10
3007.767979346522
 20
1133.849975431699
 30
0.0
 11
3008.654145304399
 21
1133.849975431699
 31
0.0
  0
ARC
  5
4B5C
330
4B14
100
AcDbEntity
  8
1
100
AcDbCircle
 10
3007.267979346522
 20
1139.349975431698
 30
0.0
 40
0.5
100
AcDbArc
 50
0.0
 51
90.0
  0
LINE
  5
4B5D
330
4B14
100
AcDbEntity
  8
1
100
AcDbLine
 10
3007.477975312011
 20
1130.431495219814
 30
0.0
 11
3008.57002721108
 21
1130.431495219814
 31
0.0
  0
LINE
  5
4B5E
330
4B14
100
AcDbEntity
  8
1
100
AcDbLine
 10
3007.767979346522
 20
1130.200043446556
 30
0.0
 11
3008.654145304399
 21
1130.200043446556
 31
0.0
  0
LINE
  5
4B5F
330
4B14
100
AcDbEntity
  8
1
100
AcDbLine
 10
3008.57002721108
 20
1133.624189639103
 30
0.0
 11
3008.57002721108
 21
1130.431495219814
 31
0.0
  0
ARC
  5
4B60
330
4B14
100
AcDbEntity
  8
1
100
AcDbCircle
 10
2992.133056212896
 20
1135.064932852368
 30
0.0
 40
0.5999999999999909
100
AcDbArc
 50
13.56349880585365
 51
193.56349880586
  0
LWPOLYLINE
  5
4B61
330
4B14
100
AcDbEntity
  8
1
100
AcDbPolyline
 90
        7
 70
     0
 43
0.0
 10
2993.713285652829
 20
1139.444679096183
 10
2993.238382969473
 20
1137.392057748035
 10
2993.146224425683
 20
1135.533198088028
 10
2993.745254960316
 20
1133.408787048018
 10
2994.06780986358
 20
1131.549927388014
 10
2994.06780986358
 20
1130.55410971301
 10
2993.95555915931
 20
1130.068940435167
  0
LINE
  5
4B62
330
4B14
100
AcDbEntity
  8
1
100
AcDbLine
 10
2993.95555915931
 20
1130.068940435167
 30
0.0
 11
2992.716322575525
 21
1135.205646569629
 31
0.0
  0
LINE
  5
4B63
330
4B14
100
AcDbEntity
  8
1
100
AcDbLine
 10
2993.10081877501
 20
1128.495116010886
 30
0.0
 11
2991.549789850266
 21
1134.924219135106
 31
0.0
  0
LINE
  5
4B64
330
4B14
100
AcDbEntity
  8
1
100
AcDbLine
 10
3007.477975312011
 20
1139.444679096183
 30
0.0
 11
2993.713285652829
 21
1139.444679096183
 31
0.0
  0
LINE
  5
4B65
330
4B14
100
AcDbEntity
  8
1
100
AcDbLine
 10
2991.927275798062
 20
1139.849975431699
 30
0.0
 11
3007.267979346522
 21
1139.849975431699
 31
0.0
  0
LINE
  5
4B66
330
4B14
100
AcDbEntity
  8
1
100
AcDbLine
 10
2991.927275798062
 20
1140.849975431698
 30
0.0
 11
2991.927275798062
 21
1139.849975431699
 31
0.0
  0
ARC
  5
4B67
330
4B14
100
AcDbEntity
  8
1
100
AcDbCircle
 10
3007.654145304398
 20
1139.849975431699
 30
0.0
 40
1.0
100
AcDbArc
 50
0.0
 51
90.0
  0
ENDBLK
  5
4B16
330
4B14
100
AcDbEntity
  8
0
100
AcDbBlockEnd
  0
BLOCK
  5
4B7F
330
4B75
100
AcDbEntity
  8
0
100
AcDbBlockBegin
  2
*D7
 70
     1
 10
0.0
 20
0.0
 30
0.0
  3
*D7
  1

  0
LINE
  5
4E9E
330
4B75
100
AcDbEntity
  8
1
 62
     0
370
    -2
100
AcDbLine
 10
1997.683907435001
 20
978.7700612937204
 30
0.0
 11
1997.683907435001
 21
865.8378303576505
 31
0.0
  0
LINE
  5
4E9F
330
4B75
100
AcDbEntity
  8
1
 62
     0
370
    -2
100
AcDbLine
 10
2108.865485121206
 20
978.7700612937204
 30
0.0
 11
2108.865485121206
 21
865.8378303576505
 31
0.0
  0
LINE
  5
4EA0
330
4B75
100
AcDbEntity
  8
1
 62
     0
370
    -2
100
AcDbLine
 10
2004.583907435001
 20
871.2378303576503
 30
0.0
 11
2101.965485121207
 21
871.2378303576503
 31
0.0
  0
SOLID
  5
4EA1
330
4B75
100
AcDbEntity
  8
1
 62
     0
100
AcDbTrace
 10
2004.583907435001
 20
872.3878303576503
 30
0.0
 11
2004.583907435001
 21
870.0878303576503
 31
0.0
 12
1997.683907435001
 22
871.2378303576503
 32
0.0
 13
1997.683907435001
 23
871.2378303576503
 33
0.0
  0
SOLID
  5
4EA2
330
4B75
100
AcDbEntity
  8
1
 62
     0
100
AcDbTrace
 10
2101.965485121207
 20
872.3878303576503
 30
0.0
 11
2101.965485121207
 21
870.0878303576503
 31
0.0
 12
2108.865485121206
 22
871.2378303576503
 32
0.0
 13
2108.865485121206
 23
871.2378303576503
 33
0.0
  0
MTEXT
  5
4EA3
330
4B75
100
AcDbEntity
  8
1
 62
     0
100
AcDbMText
 10
2053.274696278104
 20
877.493751410282
 30
0.0
 40
6.9
 41
0.0
 71
     5
 72
     1
  1
\A1;OUTLET
 73
     1
 44
1.0
  0
POINT
  5
4EA4
330
4B75
100
AcDbEntity
  8
DEFPOINTS
 62
     0
100
AcDbPoint
 10
1997.683907435001
 20
982.3700612937203
 30
0.0
  0
POINT
  5
4EA5
330
4B75
100
AcDbEntity
  8
DEFPOINTS
 62
     0
100
AcDbPoint
 10
2108.865485121206
 20
982.3700612937203
 30
0.0
  0
POINT
  5
4EA6
330
4B75
100
AcDbEntity
  8
DEFPOINTS
 62
     0
100
AcDbPoint
 10
2108.865485121206
 20
871.2378303576503
 30
0.0
  0
ENDBLK
  5
4B80
330
4B75
100
AcDbEntity
  8
0
100
AcDbBlockEnd
  0
BLOCK
  5
4BA4
330
4B99
100
AcDbEntity
  8
0
100
AcDbBlockBegin
  2
*D8
 70
     1
 10
0.0
 20
0.0
 30
0.0
  3
*D8
  1

  0
LINE
  5
4BA6
330
4B99
100
AcDbEntity
  8
1
 62
     0
370
    -2
100
AcDbLine
 10
1937.530076671104
 20
1110.259369078113
 30
0.0
 11
1909.699282448801
 21
1110.259369078113
 31
0.0
  0
LINE
  5
4BA7
330
4B99
100
AcDbEntity
  8
1
 62
     0
370
    -2
100
AcDbLine
 10
1996.929023891187
 20
887.3500525661325
 30
0.0
 11
1909.699282448801
 21
887.3500525661325
 31
0.0
  0
LINE
  5
4BA8
330
4B99
100
AcDbEntity
  8
1
 62
     0
370
    -2
100
AcDbLine
 10
1915.099282448801
 20
1103.359369078112
 30
0.0
 11
1915.099282448801
 21
1016.530368716858
 31
0.0
  0
LINE
  5
4BA9
330
4B99
100
AcDbEntity
  8
1
 62
     0
370
    -2
100
AcDbLine
 10
1915.099282448801
 20
894.2500525661325
 30
0.0
 11
1915.099282448801
 21
981.0790529273862
 31
0.0
  0
SOLID
  5
4BAA
330
4B99
100
AcDbEntity
  8
1
 62
     0
100
AcDbTrace
 10
1913.9492824488
 20
1103.359369078112
 30
0.0
 11
1916.249282448801
 21
1103.359369078112
 31
0.0
 12
1915.099282448801
 22
1110.259369078113
 32
0.0
 13
1915.099282448801
 23
1110.259369078113
 33
0.0
  0
SOLID
  5
4BAB
330
4B99
100
AcDbEntity
  8
1
 62
     0
100
AcDbTrace
 10
1913.9492824488
 20
894.2500525661325
 30
0.0
 11
1916.249282448801
 21
894.2500525661325
 31
0.0
 12
1915.099282448801
 22
887.3500525661325
 32
0.0
 13
1915.099282448801
 23
887.3500525661325
 33
0.0
  0
MTEXT
  5
4BAC
330
4B99
100
AcDbEntity
  8
1
 62
     0
100
AcDbMText
 10
1915.0992824488
 20
998.8047108221234
 30
0.0
 40
6.899999999999997
 41
0.0
 71
     5
 72
     1
  1
\A1;200\PTO\P250
 73
     1
 44
1.0
  0
POINT
  5
4BAD
330
4B99
100
AcDbEntity
  8
DEFPOINTS
 62
     0
100
AcDbPoint
 10
1941.130076671105
 20
1110.259369078113
 30
0.0
  0
POINT
  5
4BAE
330
4B99
100
AcDbEntity
  8
DEFPOINTS
 62
     0
100
AcDbPoint
 10
2000.529023891187
 20
887.3500525661325
 30
0.0
  0
POINT
  5
4BAF
330
4B99
100
AcDbEntity
  8
DEFPOINTS
 62
     0
100
AcDbPoint
 10
1915.099282448801
 20
887.3500525661325
 30
0.0
  0
ENDBLK
  5
4BA5
330
4B99
100
AcDbEntity
  8
0
100
AcDbBlockEnd
  0
BLOCK
  5
4C6F
330
4C64
100
AcDbEntity
  8
0
100
AcDbBlockBegin
  2
*D9
 70
     1
 10
0.0
 20
0.0
 30
0.0
  3
*D9
  1

  0
LINE
  5
4DBC
330
4C64
100
AcDbEntity
  8
1
 62
     0
370
    -2
100
AcDbLine
 10
2168.664906948195
 20
990.9004967642315
 30
0.0
 11
2193.996600737107
 21
990.9004967642315
 31
0.0
  0
LINE
  5
4DBD
330
4C64
100
AcDbEntity
  8
1
 62
     0
370
    -2
100
AcDbLine
 10
2168.664906948195
 20
1044.900496764229
 30
0.0
 11
2193.996600737107
 21
1044.900496764229
 31
0.0
  0
LINE
  5
4DBE
330
4C64
100
AcDbEntity
  8
1
 62
     0
370
    -2
100
AcDbLine
 10
2188.596600737108
 20
997.8004967642318
 30
0.0
 11
2188.596600737108
 21
1012.368445570982
 31
0.0
  0
LINE
  5
4DBF
330
4C64
100
AcDbEntity
  8
1
 62
     0
370
    -2
100
AcDbLine
 10
2188.596600737108
 20
1038.000496764231
 30
0.0
 11
2188.596600737108
 21
1024.91055083414
 31
0.0
  0
SOLID
  5
4DC0
330
4C64
100
AcDbEntity
  8
1
 62
     0
100
AcDbTrace
 10
2187.446600737108
 20
997.8004967642318
 30
0.0
 11
2189.746600737107
 21
997.8004967642318
 31
0.0
 12
2188.596600737108
 22
990.9004967642315
 32
0.0
 13
2188.596600737108
 23
990.9004967642315
 33
0.0
  0
SOLID
  5
4DC1
330
4C64
100
AcDbEntity
  8
1
 62
     0
100
AcDbTrace
 10
2187.446600737108
 20
1038.000496764231
 30
0.0
 11
2189.746600737107
 21
1038.000496764231
 31
0.0
 12
2188.596600737108
 22
1044.900496764229
 32
0.0
 13
2188.596600737108
 23
1044.900496764229
 33
0.0
  0
MTEXT
  5
4DC2
330
4C64
100
AcDbEntity
  8
1
 62
     0
100
AcDbMText
 10
2188.596600737108
 20
1018.639498202561
 30
0.0
 40
6.899999999999997
 41
0.0
 71
     5
 72
     1
  1
\A1;1.5" BSP
 73
     1
 44
1.0
  0
POINT
  5
4DC3
330
4C64
100
AcDbEntity
  8
DEFPOINTS
 62
     0
100
AcDbPoint
 10
2165.064906948196
 20
990.9004967642315
 30
0.0
  0
POINT
  5
4DC4
330
4C64
100
AcDbEntity
  8
DEFPOINTS
 62
     0
100
AcDbPoint
 10
2165.064906948196
 20
1044.900496764229
 30
0.0
  0
POINT
  5
4DC5
330
4C64
100
AcDbEntity
  8
DEFPOINTS
 62
     0
100
AcDbPoint
 10
2188.596600737108
 20
1044.900496764229
 30
0.0
  0
ENDBLK
  5
4C70
330
4C64
100
AcDbEntity
  8
0
100
AcDbBlockEnd
  0
BLOCK
  5
4C9E
330
4C93
100
AcDbEntity
  8
0
100
AcDbBlockBegin
  2
*X10
 70
     1
 10
0.0
 20
0.0
 30
0.0
  3
*X10
  1

  0
LINE
  5
4C94
330
4C93
100
AcDbEntity
  8
0
 62
     0
100
AcDbLine
 10
-650.153379952022
 20
437.4652378605365
 30
0.0
 11
-649.1647996537116
 21
438.4538181588468
 31
0.0
  0
LINE
  5
4C95
330
4C93
100
AcDbEntity
  8
0
 62
     0
100
AcDbLine
 10
-650.3922663497237
 20
437.6682932010764
 30
0.0
 11
-649.6067413919531
 21
438.4538181588468
 31
0.0
  0
LINE
  5
4C96
330
4C93
100
AcDbEntity
  8
0
 62
     0
100
AcDbLine
 10
-650.6311527474252
 20
437.8713485416162
 30
0.0
 11
-650.0486831301948
 21
438.4538181588468
 31
0.0
  0
LINE
  5
4C97
330
4C93
100
AcDbEntity
  8
0
 62
     0
100
AcDbLine
 10
-650.870039145127
 20
438.0744038821561
 30
0.0
 11
-650.4906248684362
 21
438.4538181588468
 31
0.0
  0
LINE
  5
4C98
330
4C93
100
AcDbEntity
  8
0
 62
     0
100
AcDbLine
 10
-651.1089255428287
 20
438.277459222696
 30
0.0
 11
-650.9325666066778
 21
438.4538181588468
 31
0.0
  0
LINE
  5
4C99
330
4C93
100
AcDbEntity
  8
0
 62
     0
100
AcDbLine
 10
-651.3745083449195
 20
438.4538181588468
 30
0.0
 11
-651.3478119405305
 21
438.4805145632356
 31
0.0
  0
LINE
  5
4C9A
330
4C93
100
AcDbEntity
  8
0
 62
     0
100
AcDbLine
 10
-649.9144935543202
 20
437.2621825199963
 30
0.0
 11
-649.0848307404241
 21
438.0918453338925
 31
0.0
  0
LINE
  5
4C9B
330
4C93
100
AcDbEntity
  8
0
 62
     0
100
AcDbLine
 10
-649.6756071566185
 20
437.0591271794567
 30
0.0
 11
-649.0848307404241
 21
437.6499035956511
 31
0.0
  0
LINE
  5
4C9C
330
4C93
100
AcDbEntity
  8
0
 62
     0
100
AcDbLine
 10
-649.4367207589167
 20
436.8560718389169
 30
0.0
 11
-649.0848307404241
 21
437.2079618574096
 31
0.0
  0
LINE
  5
4C9D
330
4C93
100
AcDbEntity
  8
0
 62
     0
100
AcDbLine
 10
-649.1978343612147
 20
436.6530164983768
 30
0.0
 11
-649.0848307404241
 21
436.766020119168
 31
0.0
  0
ENDBLK
  5
4C9F
330
4C93
100
AcDbEntity
  8
0
100
AcDbBlockEnd
  0
BLOCK
  5
4CAE
330
4CA0
100
AcDbEntity
  8
0
100
AcDbBlockBegin
  2
*X11
 70
     1
 10
0.0
 20
0.0
 30
0.0
  3
*X11
  1

  0
LINE
  5
4CA1
330
4CA0
100
AcDbEntity
  8
0
 62
     0
100
AcDbLine
 10
-674.5172693334621
 20
437.9384741682738
 30
0.0
 11
-674.0523376987631
 21
438.4034058029727
 31
0.0
  0
LINE
  5
4CA2
330
4CA0
100
AcDbEntity
  8
0
 62
     0
100
AcDbLine
 10
-674.6176990937306
 20
438.0148211033018
 30
0.0
 11
-674.2291143940597
 21
438.4034058029727
 31
0.0
  0
LINE
  5
4CA3
330
4CA0
100
AcDbEntity
  8
0
 62
     0
100
AcDbLine
 10
-674.718128853999
 20
438.0911680383301
 30
0.0
 11
-674.4058910893564
 21
438.4034058029727
 31
0.0
  0
LINE
  5
4CA4
330
4CA0
100
AcDbEntity
  8
0
 62
     0
100
AcDbLine
 10
-674.8185586142673
 20
438.1675149733584
 30
0.0
 11
-674.582667784653
 21
438.4034058029727
 31
0.0
  0
LINE
  5
4CA5
330
4CA0
100
AcDbEntity
  8
0
 62
     0
100
AcDbLine
 10
-674.9189883745359
 20
438.2438619083865
 30
0.0
 11
-674.7594444799497
 21
438.4034058029727
 31
0.0
  0
LINE
  5
4CA6
330
4CA0
100
AcDbEntity
  8
0
 62
     0
100
AcDbLine
 10
-675.0194181348042
 20
438.3202088434146
 30
0.0
 11
-674.9362211752464
 21
438.4034058029727
 31
0.0
  0
LINE
  5
4CA7
330
4CA0
100
AcDbEntity
  8
0
 62
     0
100
AcDbLine
 10
-675.1198478950727
 20
438.3965557784428
 30
0.0
 11
-675.1129978705429
 21
438.4034058029727
 31
0.0
  0
LINE
  5
4CA8
330
4CA0
100
AcDbEntity
  8
0
 62
     0
100
AcDbLine
 10
-674.4168395731938
 20
437.8621272332456
 30
0.0
 11
-673.9007159006065
 21
438.3782509058328
 31
0.0
  0
LINE
  5
4CA9
330
4CA0
100
AcDbEntity
  8
0
 62
     0
100
AcDbLine
 10
-674.3164098129252
 20
437.7857802982173
 30
0.0
 11
-673.9007159006065
 21
438.2014742105361
 31
0.0
  0
LINE
  5
4CAA
330
4CA0
100
AcDbEntity
  8
0
 62
     0
100
AcDbLine
 10
-674.2159800526567
 20
437.7094333631892
 30
0.0
 11
-673.9007159006065
 21
438.0246975152394
 31
0.0
  0
LINE
  5
4CAB
330
4CA0
100
AcDbEntity
  8
0
 62
     0
100
AcDbLine
 10
-674.1155502923882
 20
437.633086428161
 30
0.0
 11
-673.9007159006065
 21
437.8479208199427
 31
0.0
  0
LINE
  5
4CAC
330
4CA0
100
AcDbEntity
  8
0
 62
     0
100
AcDbLine
 10
-674.0151205321199
 20
437.5567394931326
 30
0.0
 11
-673.9007159006065
 21
437.6711441246462
 31
0.0
  0
LINE
  5
4CAD
330
4CA0
100
AcDbEntity
  8
0
 62
     0
100
AcDbLine
 10
-673.9146907718515
 20
437.4803925581046
 30
0.0
 11
-673.9007159006065
 21
437.4943674293496
 31
0.0
  0
ENDBLK
  5
4CAF
330
4CA0
100
AcDbEntity
  8
0
100
AcDbBlockEnd
  0
BLOCK
  5
4FBE
330
4FB4
100
AcDbEntity
  8
0
100
AcDbBlockBegin
  2
*D12
 70
     1
 10
0.0
 20
0.0
 30
0.0
  3
*D12
  1

  0
LINE
  5
4FF1
330
4FB4
100
AcDbEntity
  8
1
 62
     0
370
    -2
100
AcDbLine
 10
1605.292523726154
 20
978.1997533205986
 30
0.0
 11
1605.292523726154
 21
943.8396815847678
 31
0.0
  0
LINE
  5
4FF2
330
4FB4
100
AcDbEntity
  8
1
 62
     0
370
    -2
100
AcDbLine
 10
1715.292523726153
 20
978.1997533205986
 30
0.0
 11
1715.292523726153
 21
943.8396815847678
 31
0.0
  0
LINE
  5
4FF3
330
4FB4
100
AcDbEntity
  8
1
 62
     0
370
    -2
100
AcDbLine
 10
1614.492523726155
 20
951.0396815847677
 30
0.0
 11
1706.092523726153
 21
951.0396815847677
 31
0.0
  0
SOLID
  5
4FF4
330
4FB4
100
AcDbEntity
  8
1
 62
     0
100
AcDbTrace
 10
1614.492523726155
 20
952.5730149181011
 30
0.0
 11
1614.492523726155
 21
949.5063482514343
 31
0.0
 12
1605.292523726154
 22
951.0396815847677
 32
0.0
 13
1605.292523726154
 23
951.0396815847677
 33
0.0
  0
SOLID
  5
4FF5
330
4FB4
100
AcDbEntity
  8
1
 62
     0
100
AcDbTrace
 10
1706.092523726153
 20
952.5730149181011
 30
0.0
 11
1706.092523726153
 21
949.5063482514343
 31
0.0
 12
1715.292523726153
 22
951.0396815847677
 32
0.0
 13
1715.292523726153
 23
951.0396815847677
 33
0.0
  0
MTEXT
  5
4FF6
330
4FB4
100
AcDbEntity
  8
1
 62
     0
100
AcDbMText
 10
1660.292523726153
 20
959.3809096549433
 30
0.0
 40
9.199999999999999
 41
0.0
 71
     5
 72
     1
  1
\A1;OUTLET
 73
     1
 44
1.0
  0
POINT
  5
4FF7
330
4FB4
100
AcDbEntity
  8
DEFPOINTS
 62
     0
100
AcDbPoint
 10
1605.292523726154
 20
982.9997533205984
 30
0.0
  0
POINT
  5
4FF8
330
4FB4
100
AcDbEntity
  8
DEFPOINTS
 62
     0
100
AcDbPoint
 10
1715.292523726153
 20
982.9997533205984
 30
0.0
  0
POINT
  5
4FF9
330
4FB4
100
AcDbEntity
  8
DEFPOINTS
 62
     0
100
AcDbPoint
 10
1715.292523726153
 20
951.0396815847677
 30
0.0
  0
ENDBLK
  5
4FBF
330
4FB4
100
AcDbEntity
  8
0
100
AcDbBlockEnd
  0
BLOCK
  5
4FD4
330
4FCA
100
AcDbEntity
  8
0
100
AcDbBlockBegin
  2
*D13
 70
     1
 10
0.0
 20
0.0
 30
0.0
  3
*D13
  1

  0
LINE
  5
4FE8
330
4FCA
100
AcDbEntity
  8
1
 62
     0
370
    -2
100
AcDbLine
 10
1547.792523726154
 20
1115.799753320598
 30
0.0
 11
1547.792523726154
 21
1139.307584489246
 31
0.0
  0
LINE
  5
4FE9
330
4FCA
100
AcDbEntity
  8
1
 62
     0
370
    -2
100
AcDbLine
 10
1772.792523726153
 20
1115.799753320598
 30
0.0
 11
1772.792523726153
 21
1139.307584489246
 31
0.0
  0
LINE
  5
4FEA
330
4FCA
100
AcDbEntity
  8
1
 62
     0
370
    -2
100
AcDbLine
 10
1556.992523726155
 20
1132.107584489247
 30
0.0
 11
1763.592523726154
 21
1132.107584489247
 31
0.0
  0
SOLID
  5
4FEB
330
4FCA
100
AcDbEntity
  8
1
 62
     0
100
AcDbTrace
 10
1556.992523726155
 20
1133.64091782258
 30
0.0
 11
1556.992523726155
 21
1130.574251155914
 31
0.0
 12
1547.792523726154
 22
1132.107584489247
 32
0.0
 13
1547.792523726154
 23
1132.107584489247
 33
0.0
  0
SOLID
  5
4FEC
330
4FCA
100
AcDbEntity
  8
1
 62
     0
100
AcDbTrace
 10
1763.592523726154
 20
1133.64091782258
 30
0.0
 11
1763.592523726154
 21
1130.574251155914
 31
0.0
 12
1772.792523726153
 22
1132.107584489247
 32
0.0
 13
1772.792523726153
 23
1132.107584489247
 33
0.0
  0
MTEXT
  5
4FED
330
4FCA
100
AcDbEntity
  8
1
 62
     0
100
AcDbMText
 10
1660.292523726153
 20
1140.361385658837
 30
0.0
 40
9.199999999999999
 41
0.0
 71
     5
 72
     1
  1
\A1;D1
 73
     1
 44
1.0
  0
POINT
  5
4FEE
330
4FCA
100
AcDbEntity
  8
DEFPOINTS
 62
     0
100
AcDbPoint
 10
1547.792523726154
 20
1110.999753320598
 30
0.0
  0
POINT
  5
4FEF
330
4FCA
100
AcDbEntity
  8
DEFPOINTS
 62
     0
100
AcDbPoint
 10
1772.792523726153
 20
1110.999753320598
 30
0.0
  0
POINT
  5
4FF0
330
4FCA
100
AcDbEntity
  8
DEFPOINTS
 62
     0
100
AcDbPoint
 10
1772.792523726153
 20
1132.107584489247
 30
0.0
  0
ENDBLK
  5
4FD5
330
4FCA
100
AcDbEntity
  8
0
100
AcDbBlockEnd
  0
BLOCK
  5
5036
330
502B
100
AcDbEntity
  8
0
100
AcDbBlockBegin
  2
*D14
 70
     1
 10
0.0
 20
0.0
 30
0.0
  3
*D14
  1

  0
LINE
  5
526E
330
502B
100
AcDbEntity
  8
1
 62
     0
370
    -2
100
AcDbLine
 10
1493.838999135064
 20
899.1214278024713
 30
0.0
 11
1478.048570497913
 21
899.1214278024713
 31
0.0
  0
LINE
  5
526F
330
502B
100
AcDbEntity
  8
1
 62
     0
370
    -2
100
AcDbLine
 10
1503.838999135064
 20
877.1214278024713
 30
0.0
 11
1478.048570497913
 21
877.1214278024713
 31
0.0
  0
LINE
  5
5270
330
502B
100
AcDbEntity
  8
1
 62
     0
370
    -2
100
AcDbLine
 10
1482.188570497913
 20
893.8314278024714
 30
0.0
 11
1482.188570497913
 21
892.836427802471
 31
0.0
  0
LINE
  5
5271
330
502B
100
AcDbEntity
  8
1
 62
     0
370
    -2
100
AcDbLine
 10
1482.188570497913
 20
882.4114278024712
 30
0.0
 11
1482.188570497913
 21
883.406427802471
 31
0.0
  0
SOLID
  5
5272
330
502B
100
AcDbEntity
  8
1
 62
     0
100
AcDbTrace
 10
1481.306903831246
 20
893.8314278024714
 30
0.0
 11
1483.07023716458
 21
893.8314278024714
 31
0.0
 12
1482.188570497913
 22
899.1214278024713
 32
0.0
 13
1482.188570497913
 23
899.1214278024713
 33
0.0
  0
SOLID
  5
5273
330
502B
100
AcDbEntity
  8
1
 62
     0
100
AcDbTrace
 10
1481.306903831246
 20
882.4114278024712
 30
0.0
 11
1483.07023716458
 21
882.4114278024712
 31
0.0
 12
1482.188570497913
 22
877.1214278024713
 32
0.0
 13
1482.188570497913
 23
877.1214278024713
 33
0.0
  0
MTEXT
  5
5274
330
502B
100
AcDbEntity
  8
1
 62
     0
100
AcDbMText
 10
1482.188570497913
 20
888.1214278024712
 30
0.0
 40
5.29
 41
0.0
 71
     5
 72
     1
  1
\A1;22
 73
     1
 44
1.0
  0
POINT
  5
5275
330
502B
100
AcDbEntity
  8
DEFPOINTS
 62
     0
100
AcDbPoint
 10
1496.598999135065
 20
899.1214278024713
 30
0.0
  0
POINT
  5
5276
330
502B
100
AcDbEntity
  8
DEFPOINTS
 62
     0
100
AcDbPoint
 10
1506.598999135064
 20
877.1214278024713
 30
0.0
  0
POINT
  5
5277
330
502B
100
AcDbEntity
  8
DEFPOINTS
 62
     0
100
AcDbPoint
 10
1482.188570497913
 20
877.1214278024713
 30
0.0
  0
ENDBLK
  5
5037
330
502B
100
AcDbEntity
  8
0
100
AcDbBlockEnd
  0
BLOCK
  5
5043
330
5039
100
AcDbEntity
  8
0
100
AcDbBlockBegin
  2
*D15
 70
     1
 10
0.0
 20
0.0
 30
0.0
  3
*D15
  1

  0
LINE
  5
525C
330
5039
100
AcDbEntity
  8
1
 62
     0
370
    -2
100
AcDbLine
 10
1496.598999135065
 20
901.8814278024713
 30
0.0
 11
1496.598999135065
 21
917.5984773012022
 31
0.0
  0
LINE
  5
525D
330
5039
100
AcDbEntity
  8
1
 62
     0
370
    -2
100
AcDbLine
 10
1658.598999135064
 20
901.8814278024713
 30
0.0
 11
1658.598999135064
 21
917.5984773012022
 31
0.0
  0
LINE
  5
525E
330
5039
100
AcDbEntity
  8
1
 62
     0
370
    -2
100
AcDbLine
 10
1501.888999135064
 20
913.4584773012022
 30
0.0
 11
1653.308999135065
 21
913.4584773012022
 31
0.0
  0
SOLID
  5
525F
330
5039
100
AcDbEntity
  8
1
 62
     0
100
AcDbTrace
 10
1501.888999135064
 20
914.3401439678688
 30
0.0
 11
1501.888999135064
 21
912.5768106345356
 31
0.0
 12
1496.598999135065
 22
913.4584773012022
 32
0.0
 13
1496.598999135065
 23
913.4584773012022
 33
0.0
  0
SOLID
  5
5260
330
5039
100
AcDbEntity
  8
1
 62
     0
100
AcDbTrace
 10
1653.308999135065
 20
914.3401439678688
 30
0.0
 11
1653.308999135065
 21
912.5768106345356
 31
0.0
 12
1658.598999135064
 22
913.4584773012022
 32
0.0
 13
1658.598999135064
 23
913.4584773012022
 33
0.0
  0
MTEXT
  5
5261
330
5039
100
AcDbEntity
  8
1
 62
     0
100
AcDbMText
 10
1577.598999135064
 20
918.2276147281028
 30
0.0
 40
5.29
 41
0.0
 71
     5
 72
     1
  1
\A1;162 x 162
 73
     1
 44
1.0
  0
POINT
  5
5262
330
5039
100
AcDbEntity
  8
DEFPOINTS
 62
     0
100
AcDbPoint
 10
1496.598999135065
 20
899.1214278024713
 30
0.0
  0
POINT
  5
5263
330
5039
100
AcDbEntity
  8
DEFPOINTS
 62
     0
100
AcDbPoint
 10
1658.598999135064
 20
899.1214278024713
 30
0.0
  0
POINT
  5
5264
330
5039
100
AcDbEntity
  8
DEFPOINTS
 62
     0
100
AcDbPoint
 10
1658.598999135064
 20
913.4584773012022
 30
0.0
  0
ENDBLK
  5
5044
330
5039
100
AcDbEntity
  8
0
100
AcDbBlockEnd
  0
BLOCK
  5
50F0
330
50E6
100
AcDbEntity
  8
0
100
AcDbBlockBegin
  2
*D16
 70
     1
 10
0.0
 20
0.0
 30
0.0
  3
*D16
  1

  0
LINE
  5
50E7
330
50E6
100
AcDbEntity
  8
1
 62
     0
370
    -2
100
AcDbLine
 10
-863.3477368757059
 20
745.6867711889826
 30
0.0
 11
-863.3477368757059
 21
767.4443163428065
 31
0.0
  0
LINE
  5
50E8
330
50E6
100
AcDbEntity
  8
1
 62
     0
370
    -2
100
AcDbLine
 10
-701.347736875706
 20
745.6867711889826
 30
0.0
 11
-701.347736875706
 21
767.4443163428065
 31
0.0
  0
LINE
  5
50E9
330
50E6
100
AcDbEntity
  8
1
 62
     0
370
    -2
100
AcDbLine
 10
-856.447736875706
 20
762.044316342807
 30
0.0
 11
-708.247736875706
 21
762.044316342807
 31
0.0
  0
SOLID
  5
50EA
330
50E6
100
AcDbEntity
  8
1
 62
     0
100
AcDbTrace
 10
-856.447736875706
 20
763.1943163428067
 30
0.0
 11
-856.447736875706
 21
760.894316342807
 31
0.0
 12
-863.3477368757059
 22
762.044316342807
 32
0.0
 13
-863.3477368757059
 23
762.044316342807
 33
0.0
  0
SOLID
  5
50EB
330
50E6
100
AcDbEntity
  8
1
 62
     0
100
AcDbTrace
 10
-708.247736875706
 20
763.1943163428067
 30
0.0
 11
-708.247736875706
 21
760.894316342807
 31
0.0
 12
-701.347736875706
 22
762.044316342807
 32
0.0
 13
-701.347736875706
 23
762.044316342807
 33
0.0
  0
MTEXT
  5
50EC
330
50E6
100
AcDbEntity
  8
1
 62
     0
100
AcDbMText
 10
-782.347736875706
 20
768.2649303778946
 30
0.0
 40
6.899999999999997
 41
0.0
 71
     5
 72
     1
  1
\A1;162 sq.
 73
     1
 44
1.0
  0
POINT
  5
50ED
330
50E6
100
AcDbEntity
  8
DEFPOINTS
 62
     0
100
AcDbPoint
 10
-863.3477368757059
 20
742.0867711889825
 30
0.0
  0
POINT
  5
50EE
330
50E6
100
AcDbEntity
  8
DEFPOINTS
 62
     0
100
AcDbPoint
 10
-701.347736875706
 20
742.0867711889825
 30
0.0
  0
POINT
  5
50EF
330
50E6
100
AcDbEntity
  8
DEFPOINTS
 62
     0
100
AcDbPoint
 10
-701.347736875706
 20
762.044316342807
 30
0.0
  0
ENDBLK
  5
50F1
330
50E6
100
AcDbEntity
  8
0
100
AcDbBlockEnd
  0
BLOCK
  5
522C
330
5222
100
AcDbEntity
  8
0
100
AcDbBlockBegin
  2
*D18
 70
     1
 10
0.0
 20
0.0
 30
0.0
  3
*D18
  1

  0
LINE
  5
5290
330
5222
100
AcDbEntity
  8
1
 62
     0
370
    -2
100
AcDbLine
 10
1279.653361461698
 20
901.8814278024711
 30
0.0
 11
1279.653361461698
 21
918.2333589992177
 31
0.0
  0
LINE
  5
5291
330
5222
100
AcDbEntity
  8
1
 62
     0
370
    -2
100
AcDbLine
 10
1441.653361461698
 20
901.8814278024711
 30
0.0
 11
1441.653361461698
 21
918.2333589992177
 31
0.0
  0
LINE
  5
5292
330
5222
100
AcDbEntity
  8
1
 62
     0
370
    -2
100
AcDbLine
 10
1284.943361461698
 20
914.0933589992176
 30
0.0
 11
1436.363361461698
 21
914.0933589992176
 31
0.0
  0
SOLID
  5
5293
330
5222
100
AcDbEntity
  8
1
 62
     0
100
AcDbTrace
 10
1284.943361461698
 20
914.9750256658844
 30
0.0
 11
1284.943361461698
 21
913.211692332551
 31
0.0
 12
1279.653361461698
 22
914.0933589992176
 32
0.0
 13
1279.653361461698
 23
914.0933589992176
 33
0.0
  0
SOLID
  5
5294
330
5222
100
AcDbEntity
  8
1
 62
     0
100
AcDbTrace
 10
1436.363361461698
 20
914.9750256658844
 30
0.0
 11
1436.363361461698
 21
913.211692332551
 31
0.0
 12
1441.653361461698
 22
914.0933589992176
 32
0.0
 13
1441.653361461698
 23
914.0933589992176
 33
0.0
  0
MTEXT
  5
5295
330
5222
100
AcDbEntity
  8
1
 62
     0
100
AcDbMText
 10
1360.653361461698
 20
918.8624964261181
 30
0.0
 40
5.29
 41
0.0
 71
     5
 72
     1
  1
\A1;162 x 162
 73
     1
 44
1.0
  0
POINT
  5
5296
330
5222
100
AcDbEntity
  8
DEFPOINTS
 62
     0
100
AcDbPoint
 10
1279.653361461698
 20
899.1214278024711
 30
0.0
  0
POINT
  5
5297
330
5222
100
AcDbEntity
  8
DEFPOINTS
 62
     0
100
AcDbPoint
 10
1441.653361461698
 20
899.1214278024711
 30
0.0
  0
POINT
  5
5298
330
5222
100
AcDbEntity
  8
DEFPOINTS
 62
     0
100
AcDbPoint
 10
1441.653361461698
 20
914.0933589992176
 30
0.0
  0
ENDBLK
  5
522D
330
5222
100
AcDbEntity
  8
0
100
AcDbBlockEnd
  0
BLOCK
  5
5284
330
5279
100
AcDbEntity
  8
0
100
AcDbBlockBegin
  2
*D19
 70
     1
 10
0.0
 20
0.0
 30
0.0
  3
*D19
  1

  0
LINE
  5
5299
330
5279
100
AcDbEntity
  8
1
 62
     0
370
    -2
100
AcDbLine
 10
1276.893361461698
 20
899.1214278024711
 30
0.0
 11
1257.823179669221
 21
899.1214278024711
 31
0.0
  0
LINE
  5
529A
330
5279
100
AcDbEntity
  8
1
 62
     0
370
    -2
100
AcDbLine
 10
1303.893361461698
 20
874.1214278024711
 30
0.0
 11
1257.823179669221
 21
874.1214278024711
 31
0.0
  0
LINE
  5
529B
330
5279
100
AcDbEntity
  8
1
 62
     0
370
    -2
100
AcDbLine
 10
1261.963179669221
 20
893.831427802471
 30
0.0
 11
1261.963179669221
 21
891.3944321884359
 31
0.0
  0
LINE
  5
529C
330
5279
100
AcDbEntity
  8
1
 62
     0
370
    -2
100
AcDbLine
 10
1261.963179669221
 20
879.4114278024711
 30
0.0
 11
1261.963179669221
 21
881.8484234165062
 31
0.0
  0
SOLID
  5
529D
330
5279
100
AcDbEntity
  8
1
 62
     0
100
AcDbTrace
 10
1261.081513002554
 20
893.831427802471
 30
0.0
 11
1262.844846335888
 21
893.831427802471
 31
0.0
 12
1261.963179669221
 22
899.1214278024711
 32
0.0
 13
1261.963179669221
 23
899.1214278024711
 33
0.0
  0
SOLID
  5
529E
330
5279
100
AcDbEntity
  8
1
 62
     0
100
AcDbTrace
 10
1261.081513002554
 20
879.4114278024711
 30
0.0
 11
1262.844846335888
 21
879.4114278024711
 31
0.0
 12
1261.963179669221
 22
874.1214278024711
 32
0.0
 13
1261.963179669221
 23
874.1214278024711
 33
0.0
  0
MTEXT
  5
529F
330
5279
100
AcDbEntity
  8
1
 62
     0
100
AcDbMText
 10
1261.963179669221
 20
886.6214278024711
 30
0.0
 40
5.29
 41
0.0
 71
     5
 72
     1
  1
\A1;25
 73
     1
 44
1.0
  0
POINT
  5
52A0
330
5279
100
AcDbEntity
  8
DEFPOINTS
 62
     0
100
AcDbPoint
 10
1279.653361461698
 20
899.1214278024711
 30
0.0
  0
POINT
  5
52A1
330
5279
100
AcDbEntity
  8
DEFPOINTS
 62
     0
100
AcDbPoint
 10
1306.653361461698
 20
874.1214278024711
 30
0.0
  0
POINT
  5
52A2
330
5279
100
AcDbEntity
  8
DEFPOINTS
 62
     0
100
AcDbPoint
 10
1261.963179669221
 20
874.1214278024711
 30
0.0
  0
ENDBLK
  5
5285
330
5279
100
AcDbEntity
  8
0
100
AcDbBlockEnd
  0
ENDSEC
  0
SECTION
  2
ENTITIES
  0
LINE
  5
501C
330
19
100
AcDbEntity
  8
1
100
AcDbLine
 10
1496.598999135065
 20
899.1214278024713
 30
0.0
 11
1658.598999135064
 21
899.1214278024713
 31
0.0
  0
LINE
  5
501D
330
19
100
AcDbEntity
  8
1
100
AcDbLine
 10
1506.598999135064
 20
877.1214278024713
 30
0.0
 11
1648.598999135065
 21
877.1214278024713
 31
0.0
  0
LINE
  5
501E
330
19
100
AcDbEntity
  8
1
100
AcDbLine
 10
1496.598999135065
 20
899.1214278024713
 30
0.0
 11
1496.598999135065
 21
887.1214278024714
 31
0.0
  0
LINE
  5
501F
330
19
100
AcDbEntity
  8
1
100
AcDbLine
 10
1658.598999135064
 20
899.1214278024713
 30
0.0
 11
1658.598999135065
 21
887.1214278024712
 31
0.0
  0
LINE
  5
5020
330
19
100
AcDbEntity
  8
1
100
AcDbLine
 10
1496.598999135065
 20
887.1214278024712
 30
0.0
 11
1506.598999135064
 21
887.1214278024712
 31
0.0
  0
LWPOLYLINE
  5
5021
330
19
100
AcDbEntity
  8
1
100
AcDbPolyline
 90
        4
 70
     0
 43
0.0
 10
1496.598999135065
 20
899.1214278024713
 10
1496.598999135065
 20
887.1214278024712
 10
1506.598999135064
 20
887.1214278024712
 10
1506.598999135064
 20
877.1214278024713
  0
LWPOLYLINE
  5
5022
330
19
100
AcDbEntity
  8
1
100
AcDbPolyline
 90
        4
 70
     0
 43
0.0
 10
1498.598999135064
 20
899.1214278024713
 10
1498.598999135064
 20
889.1214278024714
 10
1508.598999135064
 20
889.1214278024714
 10
1508.598999135064
 20
877.1214278024713
  0
LINE
  5
5023
330
19
100
AcDbEntity
  8
1
100
AcDbLine
 10
1508.598999135064
 20
887.1214278024712
 30
0.0
 11
1646.598999135064
 21
887.1214278024712
 31
0.0
  0
LWPOLYLINE
  5
5024
330
19
100
AcDbEntity
  8
1
100
AcDbPolyline
 90
        4
 70
     0
 43
0.0
 10
1656.598999135064
 20
899.1214278024713
 10
1656.598999135064
 20
889.1214278024714
 10
1646.598999135064
 20
889.1214278024714
 10
1646.598999135064
 20
877.1214278024713
  0
LWPOLYLINE
  5
5025
330
19
100
AcDbEntity
  8
1
100
AcDbPolyline
 90
        4
 70
     0
 43
0.0
 10
1658.598999135064
 20
899.1214278024713
 10
1658.598999135064
 20
887.1214278024712
 10
1648.598999135065
 20
887.1214278024712
 10
1648.598999135065
 20
877.1214278024713
  0
LINE
  5
5026
330
19
100
AcDbEntity
  8
1
100
AcDbLine
 10
1658.598999135064
 20
899.1214278024713
 30
0.0
 11
1658.598999135064
 21
887.1214278024714
 31
0.0
  0
LINE
  5
5027
330
19
100
AcDbEntity
  8
1
100
AcDbLine
 10
1658.598999135064
 20
887.1214278024712
 30
0.0
 11
1648.598999135065
 21
887.1214278024712
 31
0.0
  0
LINE
  5
5028
330
19
100
AcDbEntity
  8
1
100
AcDbLine
 10
1648.598999135065
 20
887.1214278024712
 30
0.0
 11
1658.598999135064
 21
887.1214278024712
 31
0.0
  0
LINE
  5
5029
330
19
100
AcDbEntity
  8
1
100
AcDbLine
 10
1508.598999135064
 20
889.1214278024714
 30
0.0
 11
1646.598999135064
 21
889.1214278024714
 31
0.0
  0
DIMENSION
  5
502A
330
19
100
AcDbEntity
  8
1
100
AcDbDimension
  2
*D14
 10
1482.188570497913
 20
877.1214278024713
 30
0.0
 11
1482.188570497913
 21
888.1214278024712
 31
0.0
 70
   160
 71
     5
 42
22.0
  3
STANDARD
100
AcDbAlignedDimension
 13
1496.598999135065
 23
899.1214278024713
 33
0.0
 14
1506.598999135064
 24
877.1214278024713
 34
0.0
 50
90.0
100
AcDbRotatedDimension
1001
ACAD
1000
DSTYLE
1002
{
1070
     4
1000
mm
1070
    40
1040
23.0
1070
    41
1040
0.23
1070
    42
1040
0.12
1070
    77
1070
     1
1070
   140
1040
0.23
1070
   141
1040
0.0
1070
   171
1070
     0
1070
   271
1070
     0
1070
   272
1070
     0
1070
   274
1070
     0
1002
}
  0
DIMENSION
  5
5038
330
19
100
AcDbEntity
  8
1
100
AcDbDimension
  2
*D15
 10
1658.598999135064
 20
913.4584773012022
 30
0.0
 11
1577.598999135064
 21
918.2276147281028
 31
0.0
 70
    32
  1
<> x 162
 71
     5
 42
162.0
  3
STANDARD
100
AcDbAlignedDimension
 13
1496.598999135065
 23
899.1214278024713
 33
0.0
 14
1658.598999135064
 24
899.1214278024713
 34
0.0
100
AcDbRotatedDimension
1001
ACAD
1000
DSTYLE
1002
{
1070
     4
1000
mm
1070
    40
1040
23.0
1070
    41
1040
0.23
1070
    42
1040
0.12
1070
    77
1070
     1
1070
   140
1040
0.23
1070
   141
1040
0.0
1070
   171
1070
     0
1070
   271
1070
     0
1070
   272
1070
     0
1070
   274
1070
     0
1002
}
  0
MTEXT
  5
50E4
330
19
100
AcDbEntity
  8
1
100
AcDbMText
 10
1556.273059664264
 20
867.005776773608
 30
0.0
 40
6.0
 41
179.61
 71
     1
 72
     5
  1
{\fTechnicLite|b0|i0|c2|p2;KF162}
  7
ROMANC
 73
     1
 44
1.0
  0
LINE
  5
518C
330
19
100
AcDbEntity
  8
1
100
AcDbLine
 10
1414.653361461698
 20
874.1214278024711
 30
0.0
 11
1306.653361461698
 21
874.1214278024711
 31
0.0
  0
DIMENSION
  5
518D
330
19
100
AcDbEntity
  8
1
100
AcDbDimension
  2
*D18
 10
1441.653361461698
 20
914.0933589992176
 30
0.0
 11
1360.653361461698
 21
914.0933589992176
 31
0.0
 70
   160
  1
<> x 162
 71
     5
 42
161.9999999999997
  3
STANDARD
100
AcDbAlignedDimension
 13
1279.653361461698
 23
899.1214278024711
 33
0.0
 14
1441.653361461698
 24
899.1214278024711
 34
0.0
100
AcDbRotatedDimension
1001
ACAD
1000
DSTYLE
1002
{
1070
     4
1000
mm
1070
    40
1040
23.0
1070
    41
1040
0.23
1070
    42
1040
0.12
1070
    77
1070
     1
1070
   140
1040
0.23
1070
   141
1040
0.0
1070
   171
1070
     0
1070
   271
1070
     0
1070
   272
1070
     0
1070
   274
1070
     0
1002
}
  0
LINE
  5
518E
330
19
100
AcDbEntity
  8
1
 62
     0
100
AcDbLine
 10
1355.295945822338
 20
893.75746154848
 30
0.0
 11
1356.406695588857
 21
894.8682113149988
 31
0.0
  0
LINE
  5
518F
330
19
100
AcDbEntity
  8
1
100
AcDbLine
 10
1306.653361461698
 20
889.5228262688483
 30
0.0
 11
1360.653361461698
 21
889.5228262688483
 31
0.0
  0
LINE
  5
5190
330
19
100
AcDbEntity
  8
1
100
AcDbLine
 10
1314.263368905836
 20
893.7574615484798
 30
0.0
 11
1360.653361461698
 21
893.75746154848
 31
0.0
  0
LINE
  5
5191
330
19
100
AcDbEntity
  8
1
100
AcDbLine
 10
1314.511515169401
 20
895.75746154848
 30
0.0
 11
1360.653361461698
 21
895.75746154848
 31
0.0
  0
LINE
  5
5192
330
19
100
AcDbEntity
  8
1
100
AcDbLine
 10
1308.030570156953
 20
895.9144412945084
 30
0.0
 11
1314.263368905836
 21
893.75746154848
 31
0.0
  0
LINE
  5
5193
330
19
100
AcDbEntity
  8
1
100
AcDbLine
 10
1308.278716420518
 20
897.9144412945082
 30
0.0
 11
1314.511515169401
 21
895.75746154848
 31
0.0
  0
LINE
  5
5194
330
19
100
AcDbEntity
  8
1
100
AcDbLine
 10
1279.653361461698
 20
899.1214278024711
 30
0.0
 11
1289.653361461698
 21
899.1214278024711
 31
0.0
  0
LINE
  5
5195
330
19
100
AcDbEntity
  8
1
100
AcDbLine
 10
1280.653361461698
 20
898.1214278024712
 30
0.0
 11
1288.653361461698
 21
898.1214278024712
 31
0.0
  0
LINE
  5
5196
330
19
100
AcDbEntity
  8
1
100
AcDbLine
 10
1274.653361461698
 20
890.1214278024712
 30
0.0
 11
1279.653361461698
 21
890.1214278024712
 31
0.0
  0
LINE
  5
5197
330
19
100
AcDbEntity
  8
1
100
AcDbLine
 10
1274.653361461698
 20
889.1214278024712
 30
0.0
 11
1280.653361461698
 21
889.1214278024712
 31
0.0
  0
LINE
  5
5198
330
19
100
AcDbEntity
  8
1
100
AcDbLine
 10
1274.653361461698
 20
890.1214278024712
 30
0.0
 11
1274.653361461698
 21
889.1214278024712
 31
0.0
  0
LINE
  5
5199
330
19
100
AcDbEntity
  8
1
100
AcDbLine
 10
1279.653361461698
 20
890.1214278024712
 30
0.0
 11
1279.653361461698
 21
899.1214278024711
 31
0.0
  0
LINE
  5
519A
330
19
100
AcDbEntity
  8
1
100
AcDbLine
 10
1280.653361461698
 20
889.1214278024712
 30
0.0
 11
1280.653361461698
 21
898.1214278024712
 31
0.0
  0
LINE
  5
519B
330
19
100
AcDbEntity
  8
1
100
AcDbLine
 10
1298.695898917963
 20
894.6214278024712
 30
0.0
 11
1298.695898917963
 21
882.2801592435654
 31
0.0
  0
LINE
  5
519C
330
19
100
AcDbEntity
  8
1
100
AcDbLine
 10
1295.120426115945
 20
894.6214278024712
 30
0.0
 11
1295.120426115945
 21
882.2801592435654
 31
0.0
  0
LINE
  5
519D
330
19
100
AcDbEntity
  8
1
100
AcDbLine
 10
1306.653361461698
 20
889.5228262688483
 30
0.0
 11
1306.653361461698
 21
874.1214278024711
 31
0.0
  0
LINE
  5
519E
330
19
100
AcDbEntity
  8
1
100
AcDbLine
 10
1298.205542219183
 20
886.6866821533589
 30
0.0
 11
1298.205542219183
 21
882.2801592435654
 31
0.0
  0
LINE
  5
519F
330
19
100
AcDbEntity
  8
1
100
AcDbLine
 10
1295.610782814725
 20
886.6866821533589
 30
0.0
 11
1295.610782814725
 21
882.2801592435654
 31
0.0
  0
LINE
  5
51A0
330
19
100
AcDbEntity
  8
1
100
AcDbLine
 10
1295.120426115945
 20
882.2801592435654
 30
0.0
 11
1298.695898917963
 21
882.2801592435654
 31
0.0
  0
LINE
  5
51A1
330
19
100
AcDbEntity
  8
1
100
AcDbLine
 10
1299.153361461698
 20
895.9144412945084
 30
0.0
 11
1301.153361461698
 21
897.9144412945082
 31
0.0
  0
LINE
  5
51A2
330
19
100
AcDbEntity
  8
1
100
AcDbLine
 10
1290.653361461698
 20
897.9144412945082
 30
0.0
 11
1308.278716420518
 21
897.9144412945082
 31
0.0
  0
LINE
  5
51A3
330
19
100
AcDbEntity
  8
1
100
AcDbLine
 10
1290.653361461698
 20
895.9144412945084
 30
0.0
 11
1308.030570156953
 21
895.9144412945084
 31
0.0
  0
LINE
  5
51A4
330
19
100
AcDbEntity
  8
1
100
AcDbLine
 10
1289.653361461698
 20
895.6214278024711
 30
0.0
 11
1301.098652912153
 21
895.6214278024711
 31
0.0
  0
LINE
  5
51A5
330
19
100
AcDbEntity
  8
1
100
AcDbLine
 10
1288.653361461698
 20
894.6214278024712
 30
0.0
 11
1300.656847344384
 21
894.6214278024712
 31
0.0
  0
LINE
  5
51A6
330
19
100
AcDbEntity
  8
1
100
AcDbLine
 10
1294.653361461698
 20
895.9144412945084
 30
0.0
 11
1292.653361461698
 21
897.9144412945082
 31
0.0
  0
LINE
  5
51A7
330
19
100
AcDbEntity
  8
1
 62
     0
100
AcDbLine
 10
1290.653361461698
 20
897.1567833454898
 30
0.0
 11
1291.411019410716
 21
897.9144412945082
 31
0.0
  0
LINE
  5
51A8
330
19
100
AcDbEntity
  8
1
 62
     0
100
AcDbLine
 10
1290.82523297309
 20
895.9144412945084
 30
0.0
 11
1292.82523297309
 21
897.9144412945082
 31
0.0
  0
LINE
  5
51A9
330
19
100
AcDbEntity
  8
1
 62
     0
100
AcDbLine
 10
1292.239446535463
 20
895.9144412945084
 30
0.0
 11
1293.44640399858
 21
897.1213987576261
 31
0.0
  0
LINE
  5
51AA
330
19
100
AcDbEntity
  8
1
100
AcDbLine
 10
1290.653361461698
 20
897.9144412945082
 30
0.0
 11
1290.653361461698
 21
895.9144412945084
 31
0.0
  0
LINE
  5
51AB
330
19
100
AcDbEntity
  8
1
100
AcDbLine
 10
1289.653361461698
 20
899.1214278024711
 30
0.0
 11
1289.653361461698
 21
895.6214278024711
 31
0.0
  0
LINE
  5
51AC
330
19
100
AcDbEntity
  8
1
100
AcDbLine
 10
1288.653361461698
 20
898.1214278024712
 30
0.0
 11
1288.653361461698
 21
894.6214278024712
 31
0.0
  0
LINE
  5
51AD
330
19
100
AcDbEntity
  8
1
100
AcDbLine
 10
1295.610782814725
 20
894.6214278024712
 30
0.0
 11
1295.610782814725
 21
889.5264411839612
 31
0.0
  0
LINE
  5
51AE
330
19
100
AcDbEntity
  8
1
100
AcDbLine
 10
1298.205542219183
 20
894.6214278024712
 30
0.0
 11
1298.205542219183
 21
889.5264411839612
 31
0.0
  0
LINE
  5
51AF
330
19
100
AcDbEntity
  8
1
 62
     0
100
AcDbLine
 10
1293.653660097836
 20
895.9144412945084
 30
0.0
 11
1294.153510779767
 21
896.4142919764396
 31
0.0
  0
LINE
  5
51B0
330
19
100
AcDbEntity
  8
1
100
AcDbLine
 10
1301.098652912153
 20
895.6214278024711
 30
0.0
 11
1306.653361461698
 21
889.5228262688483
 31
0.0
  0
LINE
  5
51B1
330
19
100
AcDbEntity
  8
1
100
AcDbLine
 10
1300.656847344384
 20
894.6214278024712
 30
0.0
 11
1305.653361461698
 21
889.135676680368
 31
0.0
  0
LINE
  5
51B2
330
19
100
AcDbEntity
  8
1
 62
     0
100
AcDbLine
 10
1304.967368596821
 20
895.9144412945084
 30
0.0
 11
1306.96736859682
 21
897.9144412945082
 31
0.0
  0
LINE
  5
51B3
330
19
100
AcDbEntity
  8
1
 62
     0
100
AcDbLine
 10
1303.553155034447
 20
895.9144412945084
 30
0.0
 11
1305.553155034447
 21
897.9144412945082
 31
0.0
  0
LINE
  5
51B4
330
19
100
AcDbEntity
  8
1
 62
     0
100
AcDbLine
 10
1302.138941472074
 20
895.9144412945084
 30
0.0
 11
1304.138941472075
 21
897.9144412945082
 31
0.0
  0
LINE
  5
51B5
330
19
100
AcDbEntity
  8
1
 62
     0
100
AcDbLine
 10
1300.724727909701
 20
895.9144412945084
 30
0.0
 11
1302.724727909701
 21
897.9144412945082
 31
0.0
  0
LINE
  5
51B6
330
19
100
AcDbEntity
  8
1
 62
     0
100
AcDbLine
 10
1307.663545610378
 20
895.9144412945084
 30
0.0
 11
1308.608517065309
 21
896.8594127494387
 31
0.0
  0
LINE
  5
51B7
330
19
100
AcDbEntity
  8
1
 62
     0
100
AcDbLine
 10
1306.370858001138
 20
895.9144412945084
 30
0.0
 11
1308.370858001139
 21
897.9144412945082
 31
0.0
  0
LINE
  5
51B8
330
19
100
AcDbEntity
  8
1
100
AcDbLine
 10
1308.608517065309
 20
895.7144316638705
 30
0.0
 11
1308.608517065309
 21
897.8003074455424
 31
0.0
  0
LINE
  5
51B9
330
19
100
AcDbEntity
  8
1
 62
     0
100
AcDbLine
 10
1332.519875484388
 20
893.7574615484798
 30
0.0
 11
1334.519875484388
 21
895.75746154848
 31
0.0
  0
LINE
  5
51BA
330
19
100
AcDbEntity
  8
1
 62
     0
100
AcDbLine
 10
1321.206166985403
 20
893.7574615484798
 30
0.0
 11
1323.206166985404
 21
895.75746154848
 31
0.0
  0
LINE
  5
51BB
330
19
100
AcDbEntity
  8
1
 62
     0
100
AcDbLine
 10
1317.158042248877
 20
895.3661910614451
 30
0.0
 11
1317.549312735911
 21
895.75746154848
 31
0.0
  0
LINE
  5
51BC
330
19
100
AcDbEntity
  8
1
 62
     0
100
AcDbLine
 10
1317.158042248877
 20
893.9519774990722
 30
0.0
 11
1318.963526298284
 21
895.75746154848
 31
0.0
  0
LINE
  5
51BD
330
19
100
AcDbEntity
  8
1
 62
     0
100
AcDbLine
 10
1318.377739860657
 20
893.7574615484797
 30
0.0
 11
1320.377739860657
 21
895.75746154848
 31
0.0
  0
LINE
  5
51BE
330
19
100
AcDbEntity
  8
1
 62
     0
100
AcDbLine
 10
1319.79195342303
 20
893.7574615484798
 30
0.0
 11
1321.791953423031
 21
895.75746154848
 31
0.0
  0
LINE
  5
51BF
330
19
100
AcDbEntity
  8
1
100
AcDbLine
 10
1317.158042248877
 20
893.7574615484797
 30
0.0
 11
1317.158042248877
 21
895.8242189461174
 31
0.0
  0
LINE
  5
51C0
330
19
100
AcDbEntity
  8
1
 62
     0
100
AcDbLine
 10
1322.620380547776
 20
893.7574615484798
 30
0.0
 11
1324.620380547777
 21
895.75746154848
 31
0.0
  0
LINE
  5
51C1
330
19
100
AcDbEntity
  8
1
 62
     0
100
AcDbLine
 10
1324.034594110149
 20
893.7574615484798
 30
0.0
 11
1324.858042248877
 21
894.5809096872068
 31
0.0
  0
LINE
  5
51C2
330
19
100
AcDbEntity
  8
1
100
AcDbLine
 10
1324.858042248877
 20
893.75746154848
 30
0.0
 11
1324.858042248877
 21
895.75746154848
 31
0.0
  0
LINE
  5
51C3
330
19
100
AcDbEntity
  8
1
 62
     0
100
AcDbLine
 10
1332.858042248877
 20
895.5098418753411
 30
0.0
 11
1333.105661922015
 21
895.75746154848
 31
0.0
  0
LINE
  5
51C4
330
19
100
AcDbEntity
  8
1
100
AcDbLine
 10
1332.858042248877
 20
893.75746154848
 30
0.0
 11
1332.858042248877
 21
895.75746154848
 31
0.0
  0
LINE
  5
51C5
330
19
100
AcDbEntity
  8
1
 62
     0
100
AcDbLine
 10
1338.176729733881
 20
893.7574615484798
 30
0.0
 11
1340.17672973388
 21
895.75746154848
 31
0.0
  0
LINE
  5
51C6
330
19
100
AcDbEntity
  8
1
 62
     0
100
AcDbLine
 10
1333.934089046761
 20
893.7574615484798
 30
0.0
 11
1335.934089046762
 21
895.75746154848
 31
0.0
  0
LINE
  5
51C7
330
19
100
AcDbEntity
  8
1
 62
     0
100
AcDbLine
 10
1335.348302609134
 20
893.7574615484798
 30
0.0
 11
1337.348302609135
 21
895.75746154848
 31
0.0
  0
LINE
  5
51C8
330
19
100
AcDbEntity
  8
1
 62
     0
100
AcDbLine
 10
1336.762516171508
 20
893.7574615484798
 30
0.0
 11
1338.762516171507
 21
895.75746154848
 31
0.0
  0
LINE
  5
51C9
330
19
100
AcDbEntity
  8
1
 62
     0
100
AcDbLine
 10
1339.590943296254
 20
893.7574615484798
 30
0.0
 11
1340.558042248877
 21
894.7245605011026
 31
0.0
  0
LINE
  5
51CA
330
19
100
AcDbEntity
  8
1
100
AcDbLine
 10
1340.558042248877
 20
893.75746154848
 30
0.0
 11
1340.558042248877
 21
895.75746154848
 31
0.0
  0
LINE
  5
51CB
330
19
100
AcDbEntity
  8
1
 62
     0
100
AcDbLine
 10
1349.639091572845
 20
893.75746154848
 30
0.0
 11
1351.639091572845
 21
895.75746154848
 31
0.0
  0
LINE
  5
51CC
330
19
100
AcDbEntity
  8
1
 62
     0
100
AcDbLine
 10
1348.706695588857
 20
894.2392791268641
 30
0.0
 11
1350.224878010473
 21
895.75746154848
 31
0.0
  0
LINE
  5
51CD
330
19
100
AcDbEntity
  8
1
100
AcDbLine
 10
1348.706695588857
 20
893.75746154848
 30
0.0
 11
1348.706695588857
 21
895.75746154848
 31
0.0
  0
LINE
  5
51CE
330
19
100
AcDbEntity
  8
1
 62
     0
100
AcDbLine
 10
1353.881732259965
 20
893.75746154848
 30
0.0
 11
1355.881732259965
 21
895.75746154848
 31
0.0
  0
LINE
  5
51CF
330
19
100
AcDbEntity
  8
1
 62
     0
100
AcDbLine
 10
1352.467518697592
 20
893.75746154848
 30
0.0
 11
1354.467518697592
 21
895.75746154848
 31
0.0
  0
LINE
  5
51D0
330
19
100
AcDbEntity
  8
1
 62
     0
100
AcDbLine
 10
1351.053305135219
 20
893.75746154848
 30
0.0
 11
1353.053305135219
 21
895.75746154848
 31
0.0
  0
LINE
  5
51D1
330
19
100
AcDbEntity
  8
1
100
AcDbLine
 10
1406.795207753995
 20
895.75746154848
 30
0.0
 11
1360.653361461698
 21
895.75746154848
 31
0.0
  0
LINE
  5
51D2
330
19
100
AcDbEntity
  8
1
100
AcDbLine
 10
1407.04335401756
 20
893.7574615484798
 30
0.0
 11
1360.653361461698
 21
893.75746154848
 31
0.0
  0
LINE
  5
51D3
330
19
100
AcDbEntity
  8
1
100
AcDbLine
 10
1414.653361461698
 20
889.5228262688483
 30
0.0
 11
1360.653361461698
 21
889.5228262688483
 31
0.0
  0
LINE
  5
51D4
330
19
100
AcDbEntity
  8
1
 62
     0
100
AcDbLine
 10
1402.928983062739
 20
893.7574615484797
 30
0.0
 11
1400.928983062739
 21
895.75746154848
 31
0.0
  0
LINE
  5
51D5
330
19
100
AcDbEntity
  8
1
 62
     0
100
AcDbLine
 10
1368.839204225804
 20
893.75746154848
 30
0.0
 11
1366.839204225804
 21
895.75746154848
 31
0.0
  0
LINE
  5
51D6
330
19
100
AcDbEntity
  8
1
100
AcDbLine
 10
1356.406695588857
 20
893.75746154848
 30
0.0
 11
1356.406695588857
 21
895.75746154848
 31
0.0
  0
LINE
  5
51D7
330
19
100
AcDbEntity
  8
1
100
AcDbLine
 10
1364.900027334539
 20
893.75746154848
 30
0.0
 11
1364.900027334539
 21
895.75746154848
 31
0.0
  0
LINE
  5
51D8
330
19
100
AcDbEntity
  8
1
 62
     0
100
AcDbLine
 10
1367.424990663431
 20
893.75746154848
 30
0.0
 11
1365.424990663431
 21
895.75746154848
 31
0.0
  0
LINE
  5
51D9
330
19
100
AcDbEntity
  8
1
 62
     0
100
AcDbLine
 10
1366.010777101058
 20
893.75746154848
 30
0.0
 11
1364.900027334539
 21
894.8682113149988
 31
0.0
  0
LINE
  5
51DA
330
19
100
AcDbEntity
  8
1
100
AcDbLine
 10
1372.60002733454
 20
893.75746154848
 30
0.0
 11
1372.60002733454
 21
895.75746154848
 31
0.0
  0
LINE
  5
51DB
330
19
100
AcDbEntity
  8
1
 62
     0
100
AcDbLine
 10
1372.60002733454
 20
894.2392791268641
 30
0.0
 11
1371.081844912924
 21
895.75746154848
 31
0.0
  0
LINE
  5
51DC
330
19
100
AcDbEntity
  8
1
 62
     0
100
AcDbLine
 10
1371.667631350551
 20
893.75746154848
 30
0.0
 11
1369.667631350551
 21
895.75746154848
 31
0.0
  0
LINE
  5
51DD
330
19
100
AcDbEntity
  8
1
 62
     0
100
AcDbLine
 10
1370.253417788178
 20
893.75746154848
 30
0.0
 11
1368.253417788178
 21
895.75746154848
 31
0.0
  0
LINE
  5
51DE
330
19
100
AcDbEntity
  8
1
 62
     0
100
AcDbLine
 10
1385.958420314262
 20
893.7574615484798
 30
0.0
 11
1383.958420314262
 21
895.75746154848
 31
0.0
  0
LINE
  5
51DF
330
19
100
AcDbEntity
  8
1
100
AcDbLine
 10
1380.748680674519
 20
893.75746154848
 30
0.0
 11
1380.748680674519
 21
895.75746154848
 31
0.0
  0
LINE
  5
51E0
330
19
100
AcDbEntity
  8
1
 62
     0
100
AcDbLine
 10
1383.129993189516
 20
893.7574615484798
 30
0.0
 11
1381.129993189516
 21
895.75746154848
 31
0.0
  0
LINE
  5
51E1
330
19
100
AcDbEntity
  8
1
 62
     0
100
AcDbLine
 10
1384.544206751888
 20
893.7574615484798
 30
0.0
 11
1382.544206751888
 21
895.75746154848
 31
0.0
  0
LINE
  5
51E2
330
19
100
AcDbEntity
  8
1
 62
     0
100
AcDbLine
 10
1381.715779627142
 20
893.7574615484798
 30
0.0
 11
1380.748680674519
 21
894.7245605011026
 31
0.0
  0
LINE
  5
51E3
330
19
100
AcDbEntity
  8
1
100
AcDbLine
 10
1388.448680674519
 20
893.75746154848
 30
0.0
 11
1388.448680674519
 21
895.75746154848
 31
0.0
  0
LINE
  5
51E4
330
19
100
AcDbEntity
  8
1
 62
     0
100
AcDbLine
 10
1387.372633876635
 20
893.7574615484798
 30
0.0
 11
1385.372633876635
 21
895.75746154848
 31
0.0
  0
LINE
  5
51E5
330
19
100
AcDbEntity
  8
1
 62
     0
100
AcDbLine
 10
1388.786847439008
 20
893.7574615484798
 30
0.0
 11
1386.786847439007
 21
895.75746154848
 31
0.0
  0
LINE
  5
51E6
330
19
100
AcDbEntity
  8
1
 62
     0
100
AcDbLine
 10
1388.448680674519
 20
895.5098418753411
 30
0.0
 11
1388.201061001381
 21
895.75746154848
 31
0.0
  0
LINE
  5
51E7
330
19
100
AcDbEntity
  8
1
100
AcDbLine
 10
1396.448680674519
 20
893.75746154848
 30
0.0
 11
1396.448680674519
 21
895.75746154848
 31
0.0
  0
LINE
  5
51E8
330
19
100
AcDbEntity
  8
1
 62
     0
100
AcDbLine
 10
1397.272128813247
 20
893.7574615484798
 30
0.0
 11
1396.448680674519
 21
894.5809096872068
 31
0.0
  0
LINE
  5
51E9
330
19
100
AcDbEntity
  8
1
 62
     0
100
AcDbLine
 10
1398.686342375619
 20
893.7574615484798
 30
0.0
 11
1396.68634237562
 21
895.75746154848
 31
0.0
  0
LINE
  5
51EA
330
19
100
AcDbEntity
  8
1
 62
     0
100
AcDbLine
 10
1400.100555937993
 20
893.7574615484798
 30
0.0
 11
1398.100555937992
 21
895.75746154848
 31
0.0
  0
LINE
  5
51EB
330
19
100
AcDbEntity
  8
1
 62
     0
100
AcDbLine
 10
1401.514769500366
 20
893.7574615484798
 30
0.0
 11
1399.514769500366
 21
895.75746154848
 31
0.0
  0
LINE
  5
51EC
330
19
100
AcDbEntity
  8
1
100
AcDbLine
 10
1432.653361461698
 20
894.6214278024712
 30
0.0
 11
1420.649875579013
 21
894.6214278024712
 31
0.0
  0
LINE
  5
51ED
330
19
100
AcDbEntity
  8
1
100
AcDbLine
 10
1430.653361461699
 20
895.9144412945084
 30
0.0
 11
1413.276152766444
 21
895.9144412945084
 31
0.0
  0
LINE
  5
51EE
330
19
100
AcDbEntity
  8
1
100
AcDbLine
 10
1430.653361461699
 20
897.9144412945082
 30
0.0
 11
1413.028006502878
 21
897.9144412945082
 31
0.0
  0
LINE
  5
51EF
330
19
100
AcDbEntity
  8
1
100
AcDbLine
 10
1431.653361461698
 20
895.6214278024711
 30
0.0
 11
1420.208070011243
 21
895.6214278024711
 31
0.0
  0
LINE
  5
51F0
330
19
100
AcDbEntity
  8
1
100
AcDbLine
 10
1426.200950164534
 20
882.2801592435654
 30
0.0
 11
1422.625477362517
 21
882.2801592435654
 31
0.0
  0
LINE
  5
51F1
330
19
100
AcDbEntity
  8
1
100
AcDbLine
 10
1430.653361461699
 20
895.9144412945084
 30
0.0
 11
1413.276152766444
 21
895.9144412945084
 31
0.0
  0
LINE
  5
51F2
330
19
100
AcDbEntity
  8
1
100
AcDbLine
 10
1430.653361461699
 20
897.9144412945082
 30
0.0
 11
1413.028006502878
 21
897.9144412945082
 31
0.0
  0
LINE
  5
51F3
330
19
100
AcDbEntity
  8
1
100
AcDbLine
 10
1422.625477362517
 20
894.6214278024712
 30
0.0
 11
1422.625477362517
 21
882.2801592435654
 31
0.0
  0
LINE
  5
51F4
330
19
100
AcDbEntity
  8
1
100
AcDbLine
 10
1414.653361461698
 20
889.5228262688478
 30
0.0
 11
1414.653361461698
 21
874.1214278024711
 31
0.0
  0
LINE
  5
51F5
330
19
100
AcDbEntity
  8
1
100
AcDbLine
 10
1423.115834061296
 20
886.6866821533589
 30
0.0
 11
1423.115834061296
 21
882.2801592435654
 31
0.0
  0
LINE
  5
51F6
330
19
100
AcDbEntity
  8
1
100
AcDbLine
 10
1423.115834061296
 20
887.0075743689257
 30
0.0
 11
1423.115834061296
 21
886.6866821533589
 31
0.0
  0
LINE
  5
51F7
330
19
100
AcDbEntity
  8
1
 62
     0
100
AcDbLine
 10
1414.935864922258
 20
895.9144412945084
 30
0.0
 11
1412.935864922258
 21
897.9144412945082
 31
0.0
  0
LINE
  5
51F8
330
19
100
AcDbEntity
  8
1
 62
     0
100
AcDbLine
 10
1413.643177313018
 20
895.9144412945084
 30
0.0
 11
1412.698205858087
 21
896.8594127494387
 31
0.0
  0
LINE
  5
51F9
330
19
100
AcDbEntity
  8
1
100
AcDbLine
 10
1413.276152766444
 20
895.9144412945084
 30
0.0
 11
1407.04335401756
 21
893.75746154848
 31
0.0
  0
LINE
  5
51FA
330
19
100
AcDbEntity
  8
1
 62
     0
100
AcDbLine
 10
1414.935864922258
 20
895.9144412945084
 30
0.0
 11
1412.935864922258
 21
897.9144412945082
 31
0.0
  0
LINE
  5
51FB
330
19
100
AcDbEntity
  8
1
 62
     0
100
AcDbLine
 10
1413.643177313018
 20
895.9144412945084
 30
0.0
 11
1412.698205858087
 21
896.8594127494387
 31
0.0
  0
LINE
  5
51FC
330
19
100
AcDbEntity
  8
1
100
AcDbLine
 10
1413.028006502878
 20
897.9144412945082
 30
0.0
 11
1406.795207753995
 21
895.75746154848
 31
0.0
  0
LINE
  5
51FD
330
19
100
AcDbEntity
  8
1
100
AcDbLine
 10
1404.148680674519
 20
893.7574615484797
 30
0.0
 11
1404.14868067452
 21
895.8242189461174
 31
0.0
  0
LINE
  5
51FE
330
19
100
AcDbEntity
  8
1
 62
     0
100
AcDbLine
 10
1404.148680674519
 20
893.9519774990722
 30
0.0
 11
1402.343196625112
 21
895.75746154848
 31
0.0
  0
LINE
  5
51FF
330
19
100
AcDbEntity
  8
1
 62
     0
100
AcDbLine
 10
1404.148680674519
 20
895.3661910614451
 30
0.0
 11
1403.757410187485
 21
895.75746154848
 31
0.0
  0
LINE
  5
5200
330
19
100
AcDbEntity
  8
1
100
AcDbLine
 10
1412.698205858087
 20
895.7144316638705
 30
0.0
 11
1412.698205858087
 21
897.8003074455424
 31
0.0
  0
LINE
  5
5201
330
19
100
AcDbEntity
  8
1
100
AcDbLine
 10
1412.698205858087
 20
895.7144316638705
 30
0.0
 11
1412.698205858087
 21
897.9144412945082
 31
0.0
  0
LINE
  5
5202
330
19
100
AcDbEntity
  8
1
 62
     0
100
AcDbLine
 10
1420.581995013695
 20
895.9144412945084
 30
0.0
 11
1418.581995013695
 21
897.9144412945082
 31
0.0
  0
LINE
  5
5203
330
19
100
AcDbEntity
  8
1
 62
     0
100
AcDbLine
 10
1419.167781451322
 20
895.9144412945084
 30
0.0
 11
1417.167781451322
 21
897.9144412945082
 31
0.0
  0
LINE
  5
5204
330
19
100
AcDbEntity
  8
1
100
AcDbLine
 10
1420.649875579013
 20
894.6214278024712
 30
0.0
 11
1415.653361461698
 21
889.135676680368
 31
0.0
  0
LINE
  5
5205
330
19
100
AcDbEntity
  8
1
100
AcDbLine
 10
1420.208070011243
 20
895.6214278024711
 30
0.0
 11
1414.653361461698
 21
889.5228262688483
 31
0.0
  0
LINE
  5
5206
330
19
100
AcDbEntity
  8
1
 62
     0
100
AcDbLine
 10
1420.581995013695
 20
895.9144412945084
 30
0.0
 11
1418.581995013695
 21
897.9144412945082
 31
0.0
  0
LINE
  5
5207
330
19
100
AcDbEntity
  8
1
 62
     0
100
AcDbLine
 10
1419.167781451322
 20
895.9144412945084
 30
0.0
 11
1417.167781451322
 21
897.9144412945082
 31
0.0
  0
LINE
  5
5208
330
19
100
AcDbEntity
  8
1
 62
     0
100
AcDbLine
 10
1416.339354326576
 20
895.9144412945084
 30
0.0
 11
1414.339354326576
 21
897.9144412945082
 31
0.0
  0
LINE
  5
5209
330
19
100
AcDbEntity
  8
1
 62
     0
100
AcDbLine
 10
1417.753567888949
 20
895.9144412945084
 30
0.0
 11
1415.753567888949
 21
897.9144412945082
 31
0.0
  0
LINE
  5
520A
330
19
100
AcDbEntity
  8
1
 62
     0
100
AcDbLine
 10
1417.753567888949
 20
895.9144412945084
 30
0.0
 11
1415.753567888949
 21
897.9144412945082
 31
0.0
  0
LINE
  5
520B
330
19
100
AcDbEntity
  8
1
 62
     0
100
AcDbLine
 10
1416.339354326576
 20
895.9144412945084
 30
0.0
 11
1414.339354326576
 21
897.9144412945082
 31
0.0
  0
LINE
  5
520C
330
19
100
AcDbEntity
  8
1
100
AcDbLine
 10
1422.153361461698
 20
895.9144412945084
 30
0.0
 11
1420.153361461698
 21
897.9144412945082
 31
0.0
  0
LINE
  5
520D
330
19
100
AcDbEntity
  8
1
100
AcDbLine
 10
1423.115834061296
 20
894.6214278024712
 30
0.0
 11
1423.115834061296
 21
889.5264411839612
 31
0.0
  0
LINE
  5
520E
330
19
100
AcDbEntity
  8
1
100
AcDbLine
 10
1422.153361461698
 20
895.9144412945084
 30
0.0
 11
1420.153361461698
 21
897.9144412945082
 31
0.0
  0
LINE
  5
520F
330
19
100
AcDbEntity
  8
1
100
AcDbLine
 10
1425.710593465754
 20
889.5264411839612
 30
0.0
 11
1425.710593465754
 21
886.6866821533589
 31
0.0
  0
LINE
  5
5210
330
19
100
AcDbEntity
  8
1
100
AcDbLine
 10
1426.200950164534
 20
894.6214278024712
 30
0.0
 11
1426.200950164534
 21
882.2801592435654
 31
0.0
  0
LINE
  5
5211
330
19
100
AcDbEntity
  8
1
100
AcDbLine
 10
1425.710593465754
 20
886.6866821533589
 30
0.0
 11
1425.710593465754
 21
882.2801592435654
 31
0.0
  0
LINE
  5
5212
330
19
100
AcDbEntity
  8
1
100
AcDbLine
 10
1440.653361461698
 20
898.1214278024712
 30
0.0
 11
1432.653361461698
 21
898.1214278024712
 31
0.0
  0
LINE
  5
5213
330
19
100
AcDbEntity
  8
1
100
AcDbLine
 10
1441.653361461698
 20
899.1214278024711
 30
0.0
 11
1431.653361461698
 21
899.1214278024711
 31
0.0
  0
LINE
  5
5214
330
19
100
AcDbEntity
  8
1
 62
     0
100
AcDbLine
 10
1430.481489950307
 20
895.9144412945084
 30
0.0
 11
1428.481489950306
 21
897.9144412945082
 31
0.0
  0
LINE
  5
5215
330
19
100
AcDbEntity
  8
1
 62
     0
100
AcDbLine
 10
1430.653361461699
 20
897.1567833454898
 30
0.0
 11
1429.89570351268
 21
897.9144412945082
 31
0.0
  0
LINE
  5
5216
330
19
100
AcDbEntity
  8
1
 62
     0
100
AcDbLine
 10
1427.653062825561
 20
895.9144412945084
 30
0.0
 11
1427.153212143629
 21
896.4142919764396
 31
0.0
  0
LINE
  5
5217
330
19
100
AcDbEntity
  8
1
 62
     0
100
AcDbLine
 10
1429.067276387933
 20
895.9144412945084
 30
0.0
 11
1427.860318924816
 21
897.1213987576261
 31
0.0
  0
LINE
  5
5218
330
19
100
AcDbEntity
  8
1
100
AcDbLine
 10
1426.653361461698
 20
895.9144412945084
 30
0.0
 11
1428.653361461698
 21
897.9144412945082
 31
0.0
  0
LINE
  5
5219
330
19
100
AcDbEntity
  8
1
100
AcDbLine
 10
1425.710593465754
 20
894.6214278024712
 30
0.0
 11
1425.710593465754
 21
890.7787828855907
 31
0.0
  0
LINE
  5
521A
330
19
100
AcDbEntity
  8
1
100
AcDbLine
 10
1431.653361461698
 20
899.1214278024711
 30
0.0
 11
1431.653361461698
 21
895.6214278024711
 31
0.0
  0
LINE
  5
521B
330
19
100
AcDbEntity
  8
1
100
AcDbLine
 10
1430.653361461699
 20
897.9144412945082
 30
0.0
 11
1430.653361461699
 21
895.9144412945084
 31
0.0
  0
LINE
  5
521C
330
19
100
AcDbEntity
  8
1
100
AcDbLine
 10
1432.653361461698
 20
898.1214278024712
 30
0.0
 11
1432.653361461698
 21
894.6214278024712
 31
0.0
  0
LINE
  5
521D
330
19
100
AcDbEntity
  8
1
100
AcDbLine
 10
1446.653361461698
 20
889.1214278024712
 30
0.0
 11
1440.653361461698
 21
889.1214278024712
 31
0.0
  0
LINE
  5
521E
330
19
100
AcDbEntity
  8
1
100
AcDbLine
 10
1440.653361461698
 20
889.1214278024712
 30
0.0
 11
1440.653361461698
 21
898.1214278024712
 31
0.0
  0
LINE
  5
521F
330
19
100
AcDbEntity
  8
1
100
AcDbLine
 10
1446.653361461698
 20
890.1214278024712
 30
0.0
 11
1441.653361461698
 21
890.1214278024712
 31
0.0
  0
LINE
  5
5220
330
19
100
AcDbEntity
  8
1
100
AcDbLine
 10
1446.653361461698
 20
890.1214278024712
 30
0.0
 11
1446.653361461698
 21
889.1214278024712
 31
0.0
  0
LINE
  5
5221
330
19
100
AcDbEntity
  8
1
100
AcDbLine
 10
1441.653361461698
 20
890.1214278024712
 30
0.0
 11
1441.653361461698
 21
899.1214278024711
 31
0.0
  0
DIMENSION
  5
5278
330
19
100
AcDbEntity
  8
1
100
AcDbDimension
  2
*D19
 10
1261.963179669221
 20
874.1214278024711
 30
0.0
 11
1261.963179669221
 21
886.6214278024711
 31
0.0
 70
    32
 71
     5
 42
24.99999999999988
  3
STANDARD
100
AcDbAlignedDimension
 13
1279.653361461698
 23
899.1214278024711
 33
0.0
 14
1306.653361461698
 24
874.1214278024711
 34
0.0
 50
90.0
100
AcDbRotatedDimension
1001
ACAD
1000
DSTYLE
1002
{
1070
     4
1000
mm
1070
    40
1040
23.0
1070
    41
1040
0.23
1070
    42
1040
0.12
1070
    77
1070
     1
1070
   140
1040
0.23
1070
   141
1040
0.0
1070
   171
1070
     0
1070
   271
1070
     0
1070
   272
1070
     0
1070
   274
1070
     0
1002
}
  0
MTEXT
  5
5286
330
19
100
AcDbEntity
  8
1
100
AcDbMText
 10
1338.860170281901
 20
867.005776773608
 30
0.0
 40
6.0
 41
179.61
 71
     1
 72
     5
  1
{\fTechnicLite|b0|i0|c2|p2;KF161}
  7
ROMANC
 73
     1
 44
1.0
  0
VIEWPORT
  5
3E4E
330
3E47
100
AcDbEntity
 67
     1
  8
0
100
AcDbViewport
 10
5.678333072211798
 20
3.966666563289372
 30
0.0
 40
18.02443831169918
 41
8.746133096049151
 68
     1
 69
     1
 12
5.678333072211798
 22
3.966666563289372
 13
0.0
 23
0.0
 14
10.0
 24
10.0
 15
10.0
 25
10.0
 16
0.0
 26
0.0
 36
1.0
 17
0.0
 27
0.0
 37
0.0
 42
50.0
 43
0.0
 44
0.0
 45
8.746133096049151
 50
0.0
 51
0.0
 72
 20000
 90
    32800
  1

281
     0
 71
     1
 74
     0
110
0.0
120
0.0
130
0.0
111
1.0
121
0.0
131
0.0
112
0.0
122
1.0
132
0.0
 79
     0
146
0.0
  0
ENDSEC
  0
SECTION
  2
OBJECTS
  0
DICTIONARY
  5
C
330
0
100
AcDbDictionary
281
     1
  3
ACAD_GROUP
350
D
  3
ACAD_LAYOUT
350
37B7
  3
ACAD_MLINESTYLE
350
E
  3
ACAD_PLOTSETTINGS
350
37B8
  3
ACAD_PLOTSTYLENAME
350
37B5
  3
ACDBVARIABLEDICTIONARY
350
C69
  0
DICTIONARY
  5
391B
330
19
100
AcDbDictionary
280
     1
281
     1
  3
ACAD_LAYOUTSELFREF
360
3E35
  0
DICTIONARY
  5
D
102
{ACAD_REACTORS
330
C
102
}
330
C
100
AcDbDictionary
281
     1
  0
DICTIONARY
  5
37B7
102
{ACAD_REACTORS
330
C
102
}
330
C
100
AcDbDictionary
281
     1
  3
Layout1
350
3E48
  3
Model
350
37B9
  0
DICTIONARY
  5
E
102
{ACAD_REACTORS
330
C
102
}
330
C
100
AcDbDictionary
281
     1
  3
STANDARD
350
12
  0
DICTIONARY
  5
37B8
102
{ACAD_REACTORS
330
C
102
}
330
C
100
AcDbDictionary
281
     1
  0
ACDBDICTIONARYWDFLT
  5
37B5
102
{ACAD_REACTORS
330
C
102
}
330
C
100
AcDbDictionary
281
     1
  3
Normal
350
37B6
100
AcDbDictionaryWithDefault
340
37B6
  0
DICTIONARY
  5
C69
102
{ACAD_REACTORS
330
C
102
}
330
C
100
AcDbDictionary
281
     1
  3
DIMASSOC
350
3E51
  3
SORTENTS
350
C6A
  0
XRECORD
  5
3E35
102
{ACAD_REACTORS
330
391B
102
}
330
391B
100
AcDbXrecord
280
     1
340
19
  0
LAYOUT
  5
3E48
102
{ACAD_REACTORS
330
37B7
102
}
330
37B7
100
AcDbPlotSettings
  1

  2
HP LaserJet 1200
  4
A4
  6

 40
4.233333110809326
 41
4.233341693878172
 42
7.789321899414062
 43
4.23333740234375
 44
209.9733276367186
 45
296.9259948730469
 46
0.0
 47
0.0
 48
0.0
 49
0.0
140
0.0
141
0.0
142
1.0
143
1.0
 70
   688
 72
     0
 73
     1
 74
     5
  7

 75
    16
147
1.0
148
0.0
149
0.0
100
AcDbLayout
  1
Layout1
 70
     1
 71
     1
 10
-0.1666668268639272
 20
-0.166666657905879
 11
11.52333297128752
 21
8.099999784484621
 12
0.0
 22
0.0
 32
0.0
 14
1.000000000000000E+20
 24
1.000000000000000E+20
 34
1.000000000000000E+20
 15
-1.000000000000000E+20
 25
-1.000000000000000E+20
 35
-1.000000000000000E+20
146
0.0
 13
0.0
 23
0.0
 33
0.0
 16
1.0
 26
0.0
 36
0.0
 17
0.0
 27
1.0
 37
0.0
 76
     0
330
3E47
331
3E4E
  0
LAYOUT
  5
37B9
102
{ACAD_REACTORS
330
37B7
102
}
330
37B7
100
AcDbPlotSettings
  1

  2
none_device
  4
Letter_(8.50_x_11.00_Inches)
  6

 40
6.349999904632567
 41
6.349999904632567
 42
6.350006103515625
 43
6.350006103515625
 44
215.8999938964841
 45
279.3999938964843
 46
0.0
 47
0.0
 48
0.0
 49
0.0
140
0.0
141
0.0
142
1.0
143
1.0
 70
 11952
 72
     0
 73
     1
 74
     0
  7

 75
     0
147
1.0
148
22009.97398741658
149
-18121.5236927284
100
AcDbLayout
  1
Model
 70
     1
 71
     0
 10
0.0
 20
0.0
 11
12.0
 21
9.0
 12
0.0
 22
0.0
 32
0.0
 14
0.0
 24
0.0
 34
0.0
 15
0.0
 25
0.0
 35
0.0
146
0.0
 13
0.0
 23
0.0
 33
0.0
 16
1.0
 26
0.0
 36
0.0
 17
0.0
 27
1.0
 37
0.0
 76
     0
330
19
  0
MLINESTYLE
  5
12
102
{ACAD_REACTORS
330
E
102
}
330
E
100
AcDbMlineStyle
  2
STANDARD
 70
     0
  3

 62
     0
 51
90.0
 52
90.0
 71
     2
 49
0.5
 62
   256
  6
BYLAYER
 49
-0.5
 62
   256
  6
BYLAYER
  0
ACDBPLACEHOLDER
  5
37B6
102
{ACAD_REACTORS
330
37B5
102
}
330
37B5
  0
DICTIONARYVAR
  5
3E51
102
{ACAD_REACTORS
330
C69
102
}
330
C69
100
DictionaryVariables
280
     0
  1
1
  0
DICTIONARYVAR
  5
C6A
102
{ACAD_REACTORS
330
C69
102
}
330
C69
100
DictionaryVariables
280
     0
  1
96
  0
ENDSEC
  0
EOF
