  0
SECTION
  2
HEADER
  9
$ACADVER
  1
AC1015
  9
$ACADMAINTVER
 70
    13
  9
$DWGCODEPAGE
  3
ANSI_1252
  9
$INSBASE
 10
0.0
 20
0.0
 30
0.0
  9
$EXTMIN
 10
1461.730010451917
 20
938.1387245819999
 30
-0.0000000349181948
  9
$EXTMAX
 10
1776.73530229786
 20
1058.873651222758
 30
0.0000000814935747
  9
$LIMMIN
 10
-702.5638614136987
 20
157.8715568061255
  9
$LIMMAX
 10
-313.6316672333482
 20
442.5869997172253
  9
$ORTHOMODE
 70
     1
  9
$REGENMODE
 70
     1
  9
$FILLMODE
 70
     1
  9
$QTEXTMODE
 70
     0
  9
$MIRRTEXT
 70
     1
  9
$LTSCALE
 40
30.0
  9
$ATTMODE
 70
     1
  9
$TEXTSIZE
 40
4.009999999999998
  9
$TRACEWID
 40
0.05
  9
$TEXTSTYLE
  7
ROMANC
  9
$CLAYER
  8
1
  9
$CELTYPE
  6
BYLAYER
  9
$CECOLOR
 62
   256
  9
$CELTSCALE
 40
1.0
  9
$DISPSILH
 70
     0
  9
$DIMSCALE
 40
18.0
  9
$DIMASZ
 40
0.23
  9
$DIMEXO
 40
0.12
  9
$DIMDLI
 40
0.38
  9
$DIMRND
 40
0.0
  9
$DIMDLE
 40
0.0
  9
$DIMEXE
 40
0.18
  9
$DIMTP
 40
0.0
  9
$DIMTM
 40
0.0
  9
$DIMTXT
 40
0.23
  9
$DIMCEN
 40
0.0
  9
$DIMTSZ
 40
0.0
  9
$DIMTOL
 70
     0
  9
$DIMLIM
 70
     0
  9
$DIMTIH
 70
     1
  9
$DIMTOH
 70
     1
  9
$DIMSE1
 70
     0
  9
$DIMSE2
 70
     0
  9
$DIMTAD
 70
     1
  9
$DIMZIN
 70
     0
  9
$DIMBLK
  1

  9
$DIMASO
 70
     1
  9
$DIMSHO
 70
     0
  9
$DIMPOST
  1

  9
$DIMAPOST
  1
mm
  9
$DIMALT
 70
     0
  9
$DIMALTD
 70
     0
  9
$DIMALTF
 40
25.4
  9
$DIMLFAC
 40
1.0
  9
$DIMTOFL
 70
     0
  9
$DIMTVP
 40
0.0
  9
$DIMTIX
 70
     0
  9
$DIMSOXD
 70
     0
  9
$DIMSAH
 70
     0
  9
$DIMBLK1
  1

  9
$DIMBLK2
  1

  9
$DIMSTYLE
  2
STANDARD
  9
$DIMCLRD
 70
     0
  9
$DIMCLRE
 70
     0
  9
$DIMCLRT
 70
     0
  9
$DIMTFAC
 40
1.0
  9
$DIMGAP
 40
0.09
  9
$DIMJUST
 70
     0
  9
$DIMSD1
 70
     0
  9
$DIMSD2
 70
     0
  9
$DIMTOLJ
 70
     1
  9
$DIMTZIN
 70
     0
  9
$DIMALTZ
 70
     0
  9
$DIMALTTZ
 70
     0
  9
$DIMUPT
 70
     0
  9
$DIMDEC
 70
     0
  9
$DIMTDEC
 70
     0
  9
$DIMALTU
 70
     2
  9
$DIMALTTD
 70
     0
  9
$DIMTXSTY
  7
STANDARD
  9
$DIMAUNIT
 70
     0
  9
$DIMADEC
 70
     0
  9
$DIMALTRND
 40
0.0
  9
$DIMAZIN
 70
     0
  9
$DIMDSEP
 70
    46
  9
$DIMATFIT
 70
     3
  9
$DIMFRAC
 70
     0
  9
$DIMLDRBLK
  1

  9
$DIMLUNIT
 70
     2
  9
$DIMLWD
 70
    -2
  9
$DIMLWE
 70
    -2
  9
$DIMTMOVE
 70
     0
  9
$LUNITS
 70
     2
  9
$LUPREC
 70
     2
  9
$SKETCHINC
 40
0.0
  9
$FILLETRAD
 40
1.0
  9
$AUNITS
 70
     0
  9
$AUPREC
 70
     2
  9
$MENU
  1
acad
  9
$ELEVATION
 40
0.0
  9
$PELEVATION
 40
0.0
  9
$THICKNESS
 40
0.0
  9
$LIMCHECK
 70
     0
  9
$CHAMFERA
 40
0.0
  9
$CHAMFERB
 40
0.0
  9
$CHAMFERC
 40
0.0
  9
$CHAMFERD
 40
0.0
  9
$SKPOLY
 70
     0
  9
$TDCREATE
 40
2450224.417987847
  9
$TDUCREATE
 40
2450224.376321180
  9
$TDUPDATE
 40
2452410.581540740
  9
$TDUUPDATE
 40
2452410.539874074
  9
$TDINDWG
 40
0.6935600694
  9
$TDUSRTIMER
 40
0.6935600694
  9
$USRTIMER
 70
     1
  9
$ANGBASE
 50
0.0
  9
$ANGDIR
 70
     0
  9
$PDMODE
 70
    34
  9
$PDSIZE
 40
0.0
  9
$PLINEWID
 40
0.0
  9
$SPLFRAME
 70
     0
  9
$SPLINETYPE
 70
     6
  9
$SPLINESEGS
 70
     8
  9
$HANDSEED
  5
5B60
  9
$SURFTAB1
 70
     6
  9
$SURFTAB2
 70
     6
  9
$SURFTYPE
 70
     6
  9
$SURFU
 70
     6
  9
$SURFV
 70
     6
  9
$UCSBASE
  2

  9
$UCSNAME
  2

  9
$UCSORG
 10
-881.3725378634428
 20
-169.8351068294423
 30
0.0
  9
$UCSXDIR
 10
1.0
 20
0.0
 30
0.0
  9
$UCSYDIR
 10
0.0
 20
1.0
 30
0.0
  9
$UCSORTHOREF
  2

  9
$UCSORTHOVIEW
 70
     0
  9
$UCSORGTOP
 10
0.0
 20
0.0
 30
0.0
  9
$UCSORGBOTTOM
 10
0.0
 20
0.0
 30
0.0
  9
$UCSORGLEFT
 10
0.0
 20
0.0
 30
0.0
  9
$UCSORGRIGHT
 10
0.0
 20
0.0
 30
0.0
  9
$UCSORGFRONT
 10
0.0
 20
0.0
 30
0.0
  9
$UCSORGBACK
 10
0.0
 20
0.0
 30
0.0
  9
$PUCSBASE
  2

  9
$PUCSNAME
  2

  9
$PUCSORG
 10
0.0
 20
0.0
 30
0.0
  9
$PUCSXDIR
 10
1.0
 20
0.0
 30
0.0
  9
$PUCSYDIR
 10
0.0
 20
1.0
 30
0.0
  9
$PUCSORTHOREF
  2

  9
$PUCSORTHOVIEW
 70
     0
  9
$PUCSORGTOP
 10
0.0
 20
0.0
 30
0.0
  9
$PUCSORGBOTTOM
 10
0.0
 20
0.0
 30
0.0
  9
$PUCSORGLEFT
 10
0.0
 20
0.0
 30
0.0
  9
$PUCSORGRIGHT
 10
0.0
 20
0.0
 30
0.0
  9
$PUCSORGFRONT
 10
0.0
 20
0.0
 30
0.0
  9
$PUCSORGBACK
 10
0.0
 20
0.0
 30
0.0
  9
$USERI1
 70
     0
  9
$USERI2
 70
     0
  9
$USERI3
 70
     0
  9
$USERI4
 70
     0
  9
$USERI5
 70
     0
  9
$USERR1
 40
0.0
  9
$USERR2
 40
0.0
  9
$USERR3
 40
0.0
  9
$USERR4
 40
0.0
  9
$USERR5
 40
0.0
  9
$WORLDVIEW
 70
     1
  9
$SHADEDGE
 70
     3
  9
$SHADEDIF
 70
    70
  9
$TILEMODE
 70
     1
  9
$MAXACTVP
 70
    16
  9
$PINSBASE
 10
0.0
 20
0.0
 30
0.0
  9
$PLIMCHECK
 70
     0
  9
$PEXTMIN
 10
1.000000000000000E+20
 20
1.000000000000000E+20
 30
1.000000000000000E+20
  9
$PEXTMAX
 10
-1.000000000000000E+20
 20
-1.000000000000000E+20
 30
-1.000000000000000E+20
  9
$PLIMMIN
 10
-0.1666668268639272
 20
-0.166666657905879
  9
$PLIMMAX
 10
11.52333297128752
 20
8.099999784484621
  9
$UNITMODE
 70
     0
  9
$VISRETAIN
 70
     0
  9
$PLINEGEN
 70
     0
  9
$PSLTSCALE
 70
     1
  9
$TREEDEPTH
 70
  3020
  9
$CMLSTYLE
  2
STANDARD
  9
$CMLJUST
 70
     0
  9
$CMLSCALE
 40
1.0
  9
$PROXYGRAPHICS
 70
     1
  9
$MEASUREMENT
 70
     0
  9
$CELWEIGHT
370
    -1
  9
$ENDCAPS
280
     0
  9
$JOINSTYLE
280
     0
  9
$LWDISPLAY
290
     0
  9
$INSUNITS
 70
     0
  9
$HYPERLINKBASE
  1

  9
$STYLESHEET
  1

  9
$XEDIT
290
     1
  9
$CEPSNTYPE
380
     0
  9
$PSTYLEMODE
290
     1
  9
$FINGERPRINTGUID
  2
{6C551284-AFF8-11D5-9ED5-00025574647A}
  9
$VERSIONGUID
  2
{78390D69-67FD-11D6-8FCF-0050DA4C4468}
  9
$EXTNAMES
290
     1
  9
$PSVPSCALE
 40
0.0
  9
$OLESTARTUP
290
     0
  0
ENDSEC
  0
SECTION
  2
CLASSES
  0
CLASS
  1
LWPOLYLINE
  2
AcDbPolyline
  3
AutoCAD 2000
 90
    32768
280
     0
281
     1
  0
CLASS
  1
DICTIONARYVAR
  2
AcDbDictionaryVar
  3
AutoCAD 2000
 90
        0
280
     0
281
     0
  0
CLASS
  1
HATCH
  2
AcDbHatch
  3
AutoCAD 2000
 90
    32768
280
     0
281
     1
  0
CLASS
  1
ACDBDICTIONARYWDFLT
  2
AcDbDictionaryWithDefault
  3
AutoCAD 2000
 90
        0
280
     0
281
     0
  0
CLASS
  1
ACDBPLACEHOLDER
  2
AcDbPlaceHolder
  3
AutoCAD 2000
 90
        0
280
     0
281
     0
  0
CLASS
  1
LAYOUT
  2
AcDbLayout
  3
AutoCAD 2000
 90
        0
280
     0
281
     0
  0
CLASS
  1
LONG_TRANSACTION
  2
AcDbLongTransaction
  3
AutoCAD 2000
 90
    32768
280
     0
281
     0
  0
CLASS
  1
LWPOLYLINE
  2
AcDbPolyline
  3
AutoCAD 2000
 90
    32768
280
     0
281
     1
  0
CLASS
  1
HATCH
  2
AcDbHatch
  3
AutoCAD 2000
 90
    32768
280
     0
281
     1
  0
CLASS
  1
XRECORD
  2
AcDbXrecord
  3
AutoCAD 2000
 90
    32768
280
     0
281
     0
  0
CLASS
  1
LONG_TRANSACTION
  2
AcDbLongTransaction
  3
AutoCAD 2000
 90
    32768
280
     0
281
     0
  0
CLASS
  1
LWPOLYLINE
  2
AcDbPolyline
  3
AutoCAD 2000
 90
    32768
280
     0
281
     1
  0
CLASS
  1
HATCH
  2
AcDbHatch
  3
AutoCAD 2000
 90
    32768
280
     0
281
     1
  0
CLASS
  1
XRECORD
  2
AcDbXrecord
  3
AutoCAD 2000
 90
    32768
280
     0
281
     0
  0
CLASS
  1
LONG_TRANSACTION
  2
AcDbLongTransaction
  3
AutoCAD 2000
 90
    32768
280
     0
281
     0
  0
CLASS
  1
LWPOLYLINE
  2
AcDbPolyline
  3
AutoCAD 2000
 90
    32768
280
     0
281
     1
  0
CLASS
  1
HATCH
  2
AcDbHatch
  3
AutoCAD 2000
 90
    32768
280
     0
281
     1
  0
CLASS
  1
XRECORD
  2
AcDbXrecord
  3
AutoCAD 2000
 90
    32768
280
     0
281
     0
  0
CLASS
  1
LONG_TRANSACTION
  2
AcDbLongTransaction
  3
AutoCAD 2000
 90
    32768
280
     0
281
     0
  0
CLASS
  1
LWPOLYLINE
  2
AcDbPolyline
  3
AutoCAD 2000
 90
    32768
280
     0
281
     1
  0
CLASS
  1
HATCH
  2
AcDbHatch
  3
AutoCAD 2000
 90
    32768
280
     0
281
     1
  0
CLASS
  1
XRECORD
  2
AcDbXrecord
  3
AutoCAD 2000
 90
    32768
280
     0
281
     0
  0
CLASS
  1
LONG_TRANSACTION
  2
AcDbLongTransaction
  3
AutoCAD 2000
 90
    32768
280
     0
281
     0
  0
CLASS
  1
LWPOLYLINE
  2
AcDbPolyline
  3
AutoCAD 2000
 90
    32768
280
     0
281
     1
  0
CLASS
  1
HATCH
  2
AcDbHatch
  3
AutoCAD 2000
 90
    32768
280
     0
281
     1
  0
CLASS
  1
XRECORD
  2
AcDbXrecord
  3
AutoCAD 2000
 90
    32768
280
     0
281
     0
  0
CLASS
  1
LONG_TRANSACTION
  2
AcDbLongTransaction
  3
AutoCAD 2000
 90
    32768
280
     0
281
     0
  0
CLASS
  1
LWPOLYLINE
  2
AcDbPolyline
  3
AutoCAD 2000
 90
    32768
280
     0
281
     1
  0
CLASS
  1
HATCH
  2
AcDbHatch
  3
AutoCAD 2000
 90
    32768
280
     0
281
     1
  0
CLASS
  1
XRECORD
  2
AcDbXrecord
  3
AutoCAD 2000
 90
    32768
280
     0
281
     0
  0
CLASS
  1
LONG_TRANSACTION
  2
AcDbLongTransaction
  3
AutoCAD 2000
 90
    32768
280
     0
281
     0
  0
CLASS
  1
LWPOLYLINE
  2
AcDbPolyline
  3
AutoCAD 2000
 90
    32768
280
     0
281
     1
  0
CLASS
  1
HATCH
  2
AcDbHatch
  3
AutoCAD 2000
 90
    32768
280
     0
281
     1
  0
CLASS
  1
XRECORD
  2
AcDbXrecord
  3
AutoCAD 2000
 90
    32768
280
     0
281
     0
  0
ENDSEC
  0
SECTION
  2
TABLES
  0
TABLE
  2
VPORT
  5
8
330
0
100
AcDbSymbolTable
 70
     2
  0
VPORT
  5
5B5F
330
8
100
AcDbSymbolTableRecord
100
AcDbViewportTableRecord
  2
*Active
 70
     0
 10
0.0
 20
0.0
 11
1.0
 21
1.0
 12
1630.234553831328
 22
1012.446737047574
 13
0.0
 23
0.0
 14
20.0
 24
20.0
 15
10.0
 25
10.0
 16
0.0
 26
0.0
 36
1.0
 17
0.0
 27
0.0
 37
0.0
 40
215.3208342380758
 41
2.06084656084656
 42
50.0
 43
0.0
 44
0.0
 50
0.0
 51
0.0
 71
     0
 72
 20000
 73
     1
 74
     3
 75
     0
 76
     0
 77
     0
 78
     1
281
     0
 65
     1
110
-881.3725378634428
120
-169.8351068294423
130
0.0
111
1.0
121
0.0
131
0.0
112
0.0
122
1.0
132
0.0
 79
     0
146
0.0
  0
ENDTAB
  0
TABLE
  2
LTYPE
  5
5
330
0
100
AcDbSymbolTable
 70
     3
  0
LTYPE
  5
13
330
5
100
AcDbSymbolTableRecord
100
AcDbLinetypeTableRecord
  2
BYBLOCK
 70
     0
  3

 72
    65
 73
     0
 40
0.0
  0
LTYPE
  5
14
330
5
100
AcDbSymbolTableRecord
100
AcDbLinetypeTableRecord
  2
BYLAYER
 70
     0
  3

 72
    65
 73
     0
 40
0.0
  0
LTYPE
  5
15
330
5
100
AcDbSymbolTableRecord
100
AcDbLinetypeTableRecord
  2
CONTINUOUS
 70
     0
  3
Solid line
 72
    65
 73
     0
 40
0.0
  0
LTYPE
  5
2C
330
5
100
AcDbSymbolTableRecord
100
AcDbLinetypeTableRecord
  2
DASHED
 70
     0
  3
__ __ __ __ __ __ __ __ __ __ __ __ __ __ __
 72
    65
 73
     2
 40
0.75
 49
0.5
 74
     0
 49
-0.25
 74
     0
  0
LTYPE
  5
4BB8
330
5
100
AcDbSymbolTableRecord
100
AcDbLinetypeTableRecord
  2
HIDDEN
 70
     0
  3
_ _ _ _ _ _ _ _ _ _ _ _ _ _ _ _ _ _ _ _ _ _ _
 72
    65
 73
     2
 40
0.375
 49
0.25
 74
     0
 49
-0.125
 74
     0
  0
ENDTAB
  0
TABLE
  2
LAYER
  5
2
330
0
100
AcDbSymbolTable
 70
     6
  0
LAYER
  5
F
330
2
100
AcDbSymbolTableRecord
100
AcDbLayerTableRecord
  2
0
 70
     0
 62
    30
  6
CONTINUOUS
370
    -3
390
37B6
  0
LAYER
  5
30
330
2
100
AcDbSymbolTableRecord
100
AcDbLayerTableRecord
  2
1
 70
     0
 62
     7
  6
CONTINUOUS
370
    -3
390
37B6
  0
LAYER
  5
31
330
2
100
AcDbSymbolTableRecord
100
AcDbLayerTableRecord
  2
DEFPOINTS
 70
     0
 62
     6
  6
CONTINUOUS
290
     0
370
    -3
390
37B6
  0
LAYER
  5
F62
330
2
100
AcDbSymbolTableRecord
100
AcDbLayerTableRecord
  2
DIM
 70
     0
 62
     3
  6
CONTINUOUS
370
    -3
390
37B6
  0
LAYER
  5
4F6B
330
2
100
AcDbSymbolTableRecord
100
AcDbLayerTableRecord
  2
DRAW
 70
     0
 62
     4
  6
CONTINUOUS
370
    -3
390
37B6
  0
LAYER
  5
4F6C
330
2
100
AcDbSymbolTableRecord
100
AcDbLayerTableRecord
  2
HATCH
 70
     0
 62
     1
  6
CONTINUOUS
370
    -3
390
37B6
  0
ENDTAB
  0
TABLE
  2
STYLE
  5
3
330
0
100
AcDbSymbolTable
 70
     4
  0
STYLE
  5
10
330
3
100
AcDbSymbolTableRecord
100
AcDbTextStyleTableRecord
  2
STANDARD
 70
     0
 40
0.0
 41
1.0
 50
0.0
 71
     0
 42
19.71412580829619
  3
techl___.ttf
  4

1001
ACAD
1000
TechnicLite
1071
      514
  0
STYLE
  5
2B
330
3
100
AcDbSymbolTableRecord
100
AcDbTextStyleTableRecord
  2
ROMANC
 70
     0
 40
4.009999999999998
 41
1.0
 50
0.0
 71
     0
 42
4.009999999999998
  3
romanc
  4

  0
STYLE
  5
4F6D
330
3
100
AcDbSymbolTableRecord
100
AcDbTextStyleTableRecord
  2
ROMANS
 70
     0
 40
0.0
 41
1.0
 50
0.0
 71
     0
 42
45.0
  3
ROMANS.shx
  4

  0
STYLE
  5
588E
330
3
100
AcDbSymbolTableRecord
100
AcDbTextStyleTableRecord
  2
STYLE1
 70
     0
 40
0.0
 41
1.0
 50
0.0
 71
     0
 42
2.5
  3
romans.shx
  4

  0
ENDTAB
  0
TABLE
  2
VIEW
  5
6
330
0
100
AcDbSymbolTable
 70
     1
  0
VIEW
  5
2B15
330
6
100
AcDbSymbolTableRecord
100
AcDbViewTableRecord
  2
P1
 70
     1
 40
195.7116207376954
 10
156.3078220645051
 20
105.1927068532014
 41
281.044737853693
 11
0.0
 21
0.0
 31
1.0
 12
0.0
 22
0.0
 32
0.0
 42
50.0
 43
0.0
 44
0.0
 50
0.0
 71
     0
281
     0
 72
     0
  0
ENDTAB
  0
TABLE
  2
UCS
  5
7
330
0
100
AcDbSymbolTable
 70
     0
  0
ENDTAB
  0
TABLE
  2
APPID
  5
9
330
0
100
AcDbSymbolTable
 70
     3
  0
APPID
  5
11
330
9
100
AcDbSymbolTableRecord
100
AcDbRegAppTableRecord
  2
ACAD
 70
     0
  0
APPID
  5
21B6
330
9
100
AcDbSymbolTableRecord
100
AcDbRegAppTableRecord
  2
CONTENTTABDATA
 70
     0
  0
APPID
  5
21B7
330
9
100
AcDbSymbolTableRecord
100
AcDbRegAppTableRecord
  2
CONTENTCURRENTTAB
 70
     0
  0
ENDTAB
  0
TABLE
  2
DIMSTYLE
  5
A
330
0
100
AcDbSymbolTable
 70
     3
100
AcDbDimStyleTable
 71
     1
340
AD6
  0
DIMSTYLE
105
AD6
102
{ACAD_REACTORS
330
58E7
330
58F4
330
58C8
330
5934
330
595D
330
5964
330
5965
330
5955
330
5A55
330
5A5C
330
5A5D
330
5A4E
102
}
330
A
100
AcDbSymbolTableRecord
100
AcDbDimStyleTableRecord
  2
STANDARD
 70
     0
340
10
  0
DIMSTYLE
105
4F6E
330
A
100
AcDbSymbolTableRecord
100
AcDbDimStyleTableRecord
  2
STANDARD_WS5
 70
     0
 40
35.0
 73
     0
 74
     0
 77
     1
141
-0.09
271
     0
340
4F6D
  0
DIMSTYLE
105
588F
330
A
100
AcDbSymbolTableRecord
100
AcDbDimStyleTableRecord
  2
STANDARD_WS
 70
     0
 40
14.0
 41
2.5
 42
0.625
 43
3.75
 44
1.25
 73
     0
 74
     0
 77
     1
 78
     8
140
2.5
141
-1.0
143
0.0394
147
0.625
171
     4
271
     0
273
     8
274
     4
340
588E
  0
ENDTAB
  0
TABLE
  2
BLOCK_RECORD
  5
1
330
0
100
AcDbSymbolTable
 70
    39
  0
BLOCK_RECORD
  5
19
102
{ACAD_XDICTIONARY
360
391B
102
}
330
1
100
AcDbSymbolTableRecord
100
AcDbBlockTableRecord
  2
*MODEL_SPACE
340
37B9
  0
BLOCK_RECORD
  5
3E47
330
1
100
AcDbSymbolTableRecord
100
AcDbBlockTableRecord
  2
*Paper_Space
340
3E48
  0
BLOCK_RECORD
  5
3E5F
330
1
100
AcDbSymbolTableRecord
100
AcDbBlockTableRecord
  2
*X0
340
0
102
{BLKREFS
331
3FB6
331
3FD6
102
}
  0
BLOCK_RECORD
  5
3F90
330
1
100
AcDbSymbolTableRecord
100
AcDbBlockTableRecord
  2
foul air trap
340
0
310
28000000200000002000000001000800000000000004000000000000000000000000000000000000000000004000000080000000FF000000002000004020000080200000FF200000004000004040000080400000FF400000006000004060000080600000FF600000008000004080000080800000FF80000000A0000040A000
310
0080A00000FFA0000000C0000040C0000080C00000FFC0000000FF000040FF000080FF0000FFFF0000000020004000200080002000FF002000002020004020200080202000FF202000004020004040200080402000FF402000006020004060200080602000FF602000008020004080200080802000FF80200000A0200040A0
310
200080A02000FFA0200000C0200040C0200080C02000FFC0200000FF200040FF200080FF2000FFFF2000000040004000400080004000FF004000002040004020400080204000FF204000004040004040400080404000FF404000006040004060400080604000FF604000008040004080400080804000FF80400000A0400040
310
A0400080A04000FFA0400000C0400040C0400080C04000FFC0400000FF400040FF400080FF4000FFFF4000000060004000600080006000FF006000002060004020600080206000FF206000004060004040600080406000FF406000006060004060600080606000FF606000008060004080600080806000FF80600000A06000
310
40A0600080A06000FFA0600000C0600040C0600080C06000FFC0600000FF600040FF600080FF6000FFFF6000000080004000800080008000FF008000002080004020800080208000FF208000004080004040800080408000FF408000006080004060800080608000FF608000008080004080800080808000FF80800000A080
310
0040A0800080A08000FFA0800000C0800040C0800080C08000FFC0800000FF800040FF800080FF8000FFFF80000000A0004000A0008000A000FF00A0000020A0004020A0008020A000FF20A0000040A0004040A0008040A000FF40A0000060A0004060A0008060A000FF60A0000080A0004080A0008080A000FF80A00000A0
310
A00040A0A00080A0A000FFA0A00000C0A00040C0A00080C0A000FFC0A00000FFA00040FFA00080FFA000FFFFA0000000C0004000C0008000C000FF00C0000020C0004020C0008020C000FF20C0000040C0004040C0008040C000FF40C0000060C0004060C0008060C000FF60C0000080C0004080C0008080C000FF80C00000
310
A0C00040A0C00080A0C000FFA0C00000C0C00040C0C00080C0C000FFC0C00000FFC00040FFC00080FFC000FFFFC0000000FF004000FF008000FF00FF00FF000020FF004020FF008020FF00FF20FF000040FF004040FF008040FF00FF40FF000060FF004060FF008060FF00FF60FF000080FF004080FF008080FF00FF80FF00
310
00A0FF0040A0FF0080A0FF00FFA0FF0000C0FF0040C0FF0080C0FF00FFC0FF0000FFFF0040FFFF0080FFFF00FFFFFF00FFFFFFFFFFFFFFFFFFFFFFFFFFFFFFFFFFFFFFFFFFFFFFFFFFFFFFFFFFFFFFFFFFFFFFFFFFFFFFFFFFFFFFFFFFFFFFFFFFFFFFFFFFFFFFFFFFFFFFFFFFFFFFFFFFFFFFFFFFFFFFFF0000FFFFFFFFFF
310
FFFFFFFFFFFF0000FFFFFFFFFFFFFFFFFFFFFFFFFFFFFFFF00FFFF0000FFFFFFFFFFFFFF0000FFFF00FFFFFFFFFFFFFFFFFFFFFFFFFFFF00FFFFFFFFFF00000000000000FFFFFFFFFF00FFFFFFFFFFFFFFFFFFFFFFFF00FFFFFFFFFFFFFFFFFFFFFFFFFFFFFFFFFFFF0000FFFFFFFFFFFFFFFFFFFF00FFFFFFFFFFFFFFFFFF
310
FFFFFFFFFFFFFFFFFFFFFF000000FFFFFFFFFFFFFFFF00FFFFFFFF00000000000000000000000000FFFFFFFF0000FFFFFFFFFFFFFFFF00FFFFFFFF0000FFFFFFFFFFFFFFFFFFFF00FFFFFFFF0000FFFFFFFFFFFFFFFF00FFFFFFFF0000FFFFFFFFFFFFFFFFFFFF00FFFFFFFF0000FFFFFFFFFFFFFFFF00FFFFFFFF0000FFFF
310
FFFFFFFFFFFFFFFF00FFFFFFFF0000FFFFFFFFFFFFFFFF00FFFFFFFF0000FFFFFFFFFFFFFFFFFFFF00FFFFFFFF0000FFFFFFFFFFFFFFFF00FFFFFFFF0000FFFFFFFFFFFFFFFFFFFF00FFFFFFFF0000FFFFFFFFFFFFFFFF00FFFFFFFF0000FFFFFFFFFFFFFFFFFFFF00FFFFFFFF0000FFFFFFFFFFFFFFFF00FFFFFFFF0000FF
310
FFFFFFFFFFFFFFFFFF00FFFFFFFF0000FFFFFFFFFFFFFFFF00FFFFFFFF0000FFFFFFFFFFFFFFFFFFFF00FFFFFFFF0000FFFFFFFFFFFFFFFF00FFFFFFFF0000FFFFFFFFFFFFFFFFFFFF00FFFFFFFF0000FFFFFFFFFFFFFFFF00FFFFFFFF0000FFFFFFFFFFFFFFFFFFFF00FFFFFFFF0000FFFFFFFFFFFFFF0000FFFFFFFF0000
310
FFFFFFFFFFFFFFFFFFFF00FFFFFFFF000000FFFFFFFFFF000000000000000000FFFFFFFFFFFFFFFFFFFF0000000000000000FFFFFFFFFFFFFFFFFFFFFFFF0000FFFFFFFFFFFFFFFFFFFF00FFFFFFFFFFFFFFFFFFFFFFFFFFFFFFFFFFFFFF0000FFFFFFFFFFFFFFFFFFFF00FFFFFFFFFFFFFFFFFFFFFFFFFFFFFFFFFFFFFF00
310
00FFFFFFFFFFFFFFFFFFFF00FFFFFFFFFFFFFFFFFFFFFFFFFFFFFFFFFFFFFF0000000000000000000000000000FFFFFFFFFFFFFFFFFFFFFFFFFFFFFFFF0000FFFFFFFFFFFFFFFFFFFFFFFFFF000000FFFFFFFFFFFFFFFFFFFFFFFF0000FFFFFFFFFFFFFFFFFFFFFFFFFFFFFFFFFFFF0000FFFFFFFFFFFFFFFFFFFF00FFFFFF
310
FFFFFFFFFFFFFFFFFFFFFFFFFFFFFFFFFFFF00FFFFFFFFFFFFFFFF00FFFFFFFFFFFFFFFFFFFFFFFFFFFFFFFFFFFFFFFFFFFF00FFFFFFFFFFFFFF0000000000000000000000000000000000000000000000000000FFFFFFFF000000000000000000000000000000000000000000000000000000000000FFFFFFFFFFFFFFFFFF
310
FFFFFFFFFFFFFFFFFFFFFFFFFFFFFFFFFFFFFFFFFFFFFFFFFFFFFFFFFFFFFFFFFFFFFFFFFFFFFFFFFFFFFFFFFFFFFFFFFFFFFFFFFFFFFFFF
102
{BLKREFS
331
4723
102
}
  0
BLOCK_RECORD
  5
4172
330
1
100
AcDbSymbolTableRecord
100
AcDbBlockTableRecord
  2
WELD
340
0
102
{BLKREFS
331
4594
331
4692
331
4538
331
4545
102
}
  0
BLOCK_RECORD
  5
4177
330
1
100
AcDbSymbolTableRecord
100
AcDbBlockTableRecord
  2
*X3
340
0
102
{BLKREFS
331
4173
102
}
  0
BLOCK_RECORD
  5
476F
330
1
100
AcDbSymbolTableRecord
100
AcDbBlockTableRecord
  2
*D4
340
0
  0
BLOCK_RECORD
  5
47C9
330
1
100
AcDbSymbolTableRecord
100
AcDbBlockTableRecord
  2
*X5
340
0
102
{BLKREFS
331
4B30
331
4B4E
102
}
  0
BLOCK_RECORD
  5
4B14
330
1
100
AcDbSymbolTableRecord
100
AcDbBlockTableRecord
  2
BODY
340
0
310
28000000200000002000000001000800000000000004000000000000000000000000000000000000000000004000000080000000FF000000002000004020000080200000FF200000004000004040000080400000FF400000006000004060000080600000FF600000008000004080000080800000FF80000000A0000040A000
310
0080A00000FFA0000000C0000040C0000080C00000FFC0000000FF000040FF000080FF0000FFFF0000000020004000200080002000FF002000002020004020200080202000FF202000004020004040200080402000FF402000006020004060200080602000FF602000008020004080200080802000FF80200000A0200040A0
310
200080A02000FFA0200000C0200040C0200080C02000FFC0200000FF200040FF200080FF2000FFFF2000000040004000400080004000FF004000002040004020400080204000FF204000004040004040400080404000FF404000006040004060400080604000FF604000008040004080400080804000FF80400000A0400040
310
A0400080A04000FFA0400000C0400040C0400080C04000FFC0400000FF400040FF400080FF4000FFFF4000000060004000600080006000FF006000002060004020600080206000FF206000004060004040600080406000FF406000006060004060600080606000FF606000008060004080600080806000FF80600000A06000
310
40A0600080A06000FFA0600000C0600040C0600080C06000FFC0600000FF600040FF600080FF6000FFFF6000000080004000800080008000FF008000002080004020800080208000FF208000004080004040800080408000FF408000006080004060800080608000FF608000008080004080800080808000FF80800000A080
310
0040A0800080A08000FFA0800000C0800040C0800080C08000FFC0800000FF800040FF800080FF8000FFFF80000000A0004000A0008000A000FF00A0000020A0004020A0008020A000FF20A0000040A0004040A0008040A000FF40A0000060A0004060A0008060A000FF60A0000080A0004080A0008080A000FF80A00000A0
310
A00040A0A00080A0A000FFA0A00000C0A00040C0A00080C0A000FFC0A00000FFA00040FFA00080FFA000FFFFA0000000C0004000C0008000C000FF00C0000020C0004020C0008020C000FF20C0000040C0004040C0008040C000FF40C0000060C0004060C0008060C000FF60C0000080C0004080C0008080C000FF80C00000
310
A0C00040A0C00080A0C000FFA0C00000C0C00040C0C00080C0C000FFC0C00000FFC00040FFC00080FFC000FFFFC0000000FF004000FF008000FF00FF00FF000020FF004020FF008020FF00FF20FF000040FF004040FF008040FF00FF40FF000060FF004060FF008060FF00FF60FF000080FF004080FF008080FF00FF80FF00
310
00A0FF0040A0FF0080A0FF00FFA0FF0000C0FF0040C0FF0080C0FF00FFC0FF0000FFFF0040FFFF0080FFFF00FFFFFF00FFFFFFFFFFFFFFFFFFFFFFFFFFFFFFFFFFFFFFFFFFFFFFFFFFFFFFFFFFFFFFFFFFFFFFFFFFFFFF000000000000000000000000000000000000FFFFFFFFFFFFFFFFFFFFFFFFFFFF00FFFFFFFFFFFFFF
310
FFFFFFFFFFFFFFFFFF00FFFFFFFFFFFFFFFFFFFFFFFFFFFF00FFFFFFFFFFFFFFFFFFFFFFFFFFFFFFFF00FFFFFFFFFFFFFFFFFFFFFFFFFFFF00FFFFFFFFFFFFFFFFFFFFFFFFFFFFFFFF00FFFFFFFFFFFFFFFFFFFFFFFFFFFF00FFFFFFFFFFFFFFFFFFFFFFFFFFFFFFFF00FFFFFFFFFFFFFFFFFFFFFFFFFFFF00FFFFFFFFFFFF
310
FFFFFFFFFFFFFFFFFFFF00FFFFFFFFFFFFFFFFFFFFFFFFFFFF00FFFFFFFFFFFFFFFFFFFFFFFFFFFFFFFF00FFFFFFFFFFFFFFFFFFFFFFFFFFFF00FFFFFFFFFFFFFFFFFFFFFFFFFFFFFFFF00FFFFFFFFFFFFFFFFFFFFFFFFFFFF00FFFFFFFFFFFFFFFFFFFFFFFFFFFFFFFF00FFFFFFFFFFFFFFFFFFFFFFFFFFFF00FFFFFFFFFF
310
FFFFFFFFFFFFFFFFFFFFFF00FFFFFFFFFFFFFFFFFFFFFFFFFFFF00FFFFFFFFFFFFFFFFFFFFFFFFFFFFFFFF00FFFFFFFFFFFFFFFFFFFFFFFFFFFF00FFFFFFFFFFFFFFFFFFFFFFFFFFFFFFFF00FFFFFFFFFFFFFFFFFFFFFFFFFFFF00FFFFFFFFFFFFFFFFFFFFFFFFFFFFFFFF00FFFFFFFFFFFFFFFFFFFFFFFFFF0000FFFFFFFF
310
FFFFFFFFFFFFFFFFFFFFFFFF0000FFFFFFFFFFFFFFFFFFFF0000FFFFFFFFFFFFFFFFFFFFFFFFFFFFFFFFFFFFFFFF0000FFFFFFFFFFFFFFFF00FFFFFFFFFFFFFFFFFFFFFFFFFFFFFFFFFFFFFFFFFFFF00FFFFFFFFFFFFFFFF00FFFFFFFFFFFFFFFFFFFFFFFFFFFFFFFFFFFFFFFFFFFF00FFFFFFFFFFFFFFFF00FFFFFFFFFFFF
310
FFFFFFFFFFFFFFFFFFFFFFFFFFFFFFFF00FFFFFFFFFFFFFFFF00FFFFFFFFFFFFFFFFFFFFFFFFFFFFFFFFFFFFFFFFFFFF00FFFFFFFFFFFFFFFF00FFFFFFFFFFFFFFFFFFFFFFFFFFFFFFFFFFFFFFFFFFFF00FFFFFFFFFFFFFFFF00FFFFFFFFFFFFFFFFFFFFFFFFFFFFFFFFFFFFFFFFFFFF00FFFFFFFFFFFFFFFF00FFFFFFFFFF
310
FFFFFFFFFFFFFFFFFFFFFFFFFFFFFFFFFF00FFFFFFFFFFFFFFFF00FFFFFFFFFFFFFFFFFFFFFFFFFFFFFFFFFFFFFFFFFFFF00FFFFFFFFFFFFFFFF00FFFFFFFFFFFFFFFFFFFFFFFFFFFFFFFFFFFFFFFFFFFF00FFFFFFFFFFFFFFFF00FFFFFFFFFFFFFFFFFFFFFFFFFFFFFFFFFFFFFFFFFFFF00FFFFFFFFFFFFFFFF00FFFFFFFF
310
FFFFFFFFFFFFFFFFFFFFFFFFFFFFFFFFFFFF00FFFFFFFFFFFFFFFF00000000FFFFFFFFFFFFFFFFFFFFFFFFFFFFFFFF00000000FFFFFFFFFFFFFFFF00000000FFFFFFFFFFFFFFFFFFFFFFFFFFFFFFFF00000000FFFFFFFFFFFFFFFF00000000FFFFFFFFFFFFFFFFFFFFFFFFFFFFFFFF00000000FFFFFFFFFFFFFFFF00000000
310
FFFFFFFFFFFFFFFFFFFFFFFFFFFFFFFF00000000FFFFFFFFFFFFFFFFFFFFFFFFFFFFFFFFFFFFFFFFFFFFFFFFFFFFFFFFFFFFFFFFFFFFFFFF
102
{BLKREFS
331
4B68
102
}
  0
BLOCK_RECORD
  5
4B75
330
1
100
AcDbSymbolTableRecord
100
AcDbBlockTableRecord
  2
*D7
340
0
  0
BLOCK_RECORD
  5
4B99
330
1
100
AcDbSymbolTableRecord
100
AcDbBlockTableRecord
  2
*D8
340
0
  0
BLOCK_RECORD
  5
4C64
330
1
100
AcDbSymbolTableRecord
100
AcDbBlockTableRecord
  2
*D9
340
0
  0
BLOCK_RECORD
  5
4C93
330
1
100
AcDbSymbolTableRecord
100
AcDbBlockTableRecord
  2
*X10
340
0
102
{BLKREFS
331
4D4E
331
4DBB
102
}
  0
BLOCK_RECORD
  5
4CA0
330
1
100
AcDbSymbolTableRecord
100
AcDbBlockTableRecord
  2
*X11
340
0
102
{BLKREFS
331
4D5B
331
4D62
331
4DAB
331
4DB9
102
}
  0
BLOCK_RECORD
  5
4E67
330
1
100
AcDbSymbolTableRecord
100
AcDbBlockTableRecord
  2
*X12
340
0
102
{BLKREFS
331
4E9B
331
4EC6
331
4EEC
331
4F17
102
}
  0
BLOCK_RECORD
  5
4E81
330
1
100
AcDbSymbolTableRecord
100
AcDbBlockTableRecord
  2
*D13
340
0
  0
BLOCK_RECORD
  5
4F2E
330
1
100
AcDbSymbolTableRecord
100
AcDbBlockTableRecord
  2
*D14
340
0
  0
BLOCK_RECORD
  5
5752
330
1
100
AcDbSymbolTableRecord
100
AcDbBlockTableRecord
  2
*D15
340
0
  0
BLOCK_RECORD
  5
5768
330
1
100
AcDbSymbolTableRecord
100
AcDbBlockTableRecord
  2
*D16
340
0
  0
BLOCK_RECORD
  5
5780
330
1
100
AcDbSymbolTableRecord
100
AcDbBlockTableRecord
  2
*D17
340
0
  0
BLOCK_RECORD
  5
57C6
330
1
100
AcDbSymbolTableRecord
100
AcDbBlockTableRecord
  2
*D18
340
0
  0
BLOCK_RECORD
  5
57EE
330
1
100
AcDbSymbolTableRecord
100
AcDbBlockTableRecord
  2
*D19
340
0
  0
BLOCK_RECORD
  5
57FB
330
1
100
AcDbSymbolTableRecord
100
AcDbBlockTableRecord
  2
*D20
340
0
  0
BLOCK_RECORD
  5
5847
330
1
100
AcDbSymbolTableRecord
100
AcDbBlockTableRecord
  2
*D21
340
0
  0
BLOCK_RECORD
  5
5854
330
1
100
AcDbSymbolTableRecord
100
AcDbBlockTableRecord
  2
*D22
340
0
  0
BLOCK_RECORD
  5
5861
330
1
100
AcDbSymbolTableRecord
100
AcDbBlockTableRecord
  2
*D23
340
0
  0
BLOCK_RECORD
  5
58C9
330
1
100
AcDbSymbolTableRecord
100
AcDbBlockTableRecord
  2
*D25
340
0
  0
BLOCK_RECORD
  5
58E8
330
1
100
AcDbSymbolTableRecord
100
AcDbBlockTableRecord
  2
*D26
340
0
  0
BLOCK_RECORD
  5
58F5
330
1
100
AcDbSymbolTableRecord
100
AcDbBlockTableRecord
  2
*D27
340
0
  0
BLOCK_RECORD
  5
5902
330
1
100
AcDbSymbolTableRecord
100
AcDbBlockTableRecord
  2
*D28
340
0
  0
BLOCK_RECORD
  5
5935
330
1
100
AcDbSymbolTableRecord
100
AcDbBlockTableRecord
  2
*D29
340
0
  0
BLOCK_RECORD
  5
5974
330
1
100
AcDbSymbolTableRecord
100
AcDbBlockTableRecord
  2
*D30
340
0
  0
BLOCK_RECORD
  5
5981
330
1
100
AcDbSymbolTableRecord
100
AcDbBlockTableRecord
  2
*D31
340
0
  0
BLOCK_RECORD
  5
598D
330
1
100
AcDbSymbolTableRecord
100
AcDbBlockTableRecord
  2
*D32
340
0
  0
BLOCK_RECORD
  5
5999
330
1
100
AcDbSymbolTableRecord
100
AcDbBlockTableRecord
  2
*D33
340
0
  0
BLOCK_RECORD
  5
5A6C
330
1
100
AcDbSymbolTableRecord
100
AcDbBlockTableRecord
  2
*D35
340
0
  0
BLOCK_RECORD
  5
5A79
330
1
100
AcDbSymbolTableRecord
100
AcDbBlockTableRecord
  2
*D36
340
0
  0
BLOCK_RECORD
  5
5A85
330
1
100
AcDbSymbolTableRecord
100
AcDbBlockTableRecord
  2
*D37
340
0
  0
BLOCK_RECORD
  5
5A91
330
1
100
AcDbSymbolTableRecord
100
AcDbBlockTableRecord
  2
*D38
340
0
  0
ENDTAB
  0
ENDSEC
  0
SECTION
  2
BLOCKS
  0
BLOCK
  5
35
330
19
100
AcDbEntity
  8
0
100
AcDbBlockBegin
  2
*MODEL_SPACE
 70
     0
 10
0.0
 20
0.0
 30
0.0
  3
*MODEL_SPACE
  1

  0
ENDBLK
  5
36
330
19
100
AcDbEntity
  8
0
100
AcDbBlockEnd
  0
BLOCK
  5
3E49
330
3E47
100
AcDbEntity
 67
     1
  8
0
100
AcDbBlockBegin
  2
*Paper_Space
 70
     0
 10
0.0
 20
0.0
 30
0.0
  3
*Paper_Space
  1

  0
ENDBLK
  5
3E4A
330
3E47
100
AcDbEntity
 67
     1
  8
0
100
AcDbBlockEnd
  0
BLOCK
  5
3EC6
330
3E5F
100
AcDbEntity
  8
0
100
AcDbBlockBegin
  2
*X0
 70
     1
 10
0.0
 20
0.0
 30
0.0
  3
*X0
  1

  0
LINE
  5
3E60
330
3E5F
100
AcDbEntity
  8
0
 62
     0
100
AcDbLine
 10
-405.75
 20
360.7368135792118
 30
0.0
 11
-405.75
 21
361.8370122704502
 31
0.0
  0
LINE
  5
3E61
330
3E5F
100
AcDbEntity
  8
0
 62
     0
100
AcDbLine
 10
-406.0
 20
360.933384413112
 30
0.0
 11
-406.0
 21
361.8370122704502
 31
0.0
  0
LINE
  5
3E62
330
3E5F
100
AcDbEntity
  8
0
 62
     0
100
AcDbLine
 10
-406.25
 20
361.1395398149058
 30
0.0
 11
-406.25
 21
361.8370122704502
 31
0.0
  0
LINE
  5
3E63
330
3E5F
100
AcDbEntity
  8
0
 62
     0
100
AcDbLine
 10
-406.5
 20
361.2469848382478
 30
0.0
 11
-406.5
 21
361.8370122704502
 31
0.0
  0
LINE
  5
3E64
330
3E5F
100
AcDbEntity
  8
0
 62
     0
100
AcDbLine
 10
-406.7499999999998
 20
361.389534041392
 30
0.0
 11
-406.7499999999998
 21
361.8370122704502
 31
0.0
  0
LINE
  5
3E65
330
3E5F
100
AcDbEntity
  8
0
 62
     0
100
AcDbLine
 10
-407.0
 20
361.6300486768183
 30
0.0
 11
-407.0
 21
361.8370122704502
 31
0.0
  0
LINE
  5
3E66
330
3E5F
100
AcDbEntity
  8
0
 62
     0
100
AcDbLine
 10
-407.2499999999998
 20
361.7419786282082
 30
0.0
 11
-407.2499999999998
 21
361.8370122704502
 31
0.0
  0
LINE
  5
3E67
330
3E5F
100
AcDbEntity
  8
0
 62
     0
100
AcDbLine
 10
-407.5
 20
361.8321716164932
 30
0.0
 11
-407.5
 21
361.8370122704502
 31
0.0
  0
LINE
  5
3E68
330
3E5F
100
AcDbEntity
  8
0
 62
     0
100
AcDbLine
 10
-405.4999999999997
 20
360.5564276026421
 30
0.0
 11
-405.4999999999997
 21
361.8370122704502
 31
0.0
  0
LINE
  5
3E69
330
3E5F
100
AcDbEntity
  8
0
 62
     0
100
AcDbLine
 10
-405.25
 20
360.274289276432
 30
0.0
 11
-405.25
 21
361.8370122704502
 31
0.0
  0
LINE
  5
3E6A
330
3E5F
100
AcDbEntity
  8
0
 62
     0
100
AcDbLine
 10
-404.9999999999998
 20
359.9991459799346
 30
0.0
 11
-405.0
 21
361.8370122704502
 31
0.0
  0
LINE
  5
3E6B
330
3E5F
100
AcDbEntity
  8
0
 62
     0
100
AcDbLine
 10
-404.7499999999998
 20
359.6570949230565
 30
0.0
 11
-404.75
 21
361.8370122704502
 31
0.0
  0
LINE
  5
3E6C
330
3E5F
100
AcDbEntity
  8
0
 62
     0
100
AcDbLine
 10
-404.4999999999998
 20
358.6790058066241
 30
0.0
 11
-404.4999999999998
 21
361.8370122704502
 31
0.0
  0
LINE
  5
3E6D
330
3E5F
100
AcDbEntity
  8
0
 62
     0
100
AcDbLine
 10
-404.25
 20
358.3305332124405
 30
0.0
 11
-404.25
 21
361.8370122704502
 31
0.0
  0
LINE
  5
3E6E
330
3E5F
100
AcDbEntity
  8
0
 62
     0
100
AcDbLine
 10
-404.0
 20
358.1759166610952
 30
0.0
 11
-404.0
 21
361.8370122704502
 31
0.0
  0
LINE
  5
3E6F
330
3E5F
100
AcDbEntity
  8
0
 62
     0
100
AcDbLine
 10
-405.8749999999998
 20
360.8303067122148
 30
0.0
 11
-405.8749999999998
 21
360.875
 31
0.0
  0
LINE
  5
3E70
330
3E5F
100
AcDbEntity
  8
0
 62
     0
100
AcDbLine
 10
-405.8749999999998
 20
361.0
 30
0.0
 11
-405.8749999999998
 21
361.125
 31
0.0
  0
LINE
  5
3E71
330
3E5F
100
AcDbEntity
  8
0
 62
     0
100
AcDbLine
 10
-405.8749999999998
 20
361.25
 30
0.0
 11
-405.8749999999998
 21
361.375
 31
0.0
  0
LINE
  5
3E72
330
3E5F
100
AcDbEntity
  8
0
 62
     0
100
AcDbLine
 10
-405.8749999999998
 20
361.5
 30
0.0
 11
-405.8749999999998
 21
361.6249999999998
 31
0.0
  0
LINE
  5
3E73
330
3E5F
100
AcDbEntity
  8
0
 62
     0
100
AcDbLine
 10
-405.8749999999998
 20
361.75
 30
0.0
 11
-405.8749999999998
 21
361.8370122704502
 31
0.0
  0
LINE
  5
3E74
330
3E5F
100
AcDbEntity
  8
0
 62
     0
100
AcDbLine
 10
-406.125
 20
361.036462114009
 30
0.0
 11
-406.125
 21
361.125
 31
0.0
  0
LINE
  5
3E75
330
3E5F
100
AcDbEntity
  8
0
 62
     0
100
AcDbLine
 10
-406.125
 20
361.25
 30
0.0
 11
-406.125
 21
361.375
 31
0.0
  0
LINE
  5
3E76
330
3E5F
100
AcDbEntity
  8
0
 62
     0
100
AcDbLine
 10
-406.125
 20
361.5
 30
0.0
 11
-406.125
 21
361.6249999999998
 31
0.0
  0
LINE
  5
3E77
330
3E5F
100
AcDbEntity
  8
0
 62
     0
100
AcDbLine
 10
-406.125
 20
361.75
 30
0.0
 11
-406.125
 21
361.8370122704502
 31
0.0
  0
LINE
  5
3E78
330
3E5F
100
AcDbEntity
  8
0
 62
     0
100
AcDbLine
 10
-406.3749999999997
 20
361.25
 30
0.0
 11
-406.3749999999997
 21
361.375
 31
0.0
  0
LINE
  5
3E79
330
3E5F
100
AcDbEntity
  8
0
 62
     0
100
AcDbLine
 10
-406.3749999999997
 20
361.5
 30
0.0
 11
-406.3749999999997
 21
361.6249999999998
 31
0.0
  0
LINE
  5
3E7A
330
3E5F
100
AcDbEntity
  8
0
 62
     0
100
AcDbLine
 10
-406.3749999999997
 20
361.75
 30
0.0
 11
-406.3749999999997
 21
361.8370122704502
 31
0.0
  0
LINE
  5
3E7B
330
3E5F
100
AcDbEntity
  8
0
 62
     0
100
AcDbLine
 10
-406.625
 20
361.2985236886962
 30
0.0
 11
-406.625
 21
361.375
 31
0.0
  0
LINE
  5
3E7C
330
3E5F
100
AcDbEntity
  8
0
 62
     0
100
AcDbLine
 10
-406.625
 20
361.5
 30
0.0
 11
-406.625
 21
361.6249999999998
 31
0.0
  0
LINE
  5
3E7D
330
3E5F
100
AcDbEntity
  8
0
 62
     0
100
AcDbLine
 10
-406.625
 20
361.75
 30
0.0
 11
-406.625
 21
361.8370122704502
 31
0.0
  0
LINE
  5
3E7E
330
3E5F
100
AcDbEntity
  8
0
 62
     0
100
AcDbLine
 10
-406.8749999999998
 20
361.5097913591051
 30
0.0
 11
-406.8749999999998
 21
361.6249999999998
 31
0.0
  0
LINE
  5
3E7F
330
3E5F
100
AcDbEntity
  8
0
 62
     0
100
AcDbLine
 10
-406.8749999999998
 20
361.75
 30
0.0
 11
-406.8749999999998
 21
361.8370122704502
 31
0.0
  0
LINE
  5
3E80
330
3E5F
100
AcDbEntity
  8
0
 62
     0
100
AcDbLine
 10
-407.125
 20
361.75
 30
0.0
 11
-407.125
 21
361.8370122704502
 31
0.0
  0
LINE
  5
3E81
330
3E5F
100
AcDbEntity
  8
0
 62
     0
100
AcDbLine
 10
-407.375
 20
361.7870751223508
 30
0.0
 11
-407.375
 21
361.8370122704502
 31
0.0
  0
LINE
  5
3E82
330
3E5F
100
AcDbEntity
  8
0
 62
     0
100
AcDbLine
 10
-405.625
 20
360.7499999999998
 30
0.0
 11
-405.625
 21
360.875
 31
0.0
  0
LINE
  5
3E83
330
3E5F
100
AcDbEntity
  8
0
 62
     0
100
AcDbLine
 10
-405.625
 20
361.0
 30
0.0
 11
-405.625
 21
361.125
 31
0.0
  0
LINE
  5
3E84
330
3E5F
100
AcDbEntity
  8
0
 62
     0
100
AcDbLine
 10
-405.625
 20
361.25
 30
0.0
 11
-405.625
 21
361.375
 31
0.0
  0
LINE
  5
3E85
330
3E5F
100
AcDbEntity
  8
0
 62
     0
100
AcDbLine
 10
-405.625
 20
361.5
 30
0.0
 11
-405.625
 21
361.6249999999998
 31
0.0
  0
LINE
  5
3E86
330
3E5F
100
AcDbEntity
  8
0
 62
     0
100
AcDbLine
 10
-405.625
 20
361.75
 30
0.0
 11
-405.625
 21
361.8370122704502
 31
0.0
  0
LINE
  5
3E87
330
3E5F
100
AcDbEntity
  8
0
 62
     0
100
AcDbLine
 10
-405.3749999999998
 20
360.4999999999998
 30
0.0
 11
-405.3749999999998
 21
360.625
 31
0.0
  0
LINE
  5
3E88
330
3E5F
100
AcDbEntity
  8
0
 62
     0
100
AcDbLine
 10
-405.3749999999998
 20
360.7499999999998
 30
0.0
 11
-405.3749999999998
 21
360.875
 31
0.0
  0
LINE
  5
3E89
330
3E5F
100
AcDbEntity
  8
0
 62
     0
100
AcDbLine
 10
-405.3749999999998
 20
361.0
 30
0.0
 11
-405.3749999999998
 21
361.125
 31
0.0
  0
LINE
  5
3E8A
330
3E5F
100
AcDbEntity
  8
0
 62
     0
100
AcDbLine
 10
-405.3749999999998
 20
361.25
 30
0.0
 11
-405.3749999999998
 21
361.375
 31
0.0
  0
LINE
  5
3E8B
330
3E5F
100
AcDbEntity
  8
0
 62
     0
100
AcDbLine
 10
-405.3749999999998
 20
361.5
 30
0.0
 11
-405.3749999999998
 21
361.6249999999998
 31
0.0
  0
LINE
  5
3E8C
330
3E5F
100
AcDbEntity
  8
0
 62
     0
100
AcDbLine
 10
-405.3749999999998
 20
361.75
 30
0.0
 11
-405.3749999999998
 21
361.8370122704502
 31
0.0
  0
LINE
  5
3E8D
330
3E5F
100
AcDbEntity
  8
0
 62
     0
100
AcDbLine
 10
-405.1249999999998
 20
360.25
 30
0.0
 11
-405.1249999999998
 21
360.375
 31
0.0
  0
LINE
  5
3E8E
330
3E5F
100
AcDbEntity
  8
0
 62
     0
100
AcDbLine
 10
-405.1249999999998
 20
360.4999999999998
 30
0.0
 11
-405.1249999999998
 21
360.625
 31
0.0
  0
LINE
  5
3E8F
330
3E5F
100
AcDbEntity
  8
0
 62
     0
100
AcDbLine
 10
-405.1249999999998
 20
360.7499999999998
 30
0.0
 11
-405.1249999999998
 21
360.875
 31
0.0
  0
LINE
  5
3E90
330
3E5F
100
AcDbEntity
  8
0
 62
     0
100
AcDbLine
 10
-405.1249999999998
 20
361.0
 30
0.0
 11
-405.1249999999998
 21
361.125
 31
0.0
  0
LINE
  5
3E91
330
3E5F
100
AcDbEntity
  8
0
 62
     0
100
AcDbLine
 10
-405.1249999999998
 20
361.25
 30
0.0
 11
-405.1249999999998
 21
361.375
 31
0.0
  0
LINE
  5
3E92
330
3E5F
100
AcDbEntity
  8
0
 62
     0
100
AcDbLine
 10
-405.1249999999998
 20
361.5
 30
0.0
 11
-405.1249999999998
 21
361.6249999999998
 31
0.0
  0
LINE
  5
3E93
330
3E5F
100
AcDbEntity
  8
0
 62
     0
100
AcDbLine
 10
-405.1249999999998
 20
361.75
 30
0.0
 11
-405.1249999999998
 21
361.8370122704502
 31
0.0
  0
LINE
  5
3E94
330
3E5F
100
AcDbEntity
  8
0
 62
     0
100
AcDbLine
 10
-404.8749999999998
 20
359.8374808996261
 30
0.0
 11
-404.8749999999998
 21
359.8749999999998
 31
0.0
  0
LINE
  5
3E95
330
3E5F
100
AcDbEntity
  8
0
 62
     0
100
AcDbLine
 10
-404.8749999999998
 20
360.0
 30
0.0
 11
-404.8749999999998
 21
360.125
 31
0.0
  0
LINE
  5
3E96
330
3E5F
100
AcDbEntity
  8
0
 62
     0
100
AcDbLine
 10
-404.8749999999998
 20
360.25
 30
0.0
 11
-404.8749999999998
 21
360.375
 31
0.0
  0
LINE
  5
3E97
330
3E5F
100
AcDbEntity
  8
0
 62
     0
100
AcDbLine
 10
-404.8749999999998
 20
360.4999999999998
 30
0.0
 11
-404.8749999999998
 21
360.625
 31
0.0
  0
LINE
  5
3E98
330
3E5F
100
AcDbEntity
  8
0
 62
     0
100
AcDbLine
 10
-404.8749999999998
 20
360.7499999999998
 30
0.0
 11
-404.8749999999998
 21
360.875
 31
0.0
  0
LINE
  5
3E99
330
3E5F
100
AcDbEntity
  8
0
 62
     0
100
AcDbLine
 10
-404.8749999999998
 20
361.0
 30
0.0
 11
-404.8749999999998
 21
361.125
 31
0.0
  0
LINE
  5
3E9A
330
3E5F
100
AcDbEntity
  8
0
 62
     0
100
AcDbLine
 10
-404.8749999999998
 20
361.25
 30
0.0
 11
-404.8749999999998
 21
361.375
 31
0.0
  0
LINE
  5
3E9B
330
3E5F
100
AcDbEntity
  8
0
 62
     0
100
AcDbLine
 10
-404.8749999999998
 20
361.5
 30
0.0
 11
-404.8749999999998
 21
361.6249999999998
 31
0.0
  0
LINE
  5
3E9C
330
3E5F
100
AcDbEntity
  8
0
 62
     0
100
AcDbLine
 10
-404.8749999999998
 20
361.75
 30
0.0
 11
-404.8749999999998
 21
361.8370122704502
 31
0.0
  0
LINE
  5
3E9D
330
3E5F
100
AcDbEntity
  8
0
 62
     0
100
AcDbLine
 10
-404.6249999999998
 20
359.0
 30
0.0
 11
-404.6249999999998
 21
359.125
 31
0.0
  0
LINE
  5
3E9E
330
3E5F
100
AcDbEntity
  8
0
 62
     0
100
AcDbLine
 10
-404.6249999999998
 20
359.25
 30
0.0
 11
-404.6249999999998
 21
359.375
 31
0.0
  0
LINE
  5
3E9F
330
3E5F
100
AcDbEntity
  8
0
 62
     0
100
AcDbLine
 10
-404.6249999999998
 20
359.5
 30
0.0
 11
-404.6249999999998
 21
359.6249999999998
 31
0.0
  0
LINE
  5
3EA0
330
3E5F
100
AcDbEntity
  8
0
 62
     0
100
AcDbLine
 10
-404.6249999999998
 20
359.75
 30
0.0
 11
-404.6249999999998
 21
359.8749999999998
 31
0.0
  0
LINE
  5
3EA1
330
3E5F
100
AcDbEntity
  8
0
 62
     0
100
AcDbLine
 10
-404.6249999999998
 20
360.0
 30
0.0
 11
-404.6249999999998
 21
360.125
 31
0.0
  0
LINE
  5
3EA2
330
3E5F
100
AcDbEntity
  8
0
 62
     0
100
AcDbLine
 10
-404.6249999999998
 20
360.25
 30
0.0
 11
-404.6249999999998
 21
360.375
 31
0.0
  0
LINE
  5
3EA3
330
3E5F
100
AcDbEntity
  8
0
 62
     0
100
AcDbLine
 10
-404.6249999999998
 20
360.4999999999998
 30
0.0
 11
-404.6249999999998
 21
360.625
 31
0.0
  0
LINE
  5
3EA4
330
3E5F
100
AcDbEntity
  8
0
 62
     0
100
AcDbLine
 10
-404.6249999999998
 20
360.7499999999998
 30
0.0
 11
-404.6249999999998
 21
360.875
 31
0.0
  0
LINE
  5
3EA5
330
3E5F
100
AcDbEntity
  8
0
 62
     0
100
AcDbLine
 10
-404.6249999999998
 20
361.0
 30
0.0
 11
-404.6249999999998
 21
361.125
 31
0.0
  0
LINE
  5
3EA6
330
3E5F
100
AcDbEntity
  8
0
 62
     0
100
AcDbLine
 10
-404.6249999999998
 20
361.25
 30
0.0
 11
-404.6249999999998
 21
361.375
 31
0.0
  0
LINE
  5
3EA7
330
3E5F
100
AcDbEntity
  8
0
 62
     0
100
AcDbLine
 10
-404.6249999999998
 20
361.5
 30
0.0
 11
-404.6249999999998
 21
361.6249999999998
 31
0.0
  0
LINE
  5
3EA8
330
3E5F
100
AcDbEntity
  8
0
 62
     0
100
AcDbLine
 10
-404.6249999999998
 20
361.75
 30
0.0
 11
-404.6249999999998
 21
361.8370122704502
 31
0.0
  0
LINE
  5
3EA9
330
3E5F
100
AcDbEntity
  8
0
 62
     0
100
AcDbLine
 10
-404.3749999999998
 20
358.4999999999998
 30
0.0
 11
-404.3749999999998
 21
358.625
 31
0.0
  0
LINE
  5
3EAA
330
3E5F
100
AcDbEntity
  8
0
 62
     0
100
AcDbLine
 10
-404.3749999999998
 20
358.7499999999998
 30
0.0
 11
-404.3749999999998
 21
358.875
 31
0.0
  0
LINE
  5
3EAB
330
3E5F
100
AcDbEntity
  8
0
 62
     0
100
AcDbLine
 10
-404.3749999999998
 20
359.0
 30
0.0
 11
-404.3749999999998
 21
359.125
 31
0.0
  0
LINE
  5
3EAC
330
3E5F
100
AcDbEntity
  8
0
 62
     0
100
AcDbLine
 10
-404.3749999999998
 20
359.25
 30
0.0
 11
-404.3749999999998
 21
359.375
 31
0.0
  0
LINE
  5
3EAD
330
3E5F
100
AcDbEntity
  8
0
 62
     0
100
AcDbLine
 10
-404.3749999999998
 20
359.5
 30
0.0
 11
-404.3749999999998
 21
359.6249999999998
 31
0.0
  0
LINE
  5
3EAE
330
3E5F
100
AcDbEntity
  8
0
 62
     0
100
AcDbLine
 10
-404.3749999999998
 20
359.75
 30
0.0
 11
-404.3749999999998
 21
359.8749999999998
 31
0.0
  0
LINE
  5
3EAF
330
3E5F
100
AcDbEntity
  8
0
 62
     0
100
AcDbLine
 10
-404.3749999999998
 20
360.0
 30
0.0
 11
-404.3749999999998
 21
360.125
 31
0.0
  0
LINE
  5
3EB0
330
3E5F
100
AcDbEntity
  8
0
 62
     0
100
AcDbLine
 10
-404.3749999999998
 20
360.25
 30
0.0
 11
-404.3749999999998
 21
360.375
 31
0.0
  0
LINE
  5
3EB1
330
3E5F
100
AcDbEntity
  8
0
 62
     0
100
AcDbLine
 10
-404.3749999999998
 20
360.4999999999998
 30
0.0
 11
-404.3749999999998
 21
360.625
 31
0.0
  0
LINE
  5
3EB2
330
3E5F
100
AcDbEntity
  8
0
 62
     0
100
AcDbLine
 10
-404.3749999999998
 20
360.7499999999998
 30
0.0
 11
-404.3749999999998
 21
360.875
 31
0.0
  0
LINE
  5
3EB3
330
3E5F
100
AcDbEntity
  8
0
 62
     0
100
AcDbLine
 10
-404.3749999999998
 20
361.0
 30
0.0
 11
-404.3749999999998
 21
361.125
 31
0.0
  0
LINE
  5
3EB4
330
3E5F
100
AcDbEntity
  8
0
 62
     0
100
AcDbLine
 10
-404.3749999999998
 20
361.25
 30
0.0
 11
-404.3749999999998
 21
361.375
 31
0.0
  0
LINE
  5
3EB5
330
3E5F
100
AcDbEntity
  8
0
 62
     0
100
AcDbLine
 10
-404.3749999999998
 20
361.5
 30
0.0
 11
-404.3749999999998
 21
361.6249999999998
 31
0.0
  0
LINE
  5
3EB6
330
3E5F
100
AcDbEntity
  8
0
 62
     0
100
AcDbLine
 10
-404.3749999999998
 20
361.75
 30
0.0
 11
-404.3749999999998
 21
361.8370122704502
 31
0.0
  0
LINE
  5
3EB7
330
3E5F
100
AcDbEntity
  8
0
 62
     0
100
AcDbLine
 10
-404.1249999999998
 20
358.2532249367679
 30
0.0
 11
-404.1249999999998
 21
358.375
 31
0.0
  0
LINE
  5
3EB8
330
3E5F
100
AcDbEntity
  8
0
 62
     0
100
AcDbLine
 10
-404.1249999999998
 20
358.4999999999998
 30
0.0
 11
-404.1249999999998
 21
358.625
 31
0.0
  0
LINE
  5
3EB9
330
3E5F
100
AcDbEntity
  8
0
 62
     0
100
AcDbLine
 10
-404.1249999999998
 20
358.7499999999998
 30
0.0
 11
-404.1249999999998
 21
358.875
 31
0.0
  0
LINE
  5
3EBA
330
3E5F
100
AcDbEntity
  8
0
 62
     0
100
AcDbLine
 10
-404.1249999999998
 20
359.0
 30
0.0
 11
-404.1249999999998
 21
359.125
 31
0.0
  0
LINE
  5
3EBB
330
3E5F
100
AcDbEntity
  8
0
 62
     0
100
AcDbLine
 10
-404.1249999999998
 20
359.25
 30
0.0
 11
-404.1249999999998
 21
359.375
 31
0.0
  0
LINE
  5
3EBC
330
3E5F
100
AcDbEntity
  8
0
 62
     0
100
AcDbLine
 10
-404.1249999999998
 20
359.5
 30
0.0
 11
-404.1249999999998
 21
359.6249999999998
 31
0.0
  0
LINE
  5
3EBD
330
3E5F
100
AcDbEntity
  8
0
 62
     0
100
AcDbLine
 10
-404.1249999999998
 20
359.75
 30
0.0
 11
-404.1249999999998
 21
359.8749999999998
 31
0.0
  0
LINE
  5
3EBE
330
3E5F
100
AcDbEntity
  8
0
 62
     0
100
AcDbLine
 10
-404.1249999999998
 20
360.0
 30
0.0
 11
-404.1249999999998
 21
360.125
 31
0.0
  0
LINE
  5
3EBF
330
3E5F
100
AcDbEntity
  8
0
 62
     0
100
AcDbLine
 10
-404.1249999999998
 20
360.25
 30
0.0
 11
-404.1249999999998
 21
360.375
 31
0.0
  0
LINE
  5
3EC0
330
3E5F
100
AcDbEntity
  8
0
 62
     0
100
AcDbLine
 10
-404.1249999999998
 20
360.4999999999998
 30
0.0
 11
-404.1249999999998
 21
360.625
 31
0.0
  0
LINE
  5
3EC1
330
3E5F
100
AcDbEntity
  8
0
 62
     0
100
AcDbLine
 10
-404.1249999999998
 20
360.7499999999998
 30
0.0
 11
-404.1249999999998
 21
360.875
 31
0.0
  0
LINE
  5
3EC2
330
3E5F
100
AcDbEntity
  8
0
 62
     0
100
AcDbLine
 10
-404.1249999999998
 20
361.0
 30
0.0
 11
-404.1249999999998
 21
361.125
 31
0.0
  0
LINE
  5
3EC3
330
3E5F
100
AcDbEntity
  8
0
 62
     0
100
AcDbLine
 10
-404.1249999999998
 20
361.25
 30
0.0
 11
-404.1249999999998
 21
361.375
 31
0.0
  0
LINE
  5
3EC4
330
3E5F
100
AcDbEntity
  8
0
 62
     0
100
AcDbLine
 10
-404.1249999999998
 20
361.5
 30
0.0
 11
-404.1249999999998
 21
361.6249999999998
 31
0.0
  0
LINE
  5
3EC5
330
3E5F
100
AcDbEntity
  8
0
 62
     0
100
AcDbLine
 10
-404.1249999999998
 20
361.75
 30
0.0
 11
-404.1249999999998
 21
361.8370122704502
 31
0.0
  0
ENDBLK
  5
3EC7
330
3E5F
100
AcDbEntity
  8
0
100
AcDbBlockEnd
  0
BLOCK
  5
3F91
330
3F90
100
AcDbEntity
  8
0
100
AcDbBlockBegin
  2
foul air trap
 70
     0
 10
0.0
 20
0.0
 30
0.0
  3
foul air trap
  1

  0
LINE
  5
3F93
330
3F90
100
AcDbEntity
  8
1
100
AcDbLine
 10
1208.491325910673
 20
1107.075306674516
 30
0.0
 11
1295.12942308226
 21
1107.075306674516
 31
0.0
  0
LINE
  5
3F94
330
3F90
100
AcDbEntity
  8
1
100
AcDbLine
 10
1201.090813605436
 20
1111.395306674515
 30
0.0
 11
1301.071511657789
 21
1111.395306674515
 31
0.0
  0
LINE
  5
3F95
330
3F90
100
AcDbEntity
  8
1
100
AcDbLine
 10
1232.045984437966
 20
1090.084261559292
 30
0.0
 11
1269.990977729441
 21
1090.084261559292
 31
0.0
  0
LINE
  5
3F96
330
3F90
100
AcDbEntity
  8
1
100
AcDbLine
 10
1232.045984437966
 20
1087.456409429085
 30
0.0
 11
1269.625868436242
 21
1087.456409429085
 31
0.0
  0
LINE
  5
3F97
330
3F90
100
AcDbEntity
  8
1
100
AcDbLine
 10
1228.335926437104
 20
1028.132369218754
 30
0.0
 11
1273.335926437104
 21
1028.132369218754
 31
0.0
  0
ARC
  5
3F98
330
3F90
100
AcDbEntity
  8
1
100
AcDbCircle
 10
1253.036451608067
 20
985.8193351931156
 30
0.0
 40
32.96637336539447
100
AcDbArc
 50
51.66227832045802
 51
81.30584230748334
  0
ARC
  5
3F99
330
3F90
100
AcDbEntity
  8
1
100
AcDbCircle
 10
1253.036451608067
 20
985.8193351931156
 30
0.0
 40
33.93862821539446
100
AcDbArc
 50
51.73541606254531
 51
81.43151591761862
  0
LINE
  5
3F9A
330
3F90
100
AcDbEntity
  8
1
100
AcDbLine
 10
1232.045984437966
 20
1087.456409429085
 30
0.0
 11
1232.045984437966
 21
1089.871131139661
 31
0.0
  0
LINE
  5
3F9B
330
3F90
100
AcDbEntity
  8
1
100
AcDbLine
 10
1230.245984437967
 20
1087.456409429085
 30
0.0
 11
1230.245984437967
 21
1089.389543793718
 31
0.0
  0
LINE
  5
3F9C
330
3F90
100
AcDbEntity
  8
1
100
AcDbLine
 10
1228.335926437104
 20
1028.132369218754
 30
0.0
 11
1228.335926437104
 21
1090.708360225801
 31
0.0
  0
ARC
  5
3F9D
330
3F90
100
AcDbEntity
  8
1
100
AcDbCircle
 10
1226.008606951122
 20
1028.129450528705
 30
0.0
 40
17.5005873
100
AcDbArc
 50
183.2361150823935
 51
268.054434265495
  0
LINE
  5
3F9E
330
3F90
100
AcDbEntity
  8
1
100
AcDbLine
 10
1209.435926437103
 20
1026.447911591658
 30
0.0
 11
1209.435926437103
 21
1074.862554575739
 31
0.0
  0
ARC
  5
3F9F
330
3F90
100
AcDbEntity
  8
1
100
AcDbCircle
 10
1225.878499240073
 20
1028.129450528705
 30
0.0
 40
16.52833245
100
AcDbArc
 50
185.8391894377785
 51
266.0563377827114
  0
ARC
  5
3FA0
330
3F90
100
AcDbEntity
  8
1
100
AcDbCircle
 10
1248.565759644177
 20
985.8193351931156
 30
0.0
 40
33.93862821539446
100
AcDbArc
 50
98.56848408238136
 51
128.2645839374547
  0
ARC
  5
3FA1
330
3F90
100
AcDbEntity
  8
1
100
AcDbCircle
 10
1248.565759644177
 20
985.8193351931156
 30
0.0
 40
32.96637336539447
100
AcDbArc
 50
98.69415769251663
 51
128.337721679542
  0
ARC
  5
3FA2
330
3F90
100
AcDbEntity
  8
1
100
AcDbCircle
 10
1225.139331173716
 20
1015.520065373245
 30
0.0
 40
3.889019399999998
100
AcDbArc
 50
266.0563377827114
 51
308.2645839374547
  0
ARC
  5
3FA3
330
3F90
100
AcDbEntity
  8
1
100
AcDbCircle
 10
1225.10143745401
 20
1015.490137478705
 30
0.0
 40
4.86127425
100
AcDbArc
 50
273.6919127553225
 51
308.3377216795419
  0
LINE
  5
3FA4
330
3F90
100
AcDbEntity
  8
1
100
AcDbLine
 10
1243.509194251122
 20
1019.379156878705
 30
0.0
 11
1258.093017001121
 21
1019.379156878705
 31
0.0
  0
LINE
  5
3FA5
330
3F90
100
AcDbEntity
  8
1
100
AcDbLine
 10
1243.509194251122
 20
1018.406902028704
 30
0.0
 11
1258.093017001121
 21
1018.406902028704
 31
0.0
  0
LINE
  5
3FA6
330
3F90
100
AcDbEntity
  8
1
100
AcDbLine
 10
1211.235926437104
 20
1074.862554575739
 30
0.0
 11
1228.335926437104
 21
1074.862554575739
 31
0.0
  0
LINE
  5
3FA7
330
3F90
100
AcDbEntity
  8
1
100
AcDbLine
 10
1206.432278019232
 20
1075.762554575738
 30
0.0
 11
1226.535926437104
 21
1075.762554575738
 31
0.0
  0
LINE
  5
3FA8
330
3F90
100
AcDbEntity
  8
1
100
AcDbLine
 10
1208.535926437104
 20
1027.141527707833
 30
0.0
 11
1208.535926437104
 21
1073.962554575738
 31
0.0
  0
LINE
  5
3FA9
330
3F90
100
AcDbEntity
  8
1
100
AcDbLine
 10
1210.335926437104
 20
1066.762554575737
 30
0.0
 11
1210.335926437104
 21
1073.962554575738
 31
0.0
  0
LINE
  5
3FAA
330
3F90
100
AcDbEntity
  8
1
100
AcDbLine
 10
1204.750938375634
 20
1073.526543741794
 30
0.0
 11
1208.509843233555
 21
1066.738838687578
 31
0.0
  0
LINE
  5
3FAB
330
3F90
100
AcDbEntity
  8
1
100
AcDbLine
 10
1203.135926437104
 20
1074.585126446083
 30
0.0
 11
1208.535926437104
 21
1064.83398650554
 31
0.0
  0
LINE
  5
3FAC
330
3F90
100
AcDbEntity
  8
1
100
AcDbLine
 10
1209.435926437103
 20
1066.762554575737
 30
0.0
 11
1210.335926437104
 21
1066.762554575737
 31
0.0
  0
LINE
  5
3FAD
330
3F90
100
AcDbEntity
  8
1
100
AcDbLine
 10
1206.432278019232
 20
1074.862554575739
 30
0.0
 11
1207.635926437104
 21
1074.862554575739
 31
0.0
  0
ARC
  5
3FAE
330
3F90
100
AcDbEntity
  8
1
100
AcDbCircle
 10
1208.535926437104
 20
1074.862554575739
 30
0.0
 40
0.9
100
AcDbArc
 50
0.0
 51
90.0
  0
ARC
  5
3FAF
330
3F90
100
AcDbEntity
  8
1
100
AcDbCircle
 10
1204.035926437104
 20
1074.862554575739
 30
0.0
 40
0.9
100
AcDbArc
 50
90.0
 51
180.0
  0
LINE
  5
3FB0
330
3F90
100
AcDbEntity
  8
1
100
AcDbLine
 10
1204.035926437104
 20
1075.762554575738
 30
0.0
 11
1208.535926437104
 21
1075.762554575738
 31
0.0
  0
LINE
  5
3FB1
330
3F90
100
AcDbEntity
  8
1
100
AcDbLine
 10
1205.538272201075
 20
1074.862554575739
 30
0.0
 11
1207.635926437104
 21
1074.862554575739
 31
0.0
  0
ARC
  5
3FB2
330
3F90
100
AcDbEntity
  8
1
100
AcDbCircle
 10
1205.538272201075
 20
1073.962554575738
 30
0.0
 40
0.9
100
AcDbArc
 50
90.0
 51
208.9768687366412
  0
ARC
  5
3FB3
330
3F90
100
AcDbEntity
  8
1
100
AcDbCircle
 10
1211.235926437104
 20
1073.962554575738
 30
0.0
 40
0.9
100
AcDbArc
 50
90.0
 51
180.0
  0
ARC
  5
3FB4
330
3F90
100
AcDbEntity
  8
1
100
AcDbCircle
 10
1207.635926437104
 20
1073.962554575738
 30
0.0
 40
0.9
100
AcDbArc
 50
0.0
 51
90.0
  0
LINE
  5
3FB5
330
3F90
100
AcDbEntity
  8
1
100
AcDbLine
 10
1230.135926437104
 20
1028.132369218754
 30
0.0
 11
1230.135926437104
 21
1076.303742262229
 31
0.0
  0
INSERT
  5
3FB6
330
3F90
100
AcDbEntity
  8
1
100
AcDbBlockReference
  2
*X0
 10
1591.922371740148
 20
749.2103183711956
 30
0.0
 41
0.899999999999977
 42
0.9000000000000909
 43
0.9
  0
LINE
  5
3FB7
330
3F90
100
AcDbEntity
  8
1
100
AcDbLine
 10
1230.245984437967
 20
1087.456409429085
 30
0.0
 11
1232.045984437966
 21
1087.456409429085
 31
0.0
  0
LINE
  5
3FB8
330
3F90
100
AcDbEntity
  8
1
100
AcDbLine
 10
1227.435926437103
 20
1076.662554575739
 30
0.0
 11
1227.435926437103
 21
1084.762554575739
 31
0.0
  0
ARC
  5
3FB9
330
3F90
100
AcDbEntity
  8
1
100
AcDbCircle
 10
1226.535926437104
 20
1076.662554575739
 30
0.0
 40
0.9
100
AcDbArc
 50
270.0
 51
0.0
  0
LINE
  5
3FBA
330
3F90
100
AcDbEntity
  8
1
100
AcDbLine
 10
1227.435926437103
 20
1084.762554575739
 30
0.0
 11
1228.335926437104
 21
1084.762554575739
 31
0.0
  0
LINE
  5
3FBB
330
3F90
100
AcDbEntity
  8
1
100
AcDbLine
 10
1230.135926437104
 20
1077.03883416508
 30
0.0
 11
1230.135926437104
 21
1087.388767686755
 31
0.0
  0
LINE
  5
3FBC
330
3F90
100
AcDbEntity
  8
1
100
AcDbLine
 10
1212.626944424235
 20
1097.475223166107
 30
0.0
 11
1231.450062716213
 21
1090.718206343347
 31
0.0
  0
LINE
  5
3FBD
330
3F90
100
AcDbEntity
  8
1
100
AcDbLine
 10
1212.268326666004
 20
1096.476216553888
 30
0.0
 11
1229.650062716213
 21
1090.236618997403
 31
0.0
  0
LINE
  5
3FBE
330
3F90
100
AcDbEntity
  8
1
100
AcDbLine
 10
1208.41010697363
 20
1103.966163008732
 30
0.0
 11
1208.41010697363
 21
1103.469262839418
 31
0.0
  0
LINE
  5
3FBF
330
3F90
100
AcDbEntity
  8
1
100
AcDbLine
 10
1207.34868297363
 20
1103.966163008732
 30
0.0
 11
1207.34868297363
 21
1103.469262839418
 31
0.0
  0
ARC
  5
3FC0
330
3F90
100
AcDbEntity
  8
1
100
AcDbCircle
 10
1214.77865097363
 20
1103.469262839418
 30
0.0
 40
6.368543999999999
100
AcDbArc
 50
180.0
 51
250.2531633945703
  0
ARC
  5
3FC1
330
3F90
100
AcDbEntity
  8
1
100
AcDbCircle
 10
1214.77865097363
 20
1103.469262839418
 30
0.0
 40
7.429967999999997
100
AcDbArc
 50
180.0
 51
250.2531633945703
  0
LINE
  5
3FC2
330
3F90
100
AcDbEntity
  8
1
100
AcDbLine
 10
1199.268556683942
 20
1111.396131008732
 30
0.0
 11
1200.98013897363
 21
1111.396131008732
 31
0.0
  0
LINE
  5
3FC3
330
3F90
100
AcDbEntity
  8
1
100
AcDbLine
 10
1199.268556683942
 20
1110.334707008732
 30
0.0
 11
1200.98013897363
 21
1110.334707008732
 31
0.0
  0
LINE
  5
3FC4
330
3F90
100
AcDbEntity
  8
1
100
AcDbLine
 10
1199.268556683942
 20
1111.396131008732
 30
0.0
 11
1199.268556683942
 21
1110.334707008732
 31
0.0
  0
ARC
  5
3FC5
330
3F90
100
AcDbEntity
  8
1
100
AcDbCircle
 10
1200.98013897363
 20
1103.966163008732
 30
0.0
 40
6.368543999999999
100
AcDbArc
 50
0.0
 51
90.0
  0
ARC
  5
3FC6
330
3F90
100
AcDbEntity
  8
1
100
AcDbCircle
 10
1200.98013897363
 20
1103.966163008732
 30
0.0
 40
7.429967999999997
100
AcDbArc
 50
0.0
 51
90.0
  0
ARC
  5
3FC7
330
3F90
100
AcDbEntity
  8
1
100
AcDbCircle
 10
1201.743166891606
 20
1103.966163008732
 30
0.0
 40
7.429967999999997
100
AcDbArc
 50
24.73739265893866
 51
90.0
  0
ARC
  5
3FC8
330
3F90
100
AcDbEntity
  8
1
100
AcDbCircle
 10
1231.145984437967
 20
1089.871131139661
 30
0.0
 40
0.9
100
AcDbArc
 50
0.0
 51
70.25316339457774
  0
ARC
  5
3FC9
330
3F90
100
AcDbEntity
  8
1
100
AcDbCircle
 10
1229.345984437967
 20
1089.389543793718
 30
0.0
 40
0.9
100
AcDbArc
 50
0.0
 51
70.25316339457049
  0
LINE
  5
3FCA
330
3F90
100
AcDbEntity
  8
1
100
AcDbLine
 10
1269.625868436242
 20
1087.456409429085
 30
0.0
 11
1269.625868436242
 21
1089.147327345961
 31
0.0
  0
LINE
  5
3FCB
330
3F90
100
AcDbEntity
  8
1
100
AcDbLine
 10
1271.425868436242
 20
1087.456409429085
 30
0.0
 11
1271.425868436242
 21
1088.665740000018
 31
0.0
  0
LINE
  5
3FCC
330
3F90
100
AcDbEntity
  8
1
100
AcDbLine
 10
1271.535926437104
 20
1028.132369218754
 30
0.0
 11
1271.535926437104
 21
1089.097007478506
 31
0.0
  0
LINE
  5
3FCD
330
3F90
100
AcDbEntity
  8
1
100
AcDbLine
 10
1273.335926437104
 20
1028.132369218754
 30
0.0
 11
1273.335926437104
 21
1089.984556432101
 31
0.0
  0
ARC
  5
3FCE
330
3F90
100
AcDbEntity
  8
1
100
AcDbCircle
 10
1275.72371201217
 20
1028.129450528705
 30
0.0
 40
16.52833245
100
AcDbArc
 50
273.9436622172885
 51
0.0
  0
ARC
  5
3FCF
330
3F90
100
AcDbEntity
  8
1
100
AcDbCircle
 10
1275.593604301122
 20
1028.129450528705
 30
0.0
 40
17.5005873
100
AcDbArc
 50
271.9455657345049
 51
0.0
  0
LINE
  5
3FD0
330
3F90
100
AcDbEntity
  8
1
100
AcDbLine
 10
1293.060256799416
 20
1027.040135905333
 30
0.0
 11
1293.060256799416
 21
1074.142329839042
 31
0.0
  0
ARC
  5
3FD1
330
3F90
100
AcDbEntity
  8
1
100
AcDbCircle
 10
1276.462880078527
 20
1015.520065373245
 30
0.0
 40
3.889019399999998
100
AcDbArc
 50
231.7354160625453
 51
273.9436622172885
  0
ARC
  5
3FD2
330
3F90
100
AcDbEntity
  8
1
100
AcDbCircle
 10
1276.500773798233
 20
1015.490137478705
 30
0.0
 40
4.86127425
100
AcDbArc
 50
231.6622783204579
 51
266.3080872446775
  0
LINE
  5
3FD3
330
3F90
100
AcDbEntity
  8
1
100
AcDbLine
 10
1292.235926437104
 20
1027.39969141589
 30
0.0
 11
1292.235926437104
 21
1074.862554575739
 31
0.0
  0
LINE
  5
3FD4
330
3F90
100
AcDbEntity
  8
1
100
AcDbLine
 10
1275.135926437104
 20
1075.762554575738
 30
0.0
 11
1296.242513997039
 21
1075.762554575738
 31
0.0
  0
LINE
  5
3FD5
330
3F90
100
AcDbEntity
  8
1
100
AcDbLine
 10
1273.335926437104
 20
1074.862554575739
 30
0.0
 11
1290.435926437104
 21
1074.862554575739
 31
0.0
  0
INSERT
  5
3FD6
330
3F90
100
AcDbEntity
  8
1
100
AcDbBlockReference
  2
*X0
 10
909.7362896308206
 20
749.2103183711956
 30
0.0
 41
-0.899999999999977
 42
0.9000000000000909
 43
0.9
  0
LINE
  5
3FD7
330
3F90
100
AcDbEntity
  8
1
100
AcDbLine
 10
1271.425868436242
 20
1087.456409429085
 30
0.0
 11
1269.625868436242
 21
1087.456409429085
 31
0.0
  0
LINE
  5
3FD8
330
3F90
100
AcDbEntity
  8
1
100
AcDbLine
 10
1274.235926437104
 20
1076.662554575739
 30
0.0
 11
1274.235926437104
 21
1084.762554575739
 31
0.0
  0
ARC
  5
3FD9
330
3F90
100
AcDbEntity
  8
1
100
AcDbCircle
 10
1275.135926437104
 20
1076.662554575739
 30
0.0
 40
0.9
100
AcDbArc
 50
180.0
 51
270.0
  0
LINE
  5
3FDA
330
3F90
100
AcDbEntity
  8
1
100
AcDbLine
 10
1273.335926437104
 20
1084.762554575739
 30
0.0
 11
1274.235926437104
 21
1084.762554575739
 31
0.0
  0
LINE
  5
3FDB
330
3F90
100
AcDbEntity
  8
1
100
AcDbLine
 10
1296.950070173883
 20
1073.526543741794
 30
0.0
 11
1293.060256799416
 21
1066.502448453459
 31
0.0
  0
LINE
  5
3FDC
330
3F90
100
AcDbEntity
  8
1
100
AcDbLine
 10
1291.335926437104
 20
1066.762554575737
 30
0.0
 11
1291.335926437104
 21
1073.962554575738
 31
0.0
  0
LINE
  5
3FDD
330
3F90
100
AcDbEntity
  8
1
100
AcDbLine
 10
1298.565082112412
 20
1074.585126446083
 30
0.0
 11
1293.060256799416
 21
1064.644696450665
 31
0.0
  0
LINE
  5
3FDE
330
3F90
100
AcDbEntity
  8
1
100
AcDbLine
 10
1291.335926437104
 20
1066.762554575737
 30
0.0
 11
1292.235926437104
 21
1066.762554575737
 31
0.0
  0
LINE
  5
3FDF
330
3F90
100
AcDbEntity
  8
1
100
AcDbLine
 10
1297.665082112413
 20
1075.762554575738
 30
0.0
 11
1293.165082112413
 21
1075.762554575738
 31
0.0
  0
ARC
  5
3FE0
330
3F90
100
AcDbEntity
  8
1
100
AcDbCircle
 10
1293.165082112413
 20
1074.862554575739
 30
0.0
 40
0.9
100
AcDbArc
 50
90.0
 51
180.0
  0
LINE
  5
3FE1
330
3F90
100
AcDbEntity
  8
1
100
AcDbLine
 10
1296.162736348442
 20
1074.862554575739
 30
0.0
 11
1294.065082112412
 21
1074.862554575739
 31
0.0
  0
ARC
  5
3FE2
330
3F90
100
AcDbEntity
  8
1
100
AcDbCircle
 10
1297.665082112413
 20
1074.862554575739
 30
0.0
 40
0.9
100
AcDbArc
 50
0.0
 51
90.0
  0
LINE
  5
3FE3
330
3F90
100
AcDbEntity
  8
1
100
AcDbLine
 10
1298.565082112412
 20
1074.585126446083
 30
0.0
 11
1298.565082112412
 21
1074.862554575739
 31
0.0
  0
ARC
  5
3FE4
330
3F90
100
AcDbEntity
  8
1
100
AcDbCircle
 10
1296.162736348442
 20
1073.962554575738
 30
0.0
 40
0.9
100
AcDbArc
 50
331.0231312633586
 51
90.0
  0
ARC
  5
3FE5
330
3F90
100
AcDbEntity
  8
1
100
AcDbCircle
 10
1293.942118951171
 20
1073.962554575738
 30
0.0
 40
0.9
100
AcDbArc
 50
83.52634024789486
 51
180.0
  0
ARC
  5
3FE6
330
3F90
100
AcDbEntity
  8
1
100
AcDbCircle
 10
1290.435926437104
 20
1073.962554575738
 30
0.0
 40
0.9
100
AcDbArc
 50
0.0
 51
90.0
  0
LINE
  5
3FE7
330
3F90
100
AcDbEntity
  8
1
100
AcDbLine
 10
1290.595634252651
 20
1097.308090173368
 30
0.0
 11
1270.221790157995
 21
1089.994402549645
 31
0.0
  0
LINE
  5
3FE8
330
3F90
100
AcDbEntity
  8
1
100
AcDbLine
 10
1290.954252010884
 20
1096.30908356115
 30
0.0
 11
1272.021790157995
 21
1089.512815203703
 31
0.0
  0
ARC
  5
3FE9
330
3F90
100
AcDbEntity
  8
1
100
AcDbCircle
 10
1270.525868436242
 20
1089.147327345961
 30
0.0
 40
0.9
100
AcDbArc
 50
109.7468366054294
 51
180.0
  0
ARC
  5
3FEA
330
3F90
100
AcDbEntity
  8
1
100
AcDbCircle
 10
1272.325868436242
 20
1088.665740000018
 30
0.0
 40
0.9
100
AcDbArc
 50
109.7468366054294
 51
180.0
  0
LINE
  5
3FEB
330
3F90
100
AcDbEntity
  8
1
100
AcDbLine
 10
1295.873895703258
 20
1103.799030015994
 30
0.0
 11
1295.873895703256
 21
1103.30212984668
 31
0.0
  0
LINE
  5
3FEC
330
3F90
100
AcDbEntity
  8
1
100
AcDbLine
 10
1294.812471703258
 20
1103.799030015994
 30
0.0
 11
1294.812471703258
 21
1103.30212984668
 31
0.0
  0
ARC
  5
3FED
330
3F90
100
AcDbEntity
  8
1
100
AcDbCircle
 10
1288.443927703257
 20
1103.30212984668
 30
0.0
 40
7.429967999999997
100
AcDbArc
 50
289.7468366054294
 51
0.0
  0
ARC
  5
3FEE
330
3F90
100
AcDbEntity
  8
1
100
AcDbCircle
 10
1288.443927703258
 20
1103.30212984668
 30
0.0
 40
6.368543999999999
100
AcDbArc
 50
289.7468366054294
 51
0.0
  0
ARC
  5
3FEF
330
3F90
100
AcDbEntity
  8
1
100
AcDbCircle
 10
1302.174743641883
 20
1103.8275830409
 30
0.0
 40
6.300912633968848
100
AcDbArc
 50
87.89156686214006
 51
180.2596407082099
  0
LINE
  5
3FF0
330
3F90
100
AcDbEntity
  8
1
100
AcDbLine
 10
1304.466416769479
 20
1111.184829556717
 30
0.0
 11
1301.433496179113
 21
1111.184829556717
 31
0.0
  0
ARC
  5
3FF1
330
3F90
100
AcDbEntity
  8
1
100
AcDbCircle
 10
1302.242439703257
 20
1103.799030015994
 30
0.0
 40
7.429967999999997
100
AcDbArc
 50
96.25051298958091
 51
180.0
  0
ARC
  5
3FF2
330
3F90
100
AcDbEntity
  8
1
100
AcDbCircle
 10
1301.898277976136
 20
1104.01148097669
 30
0.0
 40
7.429967999999997
100
AcDbArc
 50
96.25051298958091
 51
155.6467925743058
  0
LINE
  5
3FF3
330
3F90
100
AcDbEntity
  8
1
100
AcDbLine
 10
1304.466416769479
 20
1110.124229890933
 30
0.0
 11
1302.423286532922
 21
1110.124229890933
 31
0.0
  0
LINE
  5
3FF4
330
3F90
100
AcDbEntity
  8
1
100
AcDbLine
 10
1304.466416769479
 20
1111.185653890933
 30
0.0
 11
1304.466416769479
 21
1110.124229890933
 31
0.0
  0
ENDBLK
  5
3F92
330
3F90
100
AcDbEntity
  8
0
100
AcDbBlockEnd
  0
BLOCK
  5
4175
330
4172
100
AcDbEntity
  8
1
100
AcDbBlockBegin
  2
WELD
 70
     0
 10
0.0
 20
0.0
 30
0.0
  3
WELD
  1

  0
INSERT
  5
4173
330
4172
100
AcDbEntity
  8
1
100
AcDbBlockReference
  2
*X3
 10
1807.918320525746
 20
-1230.1583404367
 30
0.0
  0
LWPOLYLINE
  5
4174
330
4172
100
AcDbEntity
  8
1
100
AcDbPolyline
 90
        3
 70
     1
 43
0.0
 10
-0.7264291908145424
 20
0.4224310227373281
 10
1.894316483983399
 20
0.4224310227373281
 10
-0.7264291908145424
 20
-2.032451147131723
  0
ENDBLK
  5
4176
330
4172
100
AcDbEntity
  8
1
100
AcDbBlockEnd
  0
BLOCK
  5
4187
330
4177
100
AcDbEntity
  8
1
100
AcDbBlockBegin
  2
*X3
 70
     1
 10
0.0
 20
0.0
 30
0.0
  3
*X3
  1

  0
LINE
  5
4178
330
4177
100
AcDbEntity
  8
0
 62
     0
100
AcDbLine
 10
-1807.05572592346
 20
1229.614345882168
 30
0.0
 11
-1806.089300346189
 21
1230.580771459437
 31
0.0
  0
LINE
  5
4179
330
4177
100
AcDbEntity
  8
0
 62
     0
100
AcDbLine
 10
-1808.64474971656
 20
1228.202098784364
 30
0.0
 11
-1806.266077041487
 21
1230.580771459437
 31
0.0
  0
LINE
  5
417A
330
4177
100
AcDbEntity
  8
0
 62
     0
100
AcDbLine
 10
-1808.64474971656
 20
1228.37887547966
 30
0.0
 11
-1806.442853736784
 21
1230.580771459437
 31
0.0
  0
LINE
  5
417B
330
4177
100
AcDbEntity
  8
0
 62
     0
100
AcDbLine
 10
-1808.64474971656
 20
1228.555652174956
 30
0.0
 11
-1806.619630432081
 21
1230.580771459437
 31
0.0
  0
LINE
  5
417C
330
4177
100
AcDbEntity
  8
0
 62
     0
100
AcDbLine
 10
-1808.64474971656
 20
1228.732428870254
 30
0.0
 11
-1806.796407127377
 21
1230.580771459437
 31
0.0
  0
LINE
  5
417D
330
4177
100
AcDbEntity
  8
0
 62
     0
100
AcDbLine
 10
-1808.64474971656
 20
1228.909205565551
 30
0.0
 11
-1806.973183822674
 21
1230.580771459437
 31
0.0
  0
LINE
  5
417E
330
4177
100
AcDbEntity
  8
0
 62
     0
100
AcDbLine
 10
-1808.64474971656
 20
1229.085982260847
 30
0.0
 11
-1807.149960517971
 21
1230.580771459437
 31
0.0
  0
LINE
  5
417F
330
4177
100
AcDbEntity
  8
0
 62
     0
100
AcDbLine
 10
-1808.64474971656
 20
1229.262758956144
 30
0.0
 11
-1807.326737213267
 21
1230.580771459437
 31
0.0
  0
LINE
  5
4180
330
4177
100
AcDbEntity
  8
0
 62
     0
100
AcDbLine
 10
-1808.64474971656
 20
1229.43953565144
 30
0.0
 11
-1807.503513908564
 21
1230.580771459437
 31
0.0
  0
LINE
  5
4181
330
4177
100
AcDbEntity
  8
0
 62
     0
100
AcDbLine
 10
-1808.64474971656
 20
1229.616312346736
 30
0.0
 11
-1807.68029060386
 21
1230.580771459437
 31
0.0
  0
LINE
  5
4182
330
4177
100
AcDbEntity
  8
0
 62
     0
100
AcDbLine
 10
-1808.64474971656
 20
1229.793089042034
 30
0.0
 11
-1807.857067299157
 21
1230.580771459437
 31
0.0
  0
LINE
  5
4183
330
4177
100
AcDbEntity
  8
0
 62
     0
100
AcDbLine
 10
-1808.64474971656
 20
1229.96986573733
 30
0.0
 11
-1808.033843994454
 21
1230.580771459437
 31
0.0
  0
LINE
  5
4184
330
4177
100
AcDbEntity
  8
0
 62
     0
100
AcDbLine
 10
-1808.64474971656
 20
1230.146642432627
 30
0.0
 11
-1808.210620689751
 21
1230.580771459437
 31
0.0
  0
LINE
  5
4185
330
4177
100
AcDbEntity
  8
0
 62
     0
100
AcDbLine
 10
-1808.64474971656
 20
1230.323419127923
 30
0.0
 11
-1808.387397385047
 21
1230.580771459437
 31
0.0
  0
LINE
  5
4186
330
4177
100
AcDbEntity
  8
0
 62
     0
100
AcDbLine
 10
-1808.64474971656
 20
1230.50019582322
 30
0.0
 11
-1808.564174080343
 21
1230.580771459437
 31
0.0
  0
ENDBLK
  5
4188
330
4177
100
AcDbEntity
  8
1
100
AcDbBlockEnd
  0
BLOCK
  5
4779
330
476F
100
AcDbEntity
  8
0
100
AcDbBlockBegin
  2
*D4
 70
     1
 10
0.0
 20
0.0
 30
0.0
  3
*D4
  1

  0
LINE
  5
4F5A
330
476F
100
AcDbEntity
  8
1
 62
     0
370
    -2
100
AcDbLine
 10
1941.130076671105
 20
1065.235965156204
 30
0.0
 11
1941.130076671105
 21
1085.034715052549
 31
0.0
  0
LINE
  5
4F5B
330
476F
100
AcDbEntity
  8
1
 62
     0
370
    -2
100
AcDbLine
 10
2166.024188505644
 20
1065.235965156204
 30
0.0
 11
2166.024188505644
 21
1085.034715052549
 31
0.0
  0
LINE
  5
4F5C
330
476F
100
AcDbEntity
  8
1
 62
     0
370
    -2
100
AcDbLine
 10
1948.030076671105
 20
1079.634715052548
 30
0.0
 11
2159.124188505642
 21
1079.634715052548
 31
0.0
  0
SOLID
  5
4F5D
330
476F
100
AcDbEntity
  8
1
 62
     0
100
AcDbTrace
 10
1948.030076671105
 20
1080.784715052548
 30
0.0
 11
1948.030076671105
 21
1078.484715052549
 31
0.0
 12
1941.130076671105
 22
1079.634715052548
 32
0.0
 13
1941.130076671105
 23
1079.634715052548
 33
0.0
  0
SOLID
  5
4F5E
330
476F
100
AcDbEntity
  8
1
 62
     0
100
AcDbTrace
 10
2159.124188505642
 20
1080.784715052548
 30
0.0
 11
2159.124188505642
 21
1078.484715052549
 31
0.0
 12
2166.024188505644
 22
1079.634715052548
 32
0.0
 13
2166.024188505644
 23
1079.634715052548
 33
0.0
  0
MTEXT
  5
4F5F
330
476F
100
AcDbEntity
  8
1
 62
     0
100
AcDbMText
 10
2053.577132588374
 20
1086.102478210444
 30
0.0
 40
6.9
 41
0.0
 71
     5
 72
     1
  1
\A1;%%C225
 73
     1
 44
1.0
  0
POINT
  5
4F60
330
476F
100
AcDbEntity
  8
DEFPOINTS
 62
     0
100
AcDbPoint
 10
1941.130076671105
 20
1061.635965156207
 30
0.0
  0
POINT
  5
4F61
330
476F
100
AcDbEntity
  8
DEFPOINTS
 62
     0
100
AcDbPoint
 10
2166.024188505644
 20
1061.635965156207
 30
0.0
  0
POINT
  5
4F62
330
476F
100
AcDbEntity
  8
DEFPOINTS
 62
     0
100
AcDbPoint
 10
2166.024188505644
 20
1079.634715052548
 30
0.0
  0
ENDBLK
  5
477A
330
476F
100
AcDbEntity
  8
0
100
AcDbBlockEnd
  0
BLOCK
  5
47E1
330
47C9
100
AcDbEntity
  8
0
100
AcDbBlockBegin
  2
*X5
 70
     1
 10
0.0
 20
0.0
 30
0.0
  3
*X5
  1

  0
LINE
  5
47CA
330
47C9
100
AcDbEntity
  8
0
 62
     0
100
AcDbLine
 10
-623.9302995495727
 20
381.5755432976976
 30
0.0
 11
-614.5617905610541
 21
390.9440522862162
 31
0.0
  0
LINE
  5
47CB
330
47C9
100
AcDbEntity
  8
0
 62
     0
100
AcDbLine
 10
-613.8056723237488
 20
391.7001705235218
 30
0.0
 11
-612.8808332083372
 21
392.6250096389334
 31
0.0
  0
LINE
  5
47CC
330
47C9
100
AcDbEntity
  8
0
 62
     0
100
AcDbLine
 10
-628.4449997445888
 20
383.4248041333606
 30
0.0
 11
-615.4235554359719
 21
396.4462484419773
 31
0.0
  0
LINE
  5
47CD
330
47C9
100
AcDbEntity
  8
0
 62
     0
100
AcDbLine
 10
-629.5370516436562
 20
388.6967132649721
 30
0.0
 11
-621.7875164666508
 21
396.4462484419773
 31
0.0
  0
LINE
  5
47CE
330
47C9
100
AcDbEntity
  8
0
 62
     0
100
AcDbLine
 10
-628.4449997445888
 20
396.1527261947184
 30
0.0
 11
-628.1514774973299
 21
396.4462484419773
 31
0.0
  0
LINE
  5
47CF
330
47C9
100
AcDbEntity
  8
0
 62
     0
100
AcDbLine
 10
-617.5663385188937
 20
381.5755432976978
 30
0.0
 11
-615.0268103541512
 21
384.1150714624403
 31
0.0
  0
LINE
  5
47D0
330
47C9
100
AcDbEntity
  8
0
 62
     0
100
AcDbLine
 10
-622.8696393795727
 20
381.5755432976978
 30
0.0
 11
-614.8545140772687
 21
389.5906686000015
 31
0.0
  0
LINE
  5
47D1
330
47C9
100
AcDbEntity
  8
0
 62
     0
100
AcDbLine
 10
-614.1429190600057
 20
390.3022636172646
 30
0.0
 11
-612.5160076678881
 21
391.9291750093825
 31
0.0
  0
LINE
  5
47D2
330
47C9
100
AcDbEntity
  8
0
 62
     0
100
AcDbLine
 10
-628.4449997445888
 20
382.3641439633606
 30
0.0
 11
-614.6206702372349
 21
396.1884734707142
 31
0.0
  0
LINE
  5
47D3
330
47C9
100
AcDbEntity
  8
0
 62
     0
100
AcDbLine
 10
-629.5370516436562
 20
387.6360530949721
 30
0.0
 11
-620.7268562966508
 21
396.4462484419773
 31
0.0
  0
LINE
  5
47D4
330
47C9
100
AcDbEntity
  8
0
 62
     0
100
AcDbLine
 10
-628.4449997445888
 20
395.0920660247184
 30
0.0
 11
-627.0908173273299
 21
396.4462484419773
 31
0.0
  0
LINE
  5
47D5
330
47C9
100
AcDbEntity
  8
0
 62
     0
100
AcDbLine
 10
-616.5056783488937
 20
381.5755432976978
 30
0.0
 11
-615.265230655631
 21
382.8159909909604
 31
0.0
  0
LINE
  5
47D6
330
47C9
100
AcDbEntity
  8
0
 62
     0
100
AcDbLine
 10
-628.1729402342517
 20
381.5755432976976
 30
0.0
 11
-614.4213801978792
 21
395.3271033340702
 31
0.0
  0
LINE
  5
47D7
330
47C9
100
AcDbEntity
  8
0
 62
     0
100
AcDbLine
 10
-628.6793799970197
 20
387.4330645656086
 30
0.0
 11
-619.6661961206507
 21
396.4462484419773
 31
0.0
  0
LINE
  5
47D8
330
47C9
100
AcDbEntity
  8
0
 62
     0
100
AcDbLine
 10
-628.4449997445888
 20
394.0314058487183
 30
0.0
 11
-626.0301571513297
 21
396.4462484419773
 31
0.0
  0
LINE
  5
47D9
330
47C9
100
AcDbEntity
  8
0
 62
     0
100
AcDbLine
 10
-621.8089792035727
 20
381.5755432976978
 30
0.0
 11
-615.0348342961567
 21
388.3496882051137
 31
0.0
  0
LINE
  5
47DA
330
47C9
100
AcDbEntity
  8
0
 62
     0
100
AcDbLine
 10
-614.480165798171
 20
388.9043567030995
 30
0.0
 11
-612.8532407135801
 21
390.5312817876902
 31
0.0
  0
LINE
  5
47DB
330
47C9
100
AcDbEntity
  8
0
 62
     0
100
AcDbLine
 10
-615.4450181728937
 20
381.5755432976978
 30
0.0
 11
-615.1101886743478
 21
381.9103727962438
 31
0.0
  0
LINE
  5
47DC
330
47C9
100
AcDbEntity
  8
0
 62
     0
100
AcDbLine
 10
-627.1122800642517
 20
381.5755432976976
 30
0.0
 11
-614.2220901596507
 21
394.4657332022986
 31
0.0
  0
LINE
  5
47DD
330
47C9
100
AcDbEntity
  8
0
 62
     0
100
AcDbLine
 10
-628.4449997445888
 20
386.6067846480396
 30
0.0
 11
-618.6055359506507
 21
396.4462484419773
 31
0.0
  0
LINE
  5
47DE
330
47C9
100
AcDbEntity
  8
0
 62
     0
100
AcDbLine
 10
-628.4449997445888
 20
392.9707456787186
 30
0.0
 11
-624.9694969813297
 21
396.4462484419773
 31
0.0
  0
LINE
  5
47DF
330
47C9
100
AcDbEntity
  8
0
 62
     0
100
AcDbLine
 10
-620.7483190335728
 20
381.5755432976978
 30
0.0
 11
-614.9847325819527
 21
387.3391297493178
 31
0.0
  0
LINE
  5
47E0
330
47C9
100
AcDbEntity
  8
0
 62
     0
100
AcDbLine
 10
-614.817412534428
 20
387.5064497968425
 30
0.0
 11
-613.1904874498372
 21
389.133374881433
 31
0.0
  0
ENDBLK
  5
47E2
330
47C9
100
AcDbEntity
  8
0
100
AcDbBlockEnd
  0
BLOCK
  5
4B15
330
4B14
100
AcDbEntity
  8
0
100
AcDbBlockBegin
  2
BODY
 70
     0
 10
0.0
 20
0.0
 30
0.0
  3
BODY
  1

  0
LINE
  5
4B17
330
4B14
100
AcDbEntity
  8
1
100
AcDbLine
 10
2879.449670451817
 20
1037.376563944991
 30
0.0
 11
2879.449670451819
 21
963.461743449452
 31
0.0
  0
LINE
  5
4B18
330
4B14
100
AcDbEntity
  8
1
100
AcDbLine
 10
2880.949670451817
 20
1037.376563944991
 30
0.0
 11
2880.949670451819
 21
963.4617434494513
 31
0.0
  0
LINE
  5
4B19
330
4B14
100
AcDbEntity
  8
1
100
AcDbLine
 10
2988.949670451818
 20
1037.376563944991
 30
0.0
 11
2988.949670451816
 21
963.3957679859951
 31
0.0
  0
LINE
  5
4B1A
330
4B14
100
AcDbEntity
  8
1
100
AcDbLine
 10
2990.449670451818
 20
1037.376563944991
 30
0.0
 11
2990.449670451815
 21
963.3957679859951
 31
0.0
  0
LINE
  5
4B1B
330
4B14
100
AcDbEntity
  8
1
100
AcDbLine
 10
2881.90156175463
 20
956.4581037357163
 30
0.0
 11
2988.020876377255
 21
956.4581037357163
 31
0.0
  0
LINE
  5
4B1C
330
4B14
100
AcDbEntity
  8
1
100
AcDbLine
 10
2880.949670451819
 20
963.461743449452
 30
0.0
 11
2883.40156175463
 21
956.4581037357163
 31
0.0
  0
LINE
  5
4B1D
330
4B14
100
AcDbEntity
  8
1
100
AcDbLine
 10
2879.449670451819
 20
963.461743449452
 30
0.0
 11
2881.90156175463
 21
956.4581037357163
 31
0.0
  0
LINE
  5
4B1E
330
4B14
100
AcDbEntity
  8
1
100
AcDbLine
 10
2988.961219065941
 20
963.4287557177232
 30
0.0
 11
2986.520876377255
 21
956.4581037357163
 31
0.0
  0
LINE
  5
4B1F
330
4B14
100
AcDbEntity
  8
1
100
AcDbLine
 10
2990.449670451815
 20
963.3957679859951
 30
0.0
 11
2988.020876377255
 21
956.4581037357163
 31
0.0
  0
LINE
  5
4B20
330
4B14
100
AcDbEntity
  8
1
100
AcDbLine
 10
2859.949670451817
 20
1140.87656394499
 30
0.0
 11
2859.949670451817
 21
1046.876563944991
 31
0.0
  0
LINE
  5
4B21
330
4B14
100
AcDbEntity
  8
1
100
AcDbLine
 10
2860.949670451818
 20
1140.87656394499
 30
0.0
 11
2860.949670451818
 21
1047.521747808954
 31
0.0
  0
LINE
  5
4B22
330
4B14
100
AcDbEntity
  8
1
100
AcDbLine
 10
2860.949670451818
 20
1047.521747808954
 30
0.0
 11
2881.949670451818
 21
1038.021747808953
 31
0.0
  0
LINE
  5
4B23
330
4B14
100
AcDbEntity
  8
1
100
AcDbLine
 10
2859.949670451817
 20
1046.876563944991
 30
0.0
 11
2880.949670451817
 21
1037.376563944991
 31
0.0
  0
LINE
  5
4B24
330
4B14
100
AcDbEntity
  8
1
100
AcDbLine
 10
2881.949670451818
 20
1038.021747808953
 30
0.0
 11
2881.949670451818
 21
1029.87656394499
 31
0.0
  0
LINE
  5
4B25
330
4B14
100
AcDbEntity
  8
1
100
AcDbLine
 10
2880.949670451817
 20
1037.376563944991
 30
0.0
 11
2879.449670451817
 21
1037.376563944991
 31
0.0
  0
LINE
  5
4B26
330
4B14
100
AcDbEntity
  8
1
100
AcDbLine
 10
3008.949670451817
 20
1140.87656394499
 30
0.0
 11
3008.949670451817
 21
1047.521747808954
 31
0.0
  0
LINE
  5
4B27
330
4B14
100
AcDbEntity
  8
1
100
AcDbLine
 10
3009.949670451817
 20
1140.87656394499
 30
0.0
 11
3009.949670451817
 21
1046.876563944991
 31
0.0
  0
LINE
  5
4B28
330
4B14
100
AcDbEntity
  8
1
100
AcDbLine
 10
3009.949670451817
 20
1046.876563944991
 30
0.0
 11
2988.949670451818
 21
1037.376563944991
 31
0.0
  0
LINE
  5
4B29
330
4B14
100
AcDbEntity
  8
1
100
AcDbLine
 10
3008.949670451817
 20
1047.521747808954
 30
0.0
 11
2987.949670451818
 21
1038.021747808953
 31
0.0
  0
LINE
  5
4B2A
330
4B14
100
AcDbEntity
  8
1
100
AcDbLine
 10
2988.949670451818
 20
1037.376563944991
 30
0.0
 11
2990.449670451818
 21
1037.376563944991
 31
0.0
  0
LINE
  5
4B2B
330
4B14
100
AcDbEntity
  8
1
100
AcDbLine
 10
2987.949670451818
 20
1038.021747808953
 30
0.0
 11
2987.949670451818
 21
1029.87656394499
 31
0.0
  0
LWPOLYLINE
  5
4B2C
330
4B14
100
AcDbEntity
  8
1
100
AcDbPolyline
 90
        5
 70
     0
 43
0.0
 10
2876.798522128624
 20
1128.495116010886
 10
2875.60113468058
 20
1126.770002547996
 10
2875.60113468058
 20
1125.973348407993
 10
2875.60113468058
 20
1125.375857802991
 10
2875.867325671747
 20
1124.573973951903
  0
LINE
  5
4B2D
330
4B14
100
AcDbEntity
  8
1
100
AcDbLine
 10
2861.245195599236
 20
1124.200043446556
 30
0.0
 11
2861.245195599236
 21
1130.200043446556
 31
0.0
  0
LINE
  5
4B2E
330
4B14
100
AcDbEntity
  8
1
100
AcDbLine
 10
2862.131361557112
 20
1124.700043446556
 30
0.0
 11
2862.131361557112
 21
1130.200043446556
 31
0.0
  0
LINE
  5
4B2F
330
4B14
100
AcDbEntity
  8
1
100
AcDbLine
 10
2862.421365591623
 20
1124.573973951903
 30
0.0
 11
2862.421365591623
 21
1130.431495219814
 31
0.0
  0
INSERT
  5
4B30
330
4B14
100
AcDbEntity
  8
1
100
AcDbBlockReference
  2
*X5
 10
3490.866365336211
 20
742.9984306542053
 30
0.0
  0
LINE
  5
4B31
330
4B14
100
AcDbEntity
  8
1
100
AcDbLine
 10
2877.972065105573
 20
1123.200043446556
 30
0.0
 11
2862.245195599236
 21
1123.200043446556
 31
0.0
  0
LINE
  5
4B32
330
4B14
100
AcDbEntity
  8
1
100
AcDbLine
 10
2877.972065105573
 20
1124.200043446556
 30
0.0
 11
2862.631361557111
 21
1124.200043446556
 31
0.0
  0
LINE
  5
4B33
330
4B14
100
AcDbEntity
  8
1
100
AcDbLine
 10
2862.421365591623
 20
1124.573973951903
 30
0.0
 11
2875.867325671747
 21
1124.573973951903
 31
0.0
  0
ARC
  5
4B34
330
4B14
100
AcDbEntity
  8
1
100
AcDbCircle
 10
2862.631361557111
 20
1124.700043446556
 30
0.0
 40
0.5
100
AcDbArc
 50
180.0
 51
270.0
  0
ARC
  5
4B35
330
4B14
100
AcDbEntity
  8
1
100
AcDbCircle
 10
2862.245195599236
 20
1124.200043446556
 30
0.0
 40
1.0
100
AcDbArc
 50
180.0
 51
270.0
  0
LINE
  5
4B36
330
4B14
100
AcDbEntity
  8
1
100
AcDbLine
 10
2877.972065105573
 20
1124.200043446556
 30
0.0
 11
2877.972065105573
 21
1123.200043446556
 31
0.0
  0
LINE
  5
4B37
330
4B14
100
AcDbEntity
  8
1
100
AcDbLine
 10
2862.421365591623
 20
1139.444679096183
 30
0.0
 11
2876.186055250807
 21
1139.444679096183
 31
0.0
  0
LINE
  5
4B38
330
4B14
100
AcDbEntity
  8
1
100
AcDbLine
 10
2877.972065105572
 20
1139.849975431699
 30
0.0
 11
2862.631361557111
 21
1139.849975431699
 31
0.0
  0
LINE
  5
4B39
330
4B14
100
AcDbEntity
  8
1
100
AcDbLine
 10
2877.972065105572
 20
1140.849975431698
 30
0.0
 11
2862.245195599236
 21
1140.849975431698
 31
0.0
  0
LINE
  5
4B3A
330
4B14
100
AcDbEntity
  8
1
100
AcDbLine
 10
2859.949670451817
 20
1140.87656394499
 30
0.0
 11
2860.949670451818
 21
1140.87656394499
 31
0.0
  0
LINE
  5
4B3B
330
4B14
100
AcDbEntity
  8
1
100
AcDbLine
 10
2862.421365591623
 20
1139.444679096183
 30
0.0
 11
2862.421365591623
 21
1133.624189639103
 31
0.0
  0
LINE
  5
4B3C
330
4B14
100
AcDbEntity
  8
1
100
AcDbLine
 10
2861.245195599236
 20
1139.849975431699
 30
0.0
 11
2861.245195599236
 21
1133.849975431699
 31
0.0
  0
LINE
  5
4B3D
330
4B14
100
AcDbEntity
  8
1
100
AcDbLine
 10
2862.131361557112
 20
1139.349975431698
 30
0.0
 11
2862.131361557112
 21
1133.849975431699
 31
0.0
  0
LINE
  5
4B3E
330
4B14
100
AcDbEntity
  8
1
100
AcDbLine
 10
2862.421365591623
 20
1133.624189639103
 30
0.0
 11
2861.329313692555
 21
1133.624189639103
 31
0.0
  0
LINE
  5
4B3F
330
4B14
100
AcDbEntity
  8
1
100
AcDbLine
 10
2862.131361557112
 20
1133.849975431699
 30
0.0
 11
2861.245195599236
 21
1133.849975431699
 31
0.0
  0
ARC
  5
4B40
330
4B14
100
AcDbEntity
  8
1
100
AcDbCircle
 10
2862.631361557111
 20
1139.349975431698
 30
0.0
 40
0.5
100
AcDbArc
 50
90.0
 51
180.0
  0
LINE
  5
4B41
330
4B14
100
AcDbEntity
  8
1
100
AcDbLine
 10
2862.131361557112
 20
1130.200043446556
 30
0.0
 11
2861.245195599236
 21
1130.200043446556
 31
0.0
  0
LINE
  5
4B42
330
4B14
100
AcDbEntity
  8
1
100
AcDbLine
 10
2862.421365591623
 20
1130.431495219814
 30
0.0
 11
2861.329313692555
 21
1130.431495219814
 31
0.0
  0
LINE
  5
4B43
330
4B14
100
AcDbEntity
  8
1
100
AcDbLine
 10
2861.329313692555
 20
1133.624189639103
 30
0.0
 11
2861.329313692555
 21
1130.431495219814
 31
0.0
  0
ARC
  5
4B44
330
4B14
100
AcDbEntity
  8
1
100
AcDbCircle
 10
2862.245195599236
 20
1139.849975431699
 30
0.0
 40
1.0
100
AcDbArc
 50
90.0
 51
180.0
  0
ARC
  5
4B45
330
4B14
100
AcDbEntity
  8
1
100
AcDbCircle
 10
2877.766284690739
 20
1135.064932852368
 30
0.0
 40
0.5999999999999909
100
AcDbArc
 50
346.43650119414
 51
166.4365011941463
  0
LWPOLYLINE
  5
4B46
330
4B14
100
AcDbEntity
  8
1
100
AcDbPolyline
 90
        7
 70
     0
 43
0.0
 10
2876.186055250807
 20
1139.444679096183
 10
2876.660957934162
 20
1137.392057748035
 10
2876.753116477951
 20
1135.533198088028
 10
2876.154085943319
 20
1133.408787048018
 10
2875.831531040054
 20
1131.549927388014
 10
2875.831531040054
 20
1130.55410971301
 10
2875.943781744325
 20
1130.068940435167
  0
LINE
  5
4B47
330
4B14
100
AcDbEntity
  8
1
100
AcDbLine
 10
2875.943781744325
 20
1130.068940435167
 30
0.0
 11
2877.18301832811
 21
1135.205646569629
 31
0.0
  0
LINE
  5
4B48
330
4B14
100
AcDbEntity
  8
1
100
AcDbLine
 10
2876.798522128624
 20
1128.495116010886
 30
0.0
 11
2878.349551053368
 21
1134.924219135106
 31
0.0
  0
LINE
  5
4B49
330
4B14
100
AcDbEntity
  8
1
100
AcDbLine
 10
2877.972065105572
 20
1140.849975431698
 30
0.0
 11
2877.972065105572
 21
1139.849975431699
 31
0.0
  0
LINE
  5
4B4A
330
4B14
100
AcDbEntity
  8
1
100
AcDbLine
 10
3007.477975312011
 20
1124.573973951903
 30
0.0
 11
3007.477975312011
 21
1130.431495219814
 31
0.0
  0
LINE
  5
4B4B
330
4B14
100
AcDbEntity
  8
1
100
AcDbLine
 10
3008.654145304399
 20
1124.200043446556
 30
0.0
 11
3008.654145304399
 21
1130.200043446556
 31
0.0
  0
LINE
  5
4B4C
330
4B14
100
AcDbEntity
  8
1
100
AcDbLine
 10
3007.767979346522
 20
1124.700043446556
 30
0.0
 11
3007.767979346522
 21
1130.200043446556
 31
0.0
  0
LWPOLYLINE
  5
4B4D
330
4B14
100
AcDbEntity
  8
1
100
AcDbPolyline
 90
        5
 70
     0
 43
0.0
 10
2993.10081877501
 20
1128.495116010886
 10
2994.298206223054
 20
1126.770002547996
 10
2994.298206223054
 20
1125.973348407993
 10
2994.298206223054
 20
1125.375857802991
 10
2994.032015231887
 20
1124.573973951903
  0
INSERT
  5
4B4E
330
4B14
100
AcDbEntity
  8
1
100
AcDbBlockReference
  2
*X5
 10
2379.032975567422
 20
742.9984306542053
 30
0.0
 41
-1.0
  0
ARC
  5
4B4F
330
4B14
100
AcDbEntity
  8
1
100
AcDbCircle
 10
3007.267979346522
 20
1124.700043446556
 30
0.0
 40
0.5
100
AcDbArc
 50
270.0
 51
0.0
  0
LINE
  5
4B50
330
4B14
100
AcDbEntity
  8
1
100
AcDbLine
 10
2991.927275798062
 20
1124.200043446556
 30
0.0
 11
2991.927275798062
 21
1123.200043446556
 31
0.0
  0
LINE
  5
4B51
330
4B14
100
AcDbEntity
  8
1
100
AcDbLine
 10
3007.477975312011
 20
1124.573973951903
 30
0.0
 11
2994.032015231887
 21
1124.573973951903
 31
0.0
  0
LINE
  5
4B52
330
4B14
100
AcDbEntity
  8
1
100
AcDbLine
 10
2991.927275798062
 20
1123.200043446556
 30
0.0
 11
3007.654145304398
 21
1123.200043446556
 31
0.0
  0
LINE
  5
4B53
330
4B14
100
AcDbEntity
  8
1
100
AcDbLine
 10
2991.927275798062
 20
1124.200043446556
 30
0.0
 11
3007.267979346522
 21
1124.200043446556
 31
0.0
  0
ARC
  5
4B54
330
4B14
100
AcDbEntity
  8
1
100
AcDbCircle
 10
3007.654145304398
 20
1124.200043446556
 30
0.0
 40
1.0
100
AcDbArc
 50
270.0
 51
0.0
  0
LINE
  5
4B55
330
4B14
100
AcDbEntity
  8
1
100
AcDbLine
 10
3009.949670451817
 20
1140.87656394499
 30
0.0
 11
3008.949670451817
 21
1140.87656394499
 31
0.0
  0
LINE
  5
4B56
330
4B14
100
AcDbEntity
  8
1
100
AcDbLine
 10
2991.927275798062
 20
1140.849975431698
 30
0.0
 11
3007.654145304398
 21
1140.849975431698
 31
0.0
  0
LINE
  5
4B57
330
4B14
100
AcDbEntity
  8
1
100
AcDbLine
 10
3007.477975312011
 20
1139.444679096183
 30
0.0
 11
3007.477975312011
 21
1133.624189639103
 31
0.0
  0
LINE
  5
4B58
330
4B14
100
AcDbEntity
  8
1
100
AcDbLine
 10
3007.767979346522
 20
1139.349975431698
 30
0.0
 11
3007.767979346522
 21
1133.849975431699
 31
0.0
  0
LINE
  5
4B59
330
4B14
100
AcDbEntity
  8
1
100
AcDbLine
 10
3008.654145304399
 20
1139.849975431699
 30
0.0
 11
3008.654145304399
 21
1133.849975431699
 31
0.0
  0
LINE
  5
4B5A
330
4B14
100
AcDbEntity
  8
1
100
AcDbLine
 10
3007.477975312011
 20
1133.624189639103
 30
0.0
 11
3008.57002721108
 21
1133.624189639103
 31
0.0
  0
LINE
  5
4B5B
330
4B14
100
AcDbEntity
  8
1
100
AcDbLine
 10
3007.767979346522
 20
1133.849975431699
 30
0.0
 11
3008.654145304399
 21
1133.849975431699
 31
0.0
  0
ARC
  5
4B5C
330
4B14
100
AcDbEntity
  8
1
100
AcDbCircle
 10
3007.267979346522
 20
1139.349975431698
 30
0.0
 40
0.5
100
AcDbArc
 50
0.0
 51
90.0
  0
LINE
  5
4B5D
330
4B14
100
AcDbEntity
  8
1
100
AcDbLine
 10
3007.477975312011
 20
1130.431495219814
 30
0.0
 11
3008.57002721108
 21
1130.431495219814
 31
0.0
  0
LINE
  5
4B5E
330
4B14
100
AcDbEntity
  8
1
100
AcDbLine
 10
3007.767979346522
 20
1130.200043446556
 30
0.0
 11
3008.654145304399
 21
1130.200043446556
 31
0.0
  0
LINE
  5
4B5F
330
4B14
100
AcDbEntity
  8
1
100
AcDbLine
 10
3008.57002721108
 20
1133.624189639103
 30
0.0
 11
3008.57002721108
 21
1130.431495219814
 31
0.0
  0
ARC
  5
4B60
330
4B14
100
AcDbEntity
  8
1
100
AcDbCircle
 10
2992.133056212896
 20
1135.064932852368
 30
0.0
 40
0.5999999999999909
100
AcDbArc
 50
13.56349880585365
 51
193.56349880586
  0
LWPOLYLINE
  5
4B61
330
4B14
100
AcDbEntity
  8
1
100
AcDbPolyline
 90
        7
 70
     0
 43
0.0
 10
2993.713285652829
 20
1139.444679096183
 10
2993.238382969473
 20
1137.392057748035
 10
2993.146224425683
 20
1135.533198088028
 10
2993.745254960316
 20
1133.408787048018
 10
2994.06780986358
 20
1131.549927388014
 10
2994.06780986358
 20
1130.55410971301
 10
2993.95555915931
 20
1130.068940435167
  0
LINE
  5
4B62
330
4B14
100
AcDbEntity
  8
1
100
AcDbLine
 10
2993.95555915931
 20
1130.068940435167
 30
0.0
 11
2992.716322575525
 21
1135.205646569629
 31
0.0
  0
LINE
  5
4B63
330
4B14
100
AcDbEntity
  8
1
100
AcDbLine
 10
2993.10081877501
 20
1128.495116010886
 30
0.0
 11
2991.549789850266
 21
1134.924219135106
 31
0.0
  0
LINE
  5
4B64
330
4B14
100
AcDbEntity
  8
1
100
AcDbLine
 10
3007.477975312011
 20
1139.444679096183
 30
0.0
 11
2993.713285652829
 21
1139.444679096183
 31
0.0
  0
LINE
  5
4B65
330
4B14
100
AcDbEntity
  8
1
100
AcDbLine
 10
2991.927275798062
 20
1139.849975431699
 30
0.0
 11
3007.267979346522
 21
1139.849975431699
 31
0.0
  0
LINE
  5
4B66
330
4B14
100
AcDbEntity
  8
1
100
AcDbLine
 10
2991.927275798062
 20
1140.849975431698
 30
0.0
 11
2991.927275798062
 21
1139.849975431699
 31
0.0
  0
ARC
  5
4B67
330
4B14
100
AcDbEntity
  8
1
100
AcDbCircle
 10
3007.654145304398
 20
1139.849975431699
 30
0.0
 40
1.0
100
AcDbArc
 50
0.0
 51
90.0
  0
ENDBLK
  5
4B16
330
4B14
100
AcDbEntity
  8
0
100
AcDbBlockEnd
  0
BLOCK
  5
4B7F
330
4B75
100
AcDbEntity
  8
0
100
AcDbBlockBegin
  2
*D7
 70
     1
 10
0.0
 20
0.0
 30
0.0
  3
*D7
  1

  0
LINE
  5
4B81
330
4B75
100
AcDbEntity
  8
1
 62
     0
370
    -2
100
AcDbLine
 10
1998.077132588377
 20
890.7536922798684
 30
0.0
 11
1998.077132588377
 21
856.0734950576344
 31
0.0
  0
LINE
  5
4B82
330
4B75
100
AcDbEntity
  8
1
 62
     0
370
    -2
100
AcDbLine
 10
2109.077132588372
 20
890.6877168164117
 30
0.0
 11
2109.077132588372
 21
856.0734950576344
 31
0.0
  0
LINE
  5
4B83
330
4B75
100
AcDbEntity
  8
1
 62
     0
370
    -2
100
AcDbLine
 10
2004.977132588375
 20
861.4734950576346
 30
0.0
 11
2102.177132588372
 21
861.4734950576346
 31
0.0
  0
SOLID
  5
4B84
330
4B75
100
AcDbEntity
  8
1
 62
     0
100
AcDbTrace
 10
2004.977132588375
 20
862.6234950576346
 30
0.0
 11
2004.977132588375
 21
860.3234950576348
 31
0.0
 12
1998.077132588377
 22
861.4734950576346
 32
0.0
 13
1998.077132588377
 23
861.4734950576346
 33
0.0
  0
SOLID
  5
4B85
330
4B75
100
AcDbEntity
  8
1
 62
     0
100
AcDbTrace
 10
2102.177132588372
 20
862.6234950576346
 30
0.0
 11
2102.177132588372
 21
860.3234950576348
 31
0.0
 12
2109.077132588372
 22
861.4734950576346
 32
0.0
 13
2109.077132588372
 23
861.4734950576346
 33
0.0
  0
MTEXT
  5
4B86
330
4B75
100
AcDbEntity
  8
1
 62
     0
100
AcDbMText
 10
2053.577132588374
 20
867.9412582155292
 30
0.0
 40
6.899999999999997
 41
0.0
 71
     5
 72
     1
  1
\A1;%%c110
 73
     1
 44
1.0
  0
POINT
  5
4B87
330
4B75
100
AcDbEntity
  8
DEFPOINTS
 62
     0
100
AcDbPoint
 10
1998.077132588377
 20
894.3536922798685
 30
0.0
  0
POINT
  5
4B88
330
4B75
100
AcDbEntity
  8
DEFPOINTS
 62
     0
100
AcDbPoint
 10
2109.077132588372
 20
894.2877168164116
 30
0.0
  0
POINT
  5
4B89
330
4B75
100
AcDbEntity
  8
DEFPOINTS
 62
     0
100
AcDbPoint
 10
2109.077132588372
 20
861.4734950576346
 30
0.0
  0
ENDBLK
  5
4B80
330
4B75
100
AcDbEntity
  8
0
100
AcDbBlockEnd
  0
BLOCK
  5
4BA4
330
4B99
100
AcDbEntity
  8
0
100
AcDbBlockBegin
  2
*D8
 70
     1
 10
0.0
 20
0.0
 30
0.0
  3
*D8
  1

  0
LINE
  5
4BA6
330
4B99
100
AcDbEntity
  8
1
 62
     0
370
    -2
100
AcDbLine
 10
1937.530076671104
 20
1110.259369078113
 30
0.0
 11
1909.699282448801
 21
1110.259369078113
 31
0.0
  0
LINE
  5
4BA7
330
4B99
100
AcDbEntity
  8
1
 62
     0
370
    -2
100
AcDbLine
 10
1996.929023891187
 20
887.3500525661325
 30
0.0
 11
1909.699282448801
 21
887.3500525661325
 31
0.0
  0
LINE
  5
4BA8
330
4B99
100
AcDbEntity
  8
1
 62
     0
370
    -2
100
AcDbLine
 10
1915.099282448801
 20
1103.359369078112
 30
0.0
 11
1915.099282448801
 21
1016.530368716858
 31
0.0
  0
LINE
  5
4BA9
330
4B99
100
AcDbEntity
  8
1
 62
     0
370
    -2
100
AcDbLine
 10
1915.099282448801
 20
894.2500525661325
 30
0.0
 11
1915.099282448801
 21
981.0790529273862
 31
0.0
  0
SOLID
  5
4BAA
330
4B99
100
AcDbEntity
  8
1
 62
     0
100
AcDbTrace
 10
1913.9492824488
 20
1103.359369078112
 30
0.0
 11
1916.249282448801
 21
1103.359369078112
 31
0.0
 12
1915.099282448801
 22
1110.259369078113
 32
0.0
 13
1915.099282448801
 23
1110.259369078113
 33
0.0
  0
SOLID
  5
4BAB
330
4B99
100
AcDbEntity
  8
1
 62
     0
100
AcDbTrace
 10
1913.9492824488
 20
894.2500525661325
 30
0.0
 11
1916.249282448801
 21
894.2500525661325
 31
0.0
 12
1915.099282448801
 22
887.3500525661325
 32
0.0
 13
1915.099282448801
 23
887.3500525661325
 33
0.0
  0
MTEXT
  5
4BAC
330
4B99
100
AcDbEntity
  8
1
 62
     0
100
AcDbMText
 10
1915.0992824488
 20
998.8047108221234
 30
0.0
 40
6.899999999999997
 41
0.0
 71
     5
 72
     1
  1
\A1;200\PTO\P250
 73
     1
 44
1.0
  0
POINT
  5
4BAD
330
4B99
100
AcDbEntity
  8
DEFPOINTS
 62
     0
100
AcDbPoint
 10
1941.130076671105
 20
1110.259369078113
 30
0.0
  0
POINT
  5
4BAE
330
4B99
100
AcDbEntity
  8
DEFPOINTS
 62
     0
100
AcDbPoint
 10
2000.529023891187
 20
887.3500525661325
 30
0.0
  0
POINT
  5
4BAF
330
4B99
100
AcDbEntity
  8
DEFPOINTS
 62
     0
100
AcDbPoint
 10
1915.099282448801
 20
887.3500525661325
 30
0.0
  0
ENDBLK
  5
4BA5
330
4B99
100
AcDbEntity
  8
0
100
AcDbBlockEnd
  0
BLOCK
  5
4C6F
330
4C64
100
AcDbEntity
  8
0
100
AcDbBlockBegin
  2
*D9
 70
     1
 10
0.0
 20
0.0
 30
0.0
  3
*D9
  1

  0
LINE
  5
4DBC
330
4C64
100
AcDbEntity
  8
1
 62
     0
370
    -2
100
AcDbLine
 10
2168.664906948195
 20
990.9004967642315
 30
0.0
 11
2193.996600737107
 21
990.9004967642315
 31
0.0
  0
LINE
  5
4DBD
330
4C64
100
AcDbEntity
  8
1
 62
     0
370
    -2
100
AcDbLine
 10
2168.664906948195
 20
1044.900496764229
 30
0.0
 11
2193.996600737107
 21
1044.900496764229
 31
0.0
  0
LINE
  5
4DBE
330
4C64
100
AcDbEntity
  8
1
 62
     0
370
    -2
100
AcDbLine
 10
2188.596600737108
 20
997.8004967642318
 30
0.0
 11
2188.596600737108
 21
1012.368445570982
 31
0.0
  0
LINE
  5
4DBF
330
4C64
100
AcDbEntity
  8
1
 62
     0
370
    -2
100
AcDbLine
 10
2188.596600737108
 20
1038.000496764231
 30
0.0
 11
2188.596600737108
 21
1024.91055083414
 31
0.0
  0
SOLID
  5
4DC0
330
4C64
100
AcDbEntity
  8
1
 62
     0
100
AcDbTrace
 10
2187.446600737108
 20
997.8004967642318
 30
0.0
 11
2189.746600737107
 21
997.8004967642318
 31
0.0
 12
2188.596600737108
 22
990.9004967642315
 32
0.0
 13
2188.596600737108
 23
990.9004967642315
 33
0.0
  0
SOLID
  5
4DC1
330
4C64
100
AcDbEntity
  8
1
 62
     0
100
AcDbTrace
 10
2187.446600737108
 20
1038.000496764231
 30
0.0
 11
2189.746600737107
 21
1038.000496764231
 31
0.0
 12
2188.596600737108
 22
1044.900496764229
 32
0.0
 13
2188.596600737108
 23
1044.900496764229
 33
0.0
  0
MTEXT
  5
4DC2
330
4C64
100
AcDbEntity
  8
1
 62
     0
100
AcDbMText
 10
2188.596600737108
 20
1018.639498202561
 30
0.0
 40
6.899999999999997
 41
0.0
 71
     5
 72
     1
  1
\A1;1.5" BSP
 73
     1
 44
1.0
  0
POINT
  5
4DC3
330
4C64
100
AcDbEntity
  8
DEFPOINTS
 62
     0
100
AcDbPoint
 10
2165.064906948196
 20
990.9004967642315
 30
0.0
  0
POINT
  5
4DC4
330
4C64
100
AcDbEntity
  8
DEFPOINTS
 62
     0
100
AcDbPoint
 10
2165.064906948196
 20
1044.900496764229
 30
0.0
  0
POINT
  5
4DC5
330
4C64
100
AcDbEntity
  8
DEFPOINTS
 62
     0
100
AcDbPoint
 10
2188.596600737108
 20
1044.900496764229
 30
0.0
  0
ENDBLK
  5
4C70
330
4C64
100
AcDbEntity
  8
0
100
AcDbBlockEnd
  0
BLOCK
  5
4C9E
330
4C93
100
AcDbEntity
  8
0
100
AcDbBlockBegin
  2
*X10
 70
     1
 10
0.0
 20
0.0
 30
0.0
  3
*X10
  1

  0
LINE
  5
4C94
330
4C93
100
AcDbEntity
  8
0
 62
     0
100
AcDbLine
 10
-650.153379952022
 20
437.4652378605365
 30
0.0
 11
-649.1647996537116
 21
438.4538181588468
 31
0.0
  0
LINE
  5
4C95
330
4C93
100
AcDbEntity
  8
0
 62
     0
100
AcDbLine
 10
-650.3922663497237
 20
437.6682932010764
 30
0.0
 11
-649.6067413919531
 21
438.4538181588468
 31
0.0
  0
LINE
  5
4C96
330
4C93
100
AcDbEntity
  8
0
 62
     0
100
AcDbLine
 10
-650.6311527474252
 20
437.8713485416162
 30
0.0
 11
-650.0486831301948
 21
438.4538181588468
 31
0.0
  0
LINE
  5
4C97
330
4C93
100
AcDbEntity
  8
0
 62
     0
100
AcDbLine
 10
-650.870039145127
 20
438.0744038821561
 30
0.0
 11
-650.4906248684362
 21
438.4538181588468
 31
0.0
  0
LINE
  5
4C98
330
4C93
100
AcDbEntity
  8
0
 62
     0
100
AcDbLine
 10
-651.1089255428287
 20
438.277459222696
 30
0.0
 11
-650.9325666066778
 21
438.4538181588468
 31
0.0
  0
LINE
  5
4C99
330
4C93
100
AcDbEntity
  8
0
 62
     0
100
AcDbLine
 10
-651.3745083449195
 20
438.4538181588468
 30
0.0
 11
-651.3478119405305
 21
438.4805145632356
 31
0.0
  0
LINE
  5
4C9A
330
4C93
100
AcDbEntity
  8
0
 62
     0
100
AcDbLine
 10
-649.9144935543202
 20
437.2621825199963
 30
0.0
 11
-649.0848307404241
 21
438.0918453338925
 31
0.0
  0
LINE
  5
4C9B
330
4C93
100
AcDbEntity
  8
0
 62
     0
100
AcDbLine
 10
-649.6756071566185
 20
437.0591271794567
 30
0.0
 11
-649.0848307404241
 21
437.6499035956511
 31
0.0
  0
LINE
  5
4C9C
330
4C93
100
AcDbEntity
  8
0
 62
     0
100
AcDbLine
 10
-649.4367207589167
 20
436.8560718389169
 30
0.0
 11
-649.0848307404241
 21
437.2079618574096
 31
0.0
  0
LINE
  5
4C9D
330
4C93
100
AcDbEntity
  8
0
 62
     0
100
AcDbLine
 10
-649.1978343612147
 20
436.6530164983768
 30
0.0
 11
-649.0848307404241
 21
436.766020119168
 31
0.0
  0
ENDBLK
  5
4C9F
330
4C93
100
AcDbEntity
  8
0
100
AcDbBlockEnd
  0
BLOCK
  5
4CAE
330
4CA0
100
AcDbEntity
  8
0
100
AcDbBlockBegin
  2
*X11
 70
     1
 10
0.0
 20
0.0
 30
0.0
  3
*X11
  1

  0
LINE
  5
4CA1
330
4CA0
100
AcDbEntity
  8
0
 62
     0
100
AcDbLine
 10
-674.5172693334621
 20
437.9384741682738
 30
0.0
 11
-674.0523376987631
 21
438.4034058029727
 31
0.0
  0
LINE
  5
4CA2
330
4CA0
100
AcDbEntity
  8
0
 62
     0
100
AcDbLine
 10
-674.6176990937306
 20
438.0148211033018
 30
0.0
 11
-674.2291143940597
 21
438.4034058029727
 31
0.0
  0
LINE
  5
4CA3
330
4CA0
100
AcDbEntity
  8
0
 62
     0
100
AcDbLine
 10
-674.718128853999
 20
438.0911680383301
 30
0.0
 11
-674.4058910893564
 21
438.4034058029727
 31
0.0
  0
LINE
  5
4CA4
330
4CA0
100
AcDbEntity
  8
0
 62
     0
100
AcDbLine
 10
-674.8185586142673
 20
438.1675149733584
 30
0.0
 11
-674.582667784653
 21
438.4034058029727
 31
0.0
  0
LINE
  5
4CA5
330
4CA0
100
AcDbEntity
  8
0
 62
     0
100
AcDbLine
 10
-674.9189883745359
 20
438.2438619083865
 30
0.0
 11
-674.7594444799497
 21
438.4034058029727
 31
0.0
  0
LINE
  5
4CA6
330
4CA0
100
AcDbEntity
  8
0
 62
     0
100
AcDbLine
 10
-675.0194181348042
 20
438.3202088434146
 30
0.0
 11
-674.9362211752464
 21
438.4034058029727
 31
0.0
  0
LINE
  5
4CA7
330
4CA0
100
AcDbEntity
  8
0
 62
     0
100
AcDbLine
 10
-675.1198478950727
 20
438.3965557784428
 30
0.0
 11
-675.1129978705429
 21
438.4034058029727
 31
0.0
  0
LINE
  5
4CA8
330
4CA0
100
AcDbEntity
  8
0
 62
     0
100
AcDbLine
 10
-674.4168395731938
 20
437.8621272332456
 30
0.0
 11
-673.9007159006065
 21
438.3782509058328
 31
0.0
  0
LINE
  5
4CA9
330
4CA0
100
AcDbEntity
  8
0
 62
     0
100
AcDbLine
 10
-674.3164098129252
 20
437.7857802982173
 30
0.0
 11
-673.9007159006065
 21
438.2014742105361
 31
0.0
  0
LINE
  5
4CAA
330
4CA0
100
AcDbEntity
  8
0
 62
     0
100
AcDbLine
 10
-674.2159800526567
 20
437.7094333631892
 30
0.0
 11
-673.9007159006065
 21
438.0246975152394
 31
0.0
  0
LINE
  5
4CAB
330
4CA0
100
AcDbEntity
  8
0
 62
     0
100
AcDbLine
 10
-674.1155502923882
 20
437.633086428161
 30
0.0
 11
-673.9007159006065
 21
437.8479208199427
 31
0.0
  0
LINE
  5
4CAC
330
4CA0
100
AcDbEntity
  8
0
 62
     0
100
AcDbLine
 10
-674.0151205321199
 20
437.5567394931326
 30
0.0
 11
-673.9007159006065
 21
437.6711441246462
 31
0.0
  0
LINE
  5
4CAD
330
4CA0
100
AcDbEntity
  8
0
 62
     0
100
AcDbLine
 10
-673.9146907718515
 20
437.4803925581046
 30
0.0
 11
-673.9007159006065
 21
437.4943674293496
 31
0.0
  0
ENDBLK
  5
4CAF
330
4CA0
100
AcDbEntity
  8
0
100
AcDbBlockEnd
  0
BLOCK
  5
4E7F
330
4E67
100
AcDbEntity
  8
0
100
AcDbBlockBegin
  2
*X12
 70
     1
 10
0.0
 20
0.0
 30
0.0
  3
*X12
  1

  0
LINE
  5
4E68
330
4E67
100
AcDbEntity
  8
0
 62
     0
100
AcDbLine
 10
-623.9302995495727
 20
381.5755432976976
 30
0.0
 11
-614.5617905610541
 21
390.9440522862162
 31
0.0
  0
LINE
  5
4E69
330
4E67
100
AcDbEntity
  8
0
 62
     0
100
AcDbLine
 10
-613.8056723237488
 20
391.7001705235218
 30
0.0
 11
-612.8808332083372
 21
392.6250096389334
 31
0.0
  0
LINE
  5
4E6A
330
4E67
100
AcDbEntity
  8
0
 62
     0
100
AcDbLine
 10
-628.4449997445888
 20
383.4248041333606
 30
0.0
 11
-615.4235554359719
 21
396.4462484419773
 31
0.0
  0
LINE
  5
4E6B
330
4E67
100
AcDbEntity
  8
0
 62
     0
100
AcDbLine
 10
-629.5370516436562
 20
388.6967132649721
 30
0.0
 11
-621.7875164666508
 21
396.4462484419773
 31
0.0
  0
LINE
  5
4E6C
330
4E67
100
AcDbEntity
  8
0
 62
     0
100
AcDbLine
 10
-628.4449997445888
 20
396.1527261947184
 30
0.0
 11
-628.1514774973299
 21
396.4462484419773
 31
0.0
  0
LINE
  5
4E6D
330
4E67
100
AcDbEntity
  8
0
 62
     0
100
AcDbLine
 10
-617.5663385188937
 20
381.5755432976978
 30
0.0
 11
-615.0268103541512
 21
384.1150714624403
 31
0.0
  0
LINE
  5
4E6E
330
4E67
100
AcDbEntity
  8
0
 62
     0
100
AcDbLine
 10
-622.8696393795727
 20
381.5755432976978
 30
0.0
 11
-614.8545140772687
 21
389.5906686000015
 31
0.0
  0
LINE
  5
4E6F
330
4E67
100
AcDbEntity
  8
0
 62
     0
100
AcDbLine
 10
-614.1429190600057
 20
390.3022636172646
 30
0.0
 11
-612.5160076678881
 21
391.9291750093825
 31
0.0
  0
LINE
  5
4E70
330
4E67
100
AcDbEntity
  8
0
 62
     0
100
AcDbLine
 10
-628.4449997445888
 20
382.3641439633606
 30
0.0
 11
-614.6206702372349
 21
396.1884734707142
 31
0.0
  0
LINE
  5
4E71
330
4E67
100
AcDbEntity
  8
0
 62
     0
100
AcDbLine
 10
-629.5370516436562
 20
387.6360530949721
 30
0.0
 11
-620.7268562966508
 21
396.4462484419773
 31
0.0
  0
LINE
  5
4E72
330
4E67
100
AcDbEntity
  8
0
 62
     0
100
AcDbLine
 10
-628.4449997445888
 20
395.0920660247184
 30
0.0
 11
-627.0908173273299
 21
396.4462484419773
 31
0.0
  0
LINE
  5
4E73
330
4E67
100
AcDbEntity
  8
0
 62
     0
100
AcDbLine
 10
-616.5056783488937
 20
381.5755432976978
 30
0.0
 11
-615.265230655631
 21
382.8159909909604
 31
0.0
  0
LINE
  5
4E74
330
4E67
100
AcDbEntity
  8
0
 62
     0
100
AcDbLine
 10
-628.1729402342517
 20
381.5755432976976
 30
0.0
 11
-614.4213801978792
 21
395.3271033340702
 31
0.0
  0
LINE
  5
4E75
330
4E67
100
AcDbEntity
  8
0
 62
     0
100
AcDbLine
 10
-628.6793799970197
 20
387.4330645656086
 30
0.0
 11
-619.6661961206507
 21
396.4462484419773
 31
0.0
  0
LINE
  5
4E76
330
4E67
100
AcDbEntity
  8
0
 62
     0
100
AcDbLine
 10
-628.4449997445888
 20
394.0314058487183
 30
0.0
 11
-626.0301571513297
 21
396.4462484419773
 31
0.0
  0
LINE
  5
4E77
330
4E67
100
AcDbEntity
  8
0
 62
     0
100
AcDbLine
 10
-621.8089792035727
 20
381.5755432976978
 30
0.0
 11
-615.0348342961567
 21
388.3496882051137
 31
0.0
  0
LINE
  5
4E78
330
4E67
100
AcDbEntity
  8
0
 62
     0
100
AcDbLine
 10
-614.480165798171
 20
388.9043567030995
 30
0.0
 11
-612.8532407135801
 21
390.5312817876902
 31
0.0
  0
LINE
  5
4E79
330
4E67
100
AcDbEntity
  8
0
 62
     0
100
AcDbLine
 10
-615.4450181728937
 20
381.5755432976978
 30
0.0
 11
-615.1101886743478
 21
381.9103727962438
 31
0.0
  0
LINE
  5
4E7A
330
4E67
100
AcDbEntity
  8
0
 62
     0
100
AcDbLine
 10
-627.1122800642517
 20
381.5755432976976
 30
0.0
 11
-614.2220901596507
 21
394.4657332022986
 31
0.0
  0
LINE
  5
4E7B
330
4E67
100
AcDbEntity
  8
0
 62
     0
100
AcDbLine
 10
-628.4449997445888
 20
386.6067846480396
 30
0.0
 11
-618.6055359506507
 21
396.4462484419773
 31
0.0
  0
LINE
  5
4E7C
330
4E67
100
AcDbEntity
  8
0
 62
     0
100
AcDbLine
 10
-628.4449997445888
 20
392.9707456787186
 30
0.0
 11
-624.9694969813297
 21
396.4462484419773
 31
0.0
  0
LINE
  5
4E7D
330
4E67
100
AcDbEntity
  8
0
 62
     0
100
AcDbLine
 10
-620.7483190335728
 20
381.5755432976978
 30
0.0
 11
-614.9847325819527
 21
387.3391297493178
 31
0.0
  0
LINE
  5
4E7E
330
4E67
100
AcDbEntity
  8
0
 62
     0
100
AcDbLine
 10
-614.817412534428
 20
387.5064497968425
 30
0.0
 11
-613.1904874498372
 21
389.133374881433
 31
0.0
  0
ENDBLK
  5
4E80
330
4E67
100
AcDbEntity
  8
0
100
AcDbBlockEnd
  0
BLOCK
  5
4E8C
330
4E81
100
AcDbEntity
  8
0
100
AcDbBlockBegin
  2
*D13
 70
     1
 10
0.0
 20
0.0
 30
0.0
  3
*D13
  1

  0
LINE
  5
4E82
330
4E81
100
AcDbEntity
  8
1
 62
     0
370
    -2
100
AcDbLine
 10
-667.2599625158857
 20
600.1643150618669
 30
0.0
 11
-641.9282687269737
 21
600.1643150618669
 31
0.0
  0
LINE
  5
4E83
330
4E81
100
AcDbEntity
  8
1
 62
     0
370
    -2
100
AcDbLine
 10
-667.2599625158857
 20
654.1643150618668
 30
0.0
 11
-641.9282687269737
 21
654.1643150618668
 31
0.0
  0
LINE
  5
4E84
330
4E81
100
AcDbEntity
  8
1
 62
     0
370
    -2
100
AcDbLine
 10
-647.3282687269737
 20
607.0643150618669
 30
0.0
 11
-647.3282687269737
 21
621.6322638686182
 31
0.0
  0
LINE
  5
4E85
330
4E81
100
AcDbEntity
  8
1
 62
     0
370
    -2
100
AcDbLine
 10
-647.3282687269737
 20
647.2643150618668
 30
0.0
 11
-647.3282687269737
 21
634.1743691317763
 31
0.0
  0
SOLID
  5
4E86
330
4E81
100
AcDbEntity
  8
1
 62
     0
100
AcDbTrace
 10
-648.4782687269737
 20
607.0643150618669
 30
0.0
 11
-646.1782687269736
 21
607.0643150618669
 31
0.0
 12
-647.3282687269737
 22
600.1643150618669
 32
0.0
 13
-647.3282687269737
 23
600.1643150618669
 33
0.0
  0
SOLID
  5
4E87
330
4E81
100
AcDbEntity
  8
1
 62
     0
100
AcDbTrace
 10
-648.4782687269737
 20
647.2643150618668
 30
0.0
 11
-646.1782687269736
 21
647.2643150618668
 31
0.0
 12
-647.3282687269737
 22
654.1643150618668
 32
0.0
 13
-647.3282687269737
 23
654.1643150618668
 33
0.0
  0
MTEXT
  5
4E88
330
4E81
100
AcDbEntity
  8
1
 62
     0
100
AcDbMText
 10
-647.3282687269739
 20
627.9033165001971
 30
0.0
 40
6.9
 41
0.0
 71
     5
 72
     1
  1
\A1;1.5" BSP
 73
     1
 44
1.0
  0
POINT
  5
4E89
330
4E81
100
AcDbEntity
  8
DEFPOINTS
 62
     0
100
AcDbPoint
 10
-670.8599625158857
 20
600.1643150618669
 30
0.0
  0
POINT
  5
4E8A
330
4E81
100
AcDbEntity
  8
DEFPOINTS
 62
     0
100
AcDbPoint
 10
-670.8599625158857
 20
654.1643150618668
 30
0.0
  0
POINT
  5
4E8B
330
4E81
100
AcDbEntity
  8
DEFPOINTS
 62
     0
100
AcDbPoint
 10
-647.3282687269737
 20
654.1643150618668
 30
0.0
  0
ENDBLK
  5
4E8D
330
4E81
100
AcDbEntity
  8
0
100
AcDbBlockEnd
  0
BLOCK
  5
4F39
330
4F2E
100
AcDbEntity
  8
0
100
AcDbBlockBegin
  2
*D14
 70
     1
 10
0.0
 20
0.0
 30
0.0
  3
*D14
  1

  0
LINE
  5
4F50
330
4F2E
100
AcDbEntity
  8
1
 62
     0
370
    -2
100
AcDbLine
 10
2169.142512294439
 20
896.7628417484807
 30
0.0
 11
2194.47420608335
 21
896.7628417484807
 31
0.0
  0
LINE
  5
4F51
330
4F2E
100
AcDbEntity
  8
1
 62
     0
370
    -2
100
AcDbLine
 10
2169.142512294439
 20
950.7628417484808
 30
0.0
 11
2194.47420608335
 21
950.7628417484808
 31
0.0
  0
LINE
  5
4F52
330
4F2E
100
AcDbEntity
  8
1
 62
     0
370
    -2
100
AcDbLine
 10
2189.074206083351
 20
903.6628417484806
 30
0.0
 11
2189.074206083351
 21
918.2307905552319
 31
0.0
  0
LINE
  5
4F53
330
4F2E
100
AcDbEntity
  8
1
 62
     0
370
    -2
100
AcDbLine
 10
2189.074206083351
 20
943.8628417484807
 30
0.0
 11
2189.074206083351
 21
930.7728958183895
 31
0.0
  0
SOLID
  5
4F54
330
4F2E
100
AcDbEntity
  8
1
 62
     0
100
AcDbTrace
 10
2187.924206083351
 20
903.6628417484806
 30
0.0
 11
2190.224206083351
 21
903.6628417484806
 31
0.0
 12
2189.074206083351
 22
896.7628417484807
 32
0.0
 13
2189.074206083351
 23
896.7628417484807
 33
0.0
  0
SOLID
  5
4F55
330
4F2E
100
AcDbEntity
  8
1
 62
     0
100
AcDbTrace
 10
2187.924206083351
 20
943.8628417484807
 30
0.0
 11
2190.224206083351
 21
943.8628417484807
 31
0.0
 12
2189.074206083351
 22
950.7628417484808
 32
0.0
 13
2189.074206083351
 23
950.7628417484808
 33
0.0
  0
MTEXT
  5
4F56
330
4F2E
100
AcDbEntity
  8
1
 62
     0
100
AcDbMText
 10
2189.074206083351
 20
924.5018431868112
 30
0.0
 40
6.9
 41
0.0
 71
     5
 72
     1
  1
\A1;1.5" BSP
 73
     1
 44
1.0
  0
POINT
  5
4F57
330
4F2E
100
AcDbEntity
  8
DEFPOINTS
 62
     0
100
AcDbPoint
 10
2165.542512294439
 20
896.7628417484807
 30
0.0
  0
POINT
  5
4F58
330
4F2E
100
AcDbEntity
  8
DEFPOINTS
 62
     0
100
AcDbPoint
 10
2165.542512294439
 20
950.7628417484808
 30
0.0
  0
POINT
  5
4F59
330
4F2E
100
AcDbEntity
  8
DEFPOINTS
 62
     0
100
AcDbPoint
 10
2189.074206083351
 20
950.7628417484808
 30
0.0
  0
ENDBLK
  5
4F3A
330
4F2E
100
AcDbEntity
  8
0
100
AcDbBlockEnd
  0
BLOCK
  5
575C
330
5752
100
AcDbEntity
  8
0
100
AcDbBlockBegin
  2
*D15
 70
     1
 10
0.0
 20
0.0
 30
0.0
  3
*D15
  1

  0
LINE
  5
575E
330
5752
100
AcDbEntity
  8
1
 62
     0
370
    -2
100
AcDbLine
 10
1972.66967073714
 20
1093.722873295938
 30
0.0
 11
1972.66967073714
 21
1116.124607224307
 31
0.0
  0
LINE
  5
575F
330
5752
100
AcDbEntity
  8
1
 62
     0
370
    -2
100
AcDbLine
 10
2392.669670737137
 20
1093.722873295938
 30
0.0
 11
2392.669670737137
 21
1116.124607224307
 31
0.0
  0
LINE
  5
5760
330
5752
100
AcDbEntity
  8
1
 62
     0
370
    -2
100
AcDbLine
 10
1979.569670737141
 20
1110.724607224307
 30
0.0
 11
2385.769670737138
 21
1110.724607224307
 31
0.0
  0
SOLID
  5
5761
330
5752
100
AcDbEntity
  8
1
 62
     0
100
AcDbTrace
 10
1979.569670737141
 20
1111.874607224307
 30
0.0
 11
1979.569670737141
 21
1109.574607224306
 31
0.0
 12
1972.66967073714
 22
1110.724607224307
 32
0.0
 13
1972.66967073714
 23
1110.724607224307
 33
0.0
  0
SOLID
  5
5762
330
5752
100
AcDbEntity
  8
1
 62
     0
100
AcDbTrace
 10
2385.769670737138
 20
1111.874607224307
 30
0.0
 11
2385.769670737138
 21
1109.574607224306
 31
0.0
 12
2392.669670737137
 22
1110.724607224307
 32
0.0
 13
2392.669670737137
 23
1110.724607224307
 33
0.0
  0
MTEXT
  5
5763
330
5752
100
AcDbEntity
  8
1
 62
     0
100
AcDbMText
 10
2182.669670737138
 20
1116.990615996237
 30
0.0
 40
6.9
 41
0.0
 71
     5
 72
     1
  1
\A1;FRAME SIZE
 73
     1
 44
1.0
  0
POINT
  5
5764
330
5752
100
AcDbEntity
  8
DEFPOINTS
 62
     0
100
AcDbPoint
 10
1972.66967073714
 20
1090.122873295938
 30
0.0
  0
POINT
  5
5765
330
5752
100
AcDbEntity
  8
DEFPOINTS
 62
     0
100
AcDbPoint
 10
2392.669670737137
 20
1090.122873295938
 30
0.0
  0
POINT
  5
5766
330
5752
100
AcDbEntity
  8
DEFPOINTS
 62
     0
100
AcDbPoint
 10
2392.669670737137
 20
1110.724607224307
 30
0.0
  0
ENDBLK
  5
575D
330
5752
100
AcDbEntity
  8
0
100
AcDbBlockEnd
  0
BLOCK
  5
5773
330
5768
100
AcDbEntity
  8
0
100
AcDbBlockBegin
  2
*D16
 70
     1
 10
0.0
 20
0.0
 30
0.0
  3
*D16
  1

  0
LINE
  5
5775
330
5768
100
AcDbEntity
  8
1
 62
     0
370
    -2
100
AcDbLine
 10
1969.069670737139
 20
1090.122873295938
 30
0.0
 11
1938.966500917851
 21
1090.122873295938
 31
0.0
  0
LINE
  5
5776
330
5768
100
AcDbEntity
  8
1
 62
     0
370
    -2
100
AcDbLine
 10
2003.06967073714
 20
999.1228732959392
 30
0.0
 11
1938.966500917851
 21
999.1228732959392
 31
0.0
  0
LINE
  5
5777
330
5768
100
AcDbEntity
  8
1
 62
     0
370
    -2
100
AcDbLine
 10
1944.36650091785
 20
1083.222873295939
 30
0.0
 11
1944.36650091785
 21
1050.813224173132
 31
0.0
  0
LINE
  5
5778
330
5768
100
AcDbEntity
  8
1
 62
     0
370
    -2
100
AcDbLine
 10
1944.36650091785
 20
1006.022873295939
 30
0.0
 11
1944.36650091785
 21
1038.432522418746
 31
0.0
  0
SOLID
  5
5779
330
5768
100
AcDbEntity
  8
1
 62
     0
100
AcDbTrace
 10
1943.21650091785
 20
1083.222873295939
 30
0.0
 11
1945.51650091785
 21
1083.222873295939
 31
0.0
 12
1944.36650091785
 22
1090.122873295938
 32
0.0
 13
1944.36650091785
 23
1090.122873295938
 33
0.0
  0
SOLID
  5
577A
330
5768
100
AcDbEntity
  8
1
 62
     0
100
AcDbTrace
 10
1943.21650091785
 20
1006.022873295939
 30
0.0
 11
1945.51650091785
 21
1006.022873295939
 31
0.0
 12
1944.36650091785
 22
999.1228732959392
 32
0.0
 13
1944.36650091785
 23
999.1228732959392
 33
0.0
  0
MTEXT
  5
577B
330
5768
100
AcDbEntity
  8
1
 62
     0
100
AcDbMText
 10
1944.36650091785
 20
1044.622873295937
 30
0.0
 40
6.9
 41
0.0
 71
     5
 72
     1
  1
\A1;DEPTH
 73
     1
 44
1.0
  0
POINT
  5
577C
330
5768
100
AcDbEntity
  8
DEFPOINTS
 62
     0
100
AcDbPoint
 10
1972.66967073714
 20
1090.122873295938
 30
0.0
  0
POINT
  5
577D
330
5768
100
AcDbEntity
  8
DEFPOINTS
 62
     0
100
AcDbPoint
 10
2006.66967073714
 20
999.1228732959392
 30
0.0
  0
POINT
  5
577E
330
5768
100
AcDbEntity
  8
DEFPOINTS
 62
     0
100
AcDbPoint
 10
1944.36650091785
 20
999.1228732959392
 30
0.0
  0
ENDBLK
  5
5774
330
5768
100
AcDbEntity
  8
0
100
AcDbBlockEnd
  0
BLOCK
  5
578B
330
5780
100
AcDbEntity
  8
0
100
AcDbBlockBegin
  2
*D17
 70
     1
 10
0.0
 20
0.0
 30
0.0
  3
*D17
  1

  0
LINE
  5
57A1
330
5780
100
AcDbEntity
  8
1
 62
     0
370
    -2
100
AcDbLine
 10
2078.769670737139
 20
1090.122873295938
 30
0.0
 11
2091.8387760654
 21
1090.122873295938
 31
0.0
  0
LINE
  5
57A2
330
5780
100
AcDbEntity
  8
1
 62
     0
370
    -2
100
AcDbLine
 10
2085.219193051141
 20
1040.122873295937
 30
0.0
 11
2091.8387760654
 21
1040.122873295937
 31
0.0
  0
LINE
  5
57A3
330
5780
100
AcDbEntity
  8
1
 62
     0
370
    -2
100
AcDbLine
 10
2086.438776065401
 20
1083.222873295939
 30
0.0
 11
2086.438776065401
 21
1071.32331189243
 31
0.0
  0
LINE
  5
57A4
330
5780
100
AcDbEntity
  8
1
 62
     0
370
    -2
100
AcDbLine
 10
2086.438776065401
 20
1047.022873295939
 30
0.0
 11
2086.438776065401
 21
1058.922434699447
 31
0.0
  0
SOLID
  5
57A5
330
5780
100
AcDbEntity
  8
1
 62
     0
100
AcDbTrace
 10
2085.288776065401
 20
1083.222873295939
 30
0.0
 11
2087.588776065401
 21
1083.222873295939
 31
0.0
 12
2086.438776065401
 22
1090.122873295938
 32
0.0
 13
2086.438776065401
 23
1090.122873295938
 33
0.0
  0
SOLID
  5
57A6
330
5780
100
AcDbEntity
  8
1
 62
     0
100
AcDbTrace
 10
2085.288776065401
 20
1047.022873295939
 30
0.0
 11
2087.588776065401
 21
1047.022873295939
 31
0.0
 12
2086.438776065401
 22
1040.122873295937
 32
0.0
 13
2086.438776065401
 23
1040.122873295937
 33
0.0
  0
MTEXT
  5
57A7
330
5780
100
AcDbEntity
  8
1
 62
     0
100
AcDbMText
 10
2086.438776065401
 20
1065.122873295939
 30
0.0
 40
6.9
 41
0.0
 71
     5
 72
     1
  1
\A1;TRAY DEPTH
 73
     1
 44
1.0
  0
POINT
  5
57A8
330
5780
100
AcDbEntity
  8
DEFPOINTS
 62
     0
100
AcDbPoint
 10
2075.169670737138
 20
1090.122873295938
 30
0.0
  0
POINT
  5
57A9
330
5780
100
AcDbEntity
  8
DEFPOINTS
 62
     0
100
AcDbPoint
 10
2081.619193051142
 20
1040.122873295937
 30
0.0
  0
POINT
  5
57AA
330
5780
100
AcDbEntity
  8
DEFPOINTS
 62
     0
100
AcDbPoint
 10
2086.438776065401
 20
1040.122873295937
 30
0.0
  0
ENDBLK
  5
578C
330
5780
100
AcDbEntity
  8
0
100
AcDbBlockEnd
  0
BLOCK
  5
57D0
330
57C6
100
AcDbEntity
  8
0
100
AcDbBlockBegin
  2
*D18
 70
     1
 10
0.0
 20
0.0
 30
0.0
  3
*D18
  1

  0
LINE
  5
57D2
330
57C6
100
AcDbEntity
  8
1
 62
     0
370
    -2
100
AcDbLine
 10
2051.66967073714
 20
998.5228732959384
 30
0.0
 11
2051.66967073714
 21
981.6083454807879
 31
0.0
  0
LINE
  5
57D3
330
57C6
100
AcDbEntity
  8
1
 62
     0
370
    -2
100
AcDbLine
 10
2313.66967073714
 20
1002.969454816071
 30
0.0
 11
2313.66967073714
 21
981.6083454807879
 31
0.0
  0
LINE
  5
57D4
330
57C6
100
AcDbEntity
  8
1
 62
     0
370
    -2
100
AcDbLine
 10
2058.569670737139
 20
987.0083454807879
 30
0.0
 11
2306.769670737139
 21
987.0083454807879
 31
0.0
  0
SOLID
  5
57D5
330
57C6
100
AcDbEntity
  8
1
 62
     0
100
AcDbTrace
 10
2058.569670737139
 20
988.1583454807879
 30
0.0
 11
2058.569670737139
 21
985.8583454807879
 31
0.0
 12
2051.66967073714
 22
987.0083454807879
 32
0.0
 13
2051.66967073714
 23
987.0083454807879
 33
0.0
  0
SOLID
  5
57D6
330
57C6
100
AcDbEntity
  8
1
 62
     0
100
AcDbTrace
 10
2306.769670737139
 20
988.1583454807879
 30
0.0
 11
2306.769670737139
 21
985.8583454807879
 31
0.0
 12
2313.66967073714
 22
987.0083454807879
 32
0.0
 13
2313.66967073714
 23
987.0083454807879
 33
0.0
  0
MTEXT
  5
57D7
330
57C6
100
AcDbEntity
  8
1
 62
     0
100
AcDbMText
 10
2182.669670737138
 20
993.2289595158755
 30
0.0
 40
6.9
 41
0.0
 71
     5
 72
     1
  1
\A1;OPENING
 73
     1
 44
1.0
  0
POINT
  5
57D8
330
57C6
100
AcDbEntity
  8
DEFPOINTS
 62
     0
100
AcDbPoint
 10
2051.66967073714
 20
1002.122873295939
 30
0.0
  0
POINT
  5
57D9
330
57C6
100
AcDbEntity
  8
DEFPOINTS
 62
     0
100
AcDbPoint
 10
2313.66967073714
 20
1006.569454816071
 30
0.0
  0
POINT
  5
57DA
330
57C6
100
AcDbEntity
  8
DEFPOINTS
 62
     0
100
AcDbPoint
 10
2313.66967073714
 20
987.0083454807879
 30
0.0
  0
ENDBLK
  5
57D1
330
57C6
100
AcDbEntity
  8
0
100
AcDbBlockEnd
  0
BLOCK
  5
57F8
330
57EE
100
AcDbEntity
  8
0
100
AcDbBlockBegin
  2
*D19
 70
     1
 10
0.0
 20
0.0
 30
0.0
  3
*D19
  1

  0
LINE
  5
5834
330
57EE
100
AcDbEntity
  8
1
 62
     0
370
    -2
100
AcDbLine
 10
1869.47669646736
 20
1021.293921168499
 30
0.0
 11
1869.47669646736
 21
1036.004853792632
 31
0.0
  0
LINE
  5
5835
330
57EE
100
AcDbEntity
  8
1
 62
     0
370
    -2
100
AcDbLine
 10
2019.47669646736
 20
1021.293921168499
 30
0.0
 11
2019.47669646736
 21
1036.004853792632
 31
0.0
  0
LINE
  5
5836
330
57EE
100
AcDbEntity
  8
1
 62
     0
370
    -2
100
AcDbLine
 10
1875.22669646736
 20
1031.504853792632
 30
0.0
 11
2013.72669646736
 21
1031.504853792632
 31
0.0
  0
SOLID
  5
5837
330
57EE
100
AcDbEntity
  8
1
 62
     0
100
AcDbTrace
 10
1875.22669646736
 20
1032.463187125965
 30
0.0
 11
1875.22669646736
 21
1030.546520459297
 31
0.0
 12
1869.47669646736
 22
1031.504853792632
 32
0.0
 13
1869.47669646736
 23
1031.504853792632
 33
0.0
  0
SOLID
  5
5838
330
57EE
100
AcDbEntity
  8
1
 62
     0
100
AcDbTrace
 10
2013.72669646736
 20
1032.463187125965
 30
0.0
 11
2013.72669646736
 21
1030.546520459297
 31
0.0
 12
2019.47669646736
 22
1031.504853792632
 32
0.0
 13
2019.47669646736
 23
1031.504853792632
 33
0.0
  0
MTEXT
  5
5839
330
57EE
100
AcDbEntity
  8
1
 62
     0
100
AcDbMText
 10
1944.47669646736
 20
1036.688698821871
 30
0.0
 40
5.75
 41
0.0
 71
     5
 72
     1
  1
\A1;CHANNEL WIDTH
 73
     1
 44
1.0
  0
POINT
  5
583A
330
57EE
100
AcDbEntity
  8
DEFPOINTS
 62
     0
100
AcDbPoint
 10
1869.47669646736
 20
1018.293921168499
 30
0.0
  0
POINT
  5
583B
330
57EE
100
AcDbEntity
  8
DEFPOINTS
 62
     0
100
AcDbPoint
 10
2019.47669646736
 20
1018.293921168499
 30
0.0
  0
POINT
  5
583C
330
57EE
100
AcDbEntity
  8
DEFPOINTS
 62
     0
100
AcDbPoint
 10
2019.47669646736
 20
1031.504853792632
 30
0.0
  0
ENDBLK
  5
57F9
330
57EE
100
AcDbEntity
  8
0
100
AcDbBlockEnd
  0
BLOCK
  5
5805
330
57FB
100
AcDbEntity
  8
0
100
AcDbBlockBegin
  2
*D20
 70
     1
 10
0.0
 20
0.0
 30
0.0
  3
*D20
  1

  0
LINE
  5
583D
330
57FB
100
AcDbEntity
  8
1
 62
     0
370
    -2
100
AcDbLine
 10
1844.47669646736
 20
1021.293921168499
 30
0.0
 11
1844.47669646736
 21
1053.341609339367
 31
0.0
  0
LINE
  5
583E
330
57FB
100
AcDbEntity
  8
1
 62
     0
370
    -2
100
AcDbLine
 10
2044.47669646736
 20
1021.293921168499
 30
0.0
 11
2044.47669646736
 21
1053.341609339367
 31
0.0
  0
LINE
  5
583F
330
57FB
100
AcDbEntity
  8
1
 62
     0
370
    -2
100
AcDbLine
 10
1850.22669646736
 20
1048.841609339367
 30
0.0
 11
2038.72669646736
 21
1048.841609339367
 31
0.0
  0
SOLID
  5
5840
330
57FB
100
AcDbEntity
  8
1
 62
     0
100
AcDbTrace
 10
1850.22669646736
 20
1049.7999426727
 30
0.0
 11
1850.22669646736
 21
1047.883276006033
 31
0.0
 12
1844.47669646736
 22
1048.841609339367
 32
0.0
 13
1844.47669646736
 23
1048.841609339367
 33
0.0
  0
SOLID
  5
5841
330
57FB
100
AcDbEntity
  8
1
 62
     0
100
AcDbTrace
 10
2038.72669646736
 20
1049.7999426727
 30
0.0
 11
2038.72669646736
 21
1047.883276006033
 31
0.0
 12
2044.47669646736
 22
1048.841609339367
 32
0.0
 13
2044.47669646736
 23
1048.841609339367
 33
0.0
  0
MTEXT
  5
5842
330
57FB
100
AcDbEntity
  8
1
 62
     0
100
AcDbMText
 10
1944.47669646736
 20
1054.025454368606
 30
0.0
 40
5.75
 41
0.0
 71
     5
 72
     1
  1
\A1;200
 73
     1
 44
1.0
  0
POINT
  5
5843
330
57FB
100
AcDbEntity
  8
DEFPOINTS
 62
     0
100
AcDbPoint
 10
1844.47669646736
 20
1018.293921168499
 30
0.0
  0
POINT
  5
5844
330
57FB
100
AcDbEntity
  8
DEFPOINTS
 62
     0
100
AcDbPoint
 10
2044.47669646736
 20
1018.293921168499
 30
0.0
  0
POINT
  5
5845
330
57FB
100
AcDbEntity
  8
DEFPOINTS
 62
     0
100
AcDbPoint
 10
2044.47669646736
 20
1048.841609339367
 30
0.0
  0
ENDBLK
  5
5806
330
57FB
100
AcDbEntity
  8
0
100
AcDbBlockEnd
  0
BLOCK
  5
5851
330
5847
100
AcDbEntity
  8
0
100
AcDbBlockBegin
  2
*D21
 70
     1
 10
0.0
 20
0.0
 30
0.0
  3
*D21
  1

  0
LINE
  5
5848
330
5847
100
AcDbEntity
  8
1
 62
     0
370
    -2
100
AcDbLine
 10
1869.47669646736
 20
1021.293921168499
 30
0.0
 11
1869.47669646736
 21
1036.004853792632
 31
0.0
  0
LINE
  5
5849
330
5847
100
AcDbEntity
  8
1
 62
     0
370
    -2
100
AcDbLine
 10
1844.47669646736
 20
1021.293921168499
 30
0.0
 11
1844.47669646736
 21
1036.004853792632
 31
0.0
  0
LINE
  5
584A
330
5847
100
AcDbEntity
  8
1
 62
     0
370
    -2
100
AcDbLine
 10
1863.72669646736
 20
1031.504853792632
 30
0.0
 11
1850.22669646736
 21
1031.504853792632
 31
0.0
  0
SOLID
  5
584B
330
5847
100
AcDbEntity
  8
1
 62
     0
100
AcDbTrace
 10
1863.72669646736
 20
1032.463187125965
 30
0.0
 11
1863.72669646736
 21
1030.546520459297
 31
0.0
 12
1869.47669646736
 22
1031.504853792632
 32
0.0
 13
1869.47669646736
 23
1031.504853792632
 33
0.0
  0
SOLID
  5
584C
330
5847
100
AcDbEntity
  8
1
 62
     0
100
AcDbTrace
 10
1850.22669646736
 20
1032.463187125965
 30
0.0
 11
1850.22669646736
 21
1030.546520459297
 31
0.0
 12
1844.47669646736
 22
1031.504853792632
 32
0.0
 13
1844.47669646736
 23
1031.504853792632
 33
0.0
  0
MTEXT
  5
584D
330
5847
100
AcDbEntity
  8
1
 62
     0
100
AcDbMText
 10
1856.97669646736
 20
1036.692902038246
 30
0.0
 40
5.75
 41
0.0
 71
     5
 72
     1
  1
\A1;25
 73
     1
 44
1.0
  0
POINT
  5
584E
330
5847
100
AcDbEntity
  8
DEFPOINTS
 62
     0
100
AcDbPoint
 10
1869.47669646736
 20
1018.293921168499
 30
0.0
  0
POINT
  5
584F
330
5847
100
AcDbEntity
  8
DEFPOINTS
 62
     0
100
AcDbPoint
 10
1844.47669646736
 20
1018.293921168499
 30
0.0
  0
POINT
  5
5850
330
5847
100
AcDbEntity
  8
DEFPOINTS
 62
     0
100
AcDbPoint
 10
1844.47669646736
 20
1031.504853792632
 30
0.0
  0
ENDBLK
  5
5852
330
5847
100
AcDbEntity
  8
0
100
AcDbBlockEnd
  0
BLOCK
  5
585E
330
5854
100
AcDbEntity
  8
0
100
AcDbBlockBegin
  2
*D22
 70
     1
 10
0.0
 20
0.0
 30
0.0
  3
*D22
  1

  0
LINE
  5
5855
330
5854
100
AcDbEntity
  8
1
 62
     0
370
    -2
100
AcDbLine
 10
2019.47669646736
 20
1021.293921168499
 30
0.0
 11
2019.47669646736
 21
1036.004853792632
 31
0.0
  0
LINE
  5
5856
330
5854
100
AcDbEntity
  8
1
 62
     0
370
    -2
100
AcDbLine
 10
2044.47669646736
 20
1021.293921168499
 30
0.0
 11
2044.47669646736
 21
1036.004853792632
 31
0.0
  0
LINE
  5
5857
330
5854
100
AcDbEntity
  8
1
 62
     0
370
    -2
100
AcDbLine
 10
2025.22669646736
 20
1031.504853792632
 30
0.0
 11
2038.72669646736
 21
1031.504853792632
 31
0.0
  0
SOLID
  5
5858
330
5854
100
AcDbEntity
  8
1
 62
     0
100
AcDbTrace
 10
2025.22669646736
 20
1032.463187125965
 30
0.0
 11
2025.22669646736
 21
1030.546520459297
 31
0.0
 12
2019.47669646736
 22
1031.504853792632
 32
0.0
 13
2019.47669646736
 23
1031.504853792632
 33
0.0
  0
SOLID
  5
5859
330
5854
100
AcDbEntity
  8
1
 62
     0
100
AcDbTrace
 10
2038.72669646736
 20
1032.463187125965
 30
0.0
 11
2038.72669646736
 21
1030.546520459297
 31
0.0
 12
2044.47669646736
 22
1031.504853792632
 32
0.0
 13
2044.47669646736
 23
1031.504853792632
 33
0.0
  0
MTEXT
  5
585A
330
5854
100
AcDbEntity
  8
1
 62
     0
100
AcDbMText
 10
2031.97669646736
 20
1036.692902038246
 30
0.0
 40
5.75
 41
0.0
 71
     5
 72
     1
  1
\A1;25
 73
     1
 44
1.0
  0
POINT
  5
585B
330
5854
100
AcDbEntity
  8
DEFPOINTS
 62
     0
100
AcDbPoint
 10
2019.47669646736
 20
1018.293921168499
 30
0.0
  0
POINT
  5
585C
330
5854
100
AcDbEntity
  8
DEFPOINTS
 62
     0
100
AcDbPoint
 10
2044.47669646736
 20
1018.293921168499
 30
0.0
  0
POINT
  5
585D
330
5854
100
AcDbEntity
  8
DEFPOINTS
 62
     0
100
AcDbPoint
 10
2044.47669646736
 20
1031.504853792632
 30
0.0
  0
ENDBLK
  5
585F
330
5854
100
AcDbEntity
  8
0
100
AcDbBlockEnd
  0
BLOCK
  5
586C
330
5861
100
AcDbEntity
  8
0
100
AcDbBlockBegin
  2
*D23
 70
     1
 10
0.0
 20
0.0
 30
0.0
  3
*D23
  1

  0
LINE
  5
5878
330
5861
100
AcDbEntity
  8
1
 62
     0
370
    -2
100
AcDbLine
 10
1841.47669646736
 20
1018.293921168499
 30
0.0
 11
1820.728152000514
 21
1018.293921168499
 31
0.0
  0
LINE
  5
5879
330
5861
100
AcDbEntity
  8
1
 62
     0
370
    -2
100
AcDbLine
 10
1880.47669646736
 20
920.2939211684997
 30
0.0
 11
1820.728152000514
 21
920.2939211684997
 31
0.0
  0
LINE
  5
587A
330
5861
100
AcDbEntity
  8
1
 62
     0
370
    -2
100
AcDbLine
 10
1825.228152000514
 20
1012.543921168499
 30
0.0
 11
1825.228152000514
 21
984.0737091801955
 31
0.0
  0
LINE
  5
587B
330
5861
100
AcDbEntity
  8
1
 62
     0
370
    -2
100
AcDbLine
 10
1825.228152000514
 20
926.0439211684998
 30
0.0
 11
1825.228152000514
 21
954.5141331568038
 31
0.0
  0
SOLID
  5
587C
330
5861
100
AcDbEntity
  8
1
 62
     0
100
AcDbTrace
 10
1824.269818667181
 20
1012.543921168499
 30
0.0
 11
1826.186485333846
 21
1012.543921168499
 31
0.0
 12
1825.228152000514
 22
1018.293921168499
 32
0.0
 13
1825.228152000514
 23
1018.293921168499
 33
0.0
  0
SOLID
  5
587D
330
5861
100
AcDbEntity
  8
1
 62
     0
100
AcDbTrace
 10
1824.269818667181
 20
926.0439211684998
 30
0.0
 11
1826.186485333846
 21
926.0439211684998
 31
0.0
 12
1825.228152000514
 22
920.2939211684997
 32
0.0
 13
1825.228152000514
 23
920.2939211684997
 33
0.0
  0
MTEXT
  5
587E
330
5861
100
AcDbEntity
  8
1
 62
     0
100
AcDbMText
 10
1825.228152000514
 20
969.2939211685001
 30
0.0
 40
5.75
 41
0.0
 71
     5
 72
     1
  1
\A1;MINIMUM\PSTARTING\PDEPTH
 73
     1
 44
1.0
  0
POINT
  5
587F
330
5861
100
AcDbEntity
  8
DEFPOINTS
 62
     0
100
AcDbPoint
 10
1844.47669646736
 20
1018.293921168499
 30
0.0
  0
POINT
  5
5880
330
5861
100
AcDbEntity
  8
DEFPOINTS
 62
     0
100
AcDbPoint
 10
1883.47669646736
 20
920.2939211684997
 30
0.0
  0
POINT
  5
5881
330
5861
100
AcDbEntity
  8
DEFPOINTS
 62
     0
100
AcDbPoint
 10
1825.228152000514
 20
920.2939211684997
 30
0.0
  0
ENDBLK
  5
586D
330
5861
100
AcDbEntity
  8
0
100
AcDbBlockEnd
  0
BLOCK
  5
58D3
330
58C9
100
AcDbEntity
  8
0
100
AcDbBlockBegin
  2
*D25
 70
     1
 10
0.0
 20
0.0
 30
0.0
  3
*D25
  1

  0
LINE
  5
5B31
330
58C9
100
AcDbEntity
  8
1
 62
     0
370
    -2
100
AcDbLine
 10
1478.599138173802
 20
1044.131539286158
 30
0.0
 11
1478.599138173802
 21
1054.889388232057
 31
0.0
  0
LINE
  5
5B32
330
58C9
100
AcDbEntity
  8
1
 62
     0
370
    -2
100
AcDbLine
 10
1503.511908811838
 20
1041.988711324979
 30
0.0
 11
1503.511908811838
 21
1054.889388232057
 31
0.0
  0
LINE
  5
5B33
330
58C9
100
AcDbEntity
  8
1
 62
     0
370
    -2
100
AcDbLine
 10
1482.739138173802
 20
1051.649388232057
 30
0.0
 11
1499.371908811838
 21
1051.649388232057
 31
0.0
  0
SOLID
  5
5B34
330
58C9
100
AcDbEntity
  8
1
 62
     0
100
AcDbTrace
 10
1482.739138173802
 20
1052.339388232057
 30
0.0
 11
1482.739138173802
 21
1050.959388232056
 31
0.0
 12
1478.599138173802
 22
1051.649388232057
 32
0.0
 13
1478.599138173802
 23
1051.649388232057
 33
0.0
  0
SOLID
  5
5B35
330
58C9
100
AcDbEntity
  8
1
 62
     0
100
AcDbTrace
 10
1499.371908811838
 20
1052.339388232057
 30
0.0
 11
1499.371908811838
 21
1050.959388232056
 31
0.0
 12
1503.511908811838
 22
1051.649388232057
 32
0.0
 13
1503.511908811838
 23
1051.649388232057
 33
0.0
  0
MTEXT
  5
5B36
330
58C9
100
AcDbEntity
  8
1
 62
     0
100
AcDbMText
 10
1491.05552349282
 20
1055.384782968899
 30
0.0
 40
4.14
 41
0.0
 71
     5
 72
     1
  1
\A1;25
 73
     1
 44
1.0
  0
POINT
  5
5B37
330
58C9
100
AcDbEntity
  8
DEFPOINTS
 62
     0
100
AcDbPoint
 10
1478.599138173802
 20
1041.971539286158
 30
0.0
  0
POINT
  5
5B38
330
58C9
100
AcDbEntity
  8
DEFPOINTS
 62
     0
100
AcDbPoint
 10
1503.511908811838
 20
1039.828711324979
 30
0.0
  0
POINT
  5
5B39
330
58C9
100
AcDbEntity
  8
DEFPOINTS
 62
     0
100
AcDbPoint
 10
1503.511908811838
 20
1051.649388232057
 30
0.0
  0
ENDBLK
  5
58D4
330
58C9
100
AcDbEntity
  8
0
100
AcDbBlockEnd
  0
BLOCK
  5
58F2
330
58E8
100
AcDbEntity
  8
0
100
AcDbBlockBegin
  2
*D26
 70
     1
 10
0.0
 20
0.0
 30
0.0
  3
*D26
  1

  0
LINE
  5
5B15
330
58E8
100
AcDbEntity
  8
1
 62
     0
370
    -2
100
AcDbLine
 10
1548.846011123067
 20
1044.049448422249
 30
0.0
 11
1548.846011123067
 21
1054.807297368148
 31
0.0
  0
LINE
  5
5B16
330
58E8
100
AcDbEntity
  8
1
 62
     0
370
    -2
100
AcDbLine
 10
1523.933240485031
 20
1041.90662046107
 30
0.0
 11
1523.933240485031
 21
1054.807297368148
 31
0.0
  0
LINE
  5
5B17
330
58E8
100
AcDbEntity
  8
1
 62
     0
370
    -2
100
AcDbLine
 10
1544.706011123067
 20
1051.567297368148
 30
0.0
 11
1528.073240485031
 21
1051.567297368148
 31
0.0
  0
SOLID
  5
5B18
330
58E8
100
AcDbEntity
  8
1
 62
     0
100
AcDbTrace
 10
1544.706011123067
 20
1052.257297368148
 30
0.0
 11
1544.706011123067
 21
1050.877297368148
 31
0.0
 12
1548.846011123067
 22
1051.567297368148
 32
0.0
 13
1548.846011123067
 23
1051.567297368148
 33
0.0
  0
SOLID
  5
5B19
330
58E8
100
AcDbEntity
  8
1
 62
     0
100
AcDbTrace
 10
1528.073240485031
 20
1052.257297368148
 30
0.0
 11
1528.073240485031
 21
1050.877297368148
 31
0.0
 12
1523.933240485031
 22
1051.567297368148
 32
0.0
 13
1523.933240485031
 23
1051.567297368148
 33
0.0
  0
MTEXT
  5
5B1A
330
58E8
100
AcDbEntity
  8
1
 62
     0
100
AcDbMText
 10
1536.389625804049
 20
1055.30269210499
 30
0.0
 40
4.14
 41
0.0
 71
     5
 72
     1
  1
\A1;25
 73
     1
 44
1.0
  0
POINT
  5
5B1B
330
58E8
100
AcDbEntity
  8
DEFPOINTS
 62
     0
100
AcDbPoint
 10
1548.846011123067
 20
1041.889448422249
 30
0.0
  0
POINT
  5
5B1C
330
58E8
100
AcDbEntity
  8
DEFPOINTS
 62
     0
100
AcDbPoint
 10
1523.933240485031
 20
1039.74662046107
 30
0.0
  0
POINT
  5
5B1D
330
58E8
100
AcDbEntity
  8
DEFPOINTS
 62
     0
100
AcDbPoint
 10
1523.933240485031
 20
1051.567297368148
 30
0.0
  0
ENDBLK
  5
58F3
330
58E8
100
AcDbEntity
  8
0
100
AcDbBlockEnd
  0
BLOCK
  5
58FF
330
58F5
100
AcDbEntity
  8
0
100
AcDbBlockBegin
  2
*D27
 70
     1
 10
0.0
 20
0.0
 30
0.0
  3
*D27
  1

  0
LINE
  5
5B28
330
58F5
100
AcDbEntity
  8
1
 62
     0
370
    -2
100
AcDbLine
 10
1503.511908811838
 20
1043.788711324979
 30
0.0
 11
1503.511908811838
 21
1054.807297368148
 31
0.0
  0
LINE
  5
5B29
330
58F5
100
AcDbEntity
  8
1
 62
     0
370
    -2
100
AcDbLine
 10
1523.933240485031
 20
1043.70662046107
 30
0.0
 11
1523.933240485031
 21
1054.807297368148
 31
0.0
  0
LINE
  5
5B2A
330
58F5
100
AcDbEntity
  8
1
 62
     0
370
    -2
100
AcDbLine
 10
1507.651908811838
 20
1051.567297368148
 30
0.0
 11
1519.793240485031
 21
1051.567297368148
 31
0.0
  0
SOLID
  5
5B2B
330
58F5
100
AcDbEntity
  8
1
 62
     0
100
AcDbTrace
 10
1507.651908811838
 20
1052.257297368148
 30
0.0
 11
1507.651908811838
 21
1050.877297368148
 31
0.0
 12
1503.511908811838
 22
1051.567297368148
 32
0.0
 13
1503.511908811838
 23
1051.567297368148
 33
0.0
  0
SOLID
  5
5B2C
330
58F5
100
AcDbEntity
  8
1
 62
     0
100
AcDbTrace
 10
1519.793240485031
 20
1052.257297368148
 30
0.0
 11
1519.793240485031
 21
1050.877297368148
 31
0.0
 12
1523.933240485031
 22
1051.567297368148
 32
0.0
 13
1523.933240485031
 23
1051.567297368148
 33
0.0
  0
MTEXT
  5
5B2D
330
58F5
100
AcDbEntity
  8
1
 62
     0
100
AcDbMText
 10
1513.722574648435
 20
1055.2996657892
 30
0.0
 40
4.14
 41
0.0
 71
     5
 72
     1
  1
\A1;20
 73
     1
 44
1.0
  0
POINT
  5
5B2E
330
58F5
100
AcDbEntity
  8
DEFPOINTS
 62
     0
100
AcDbPoint
 10
1503.511908811838
 20
1041.628711324978
 30
0.0
  0
POINT
  5
5B2F
330
58F5
100
AcDbEntity
  8
DEFPOINTS
 62
     0
100
AcDbPoint
 10
1523.933240485031
 20
1041.54662046107
 30
0.0
  0
POINT
  5
5B30
330
58F5
100
AcDbEntity
  8
DEFPOINTS
 62
     0
100
AcDbPoint
 10
1523.933240485031
 20
1051.567297368148
 30
0.0
  0
ENDBLK
  5
5900
330
58F5
100
AcDbEntity
  8
0
100
AcDbBlockEnd
  0
BLOCK
  5
590D
330
5902
100
AcDbEntity
  8
0
100
AcDbBlockBegin
  2
*D28
 70
     1
 10
0.0
 20
0.0
 30
0.0
  3
*D28
  1

  0
LINE
  5
590F
330
5902
100
AcDbEntity
  8
1
 62
     0
370
    -2
100
AcDbLine
 10
1471.277929014464
 20
1041.971539286158
 30
0.0
 11
1454.053994123262
 21
1041.971539286158
 31
0.0
  0
LINE
  5
5910
330
5902
100
AcDbEntity
  8
1
 62
     0
370
    -2
100
AcDbLine
 10
1506.647973016383
 20
961.8822241153612
 30
0.0
 11
1454.053994123262
 21
961.8822241153612
 31
0.0
  0
LINE
  5
5911
330
5902
100
AcDbEntity
  8
1
 62
     0
370
    -2
100
AcDbLine
 10
1456.753994123262
 20
1038.521539286157
 30
0.0
 11
1456.753994123262
 21
1005.044754507777
 31
0.0
  0
LINE
  5
5912
330
5902
100
AcDbEntity
  8
1
 62
     0
370
    -2
100
AcDbLine
 10
1456.753994123262
 20
965.3322241153611
 30
0.0
 11
1456.753994123262
 21
998.809008893742
 31
0.0
  0
SOLID
  5
5913
330
5902
100
AcDbEntity
  8
1
 62
     0
100
AcDbTrace
 10
1456.178994123262
 20
1038.521539286157
 30
0.0
 11
1457.328994123262
 21
1038.521539286157
 31
0.0
 12
1456.753994123262
 22
1041.971539286158
 32
0.0
 13
1456.753994123262
 23
1041.971539286158
 33
0.0
  0
SOLID
  5
5914
330
5902
100
AcDbEntity
  8
1
 62
     0
100
AcDbTrace
 10
1456.178994123262
 20
965.3322241153611
 30
0.0
 11
1457.328994123262
 21
965.3322241153611
 31
0.0
 12
1456.753994123262
 22
961.8822241153612
 32
0.0
 13
1456.753994123262
 23
961.8822241153612
 33
0.0
  0
MTEXT
  5
5915
330
5902
100
AcDbEntity
  8
1
 62
     0
100
AcDbMText
 10
1456.753994123261
 20
1001.926881700759
 30
0.0
 40
3.45
 41
0.0
 71
     5
 72
     1
  1
\A1;80
 73
     1
 44
1.0
  0
POINT
  5
5916
330
5902
100
AcDbEntity
  8
DEFPOINTS
 62
     0
100
AcDbPoint
 10
1473.077929014463
 20
1041.971539286158
 30
0.0
  0
POINT
  5
5917
330
5902
100
AcDbEntity
  8
DEFPOINTS
 62
     0
100
AcDbPoint
 10
1508.447973016384
 20
961.8822241153612
 30
0.0
  0
POINT
  5
5918
330
5902
100
AcDbEntity
  8
DEFPOINTS
 62
     0
100
AcDbPoint
 10
1456.753994123262
 20
961.8822241153612
 30
0.0
  0
ENDBLK
  5
590E
330
5902
100
AcDbEntity
  8
0
100
AcDbBlockEnd
  0
BLOCK
  5
5940
330
5935
100
AcDbEntity
  8
0
100
AcDbBlockBegin
  2
*D29
 70
     1
 10
0.0
 20
0.0
 30
0.0
  3
*D29
  1

  0
LINE
  5
5B1E
330
5935
100
AcDbEntity
  8
1
 62
     0
370
    -2
100
AcDbLine
 10
1476.439138173802
 20
1041.971539286158
 30
0.0
 11
1461.740359155579
 21
1041.971539286158
 31
0.0
  0
LINE
  5
5B1F
330
5935
100
AcDbEntity
  8
1
 62
     0
370
    -2
100
AcDbLine
 10
1511.809182175722
 20
961.8822241153612
 30
0.0
 11
1461.740359155579
 21
961.8822241153612
 31
0.0
  0
LINE
  5
5B20
330
5935
100
AcDbEntity
  8
1
 62
     0
370
    -2
100
AcDbLine
 10
1464.980359155579
 20
1037.831539286158
 30
0.0
 11
1464.980359155579
 21
1005.66832906918
 31
0.0
  0
LINE
  5
5B21
330
5935
100
AcDbEntity
  8
1
 62
     0
370
    -2
100
AcDbLine
 10
1464.980359155579
 20
966.0222241153611
 30
0.0
 11
1464.980359155579
 21
998.1854343323384
 31
0.0
  0
SOLID
  5
5B22
330
5935
100
AcDbEntity
  8
1
 62
     0
100
AcDbTrace
 10
1464.290359155579
 20
1037.831539286158
 30
0.0
 11
1465.670359155579
 21
1037.831539286158
 31
0.0
 12
1464.980359155579
 22
1041.971539286158
 32
0.0
 13
1464.980359155579
 23
1041.971539286158
 33
0.0
  0
SOLID
  5
5B23
330
5935
100
AcDbEntity
  8
1
 62
     0
100
AcDbTrace
 10
1464.290359155579
 20
966.0222241153611
 30
0.0
 11
1465.670359155579
 21
966.0222241153611
 31
0.0
 12
1464.980359155579
 22
961.8822241153612
 32
0.0
 13
1464.980359155579
 23
961.8822241153612
 33
0.0
  0
MTEXT
  5
5B24
330
5935
100
AcDbEntity
  8
1
 62
     0
100
AcDbMText
 10
1464.980359155578
 20
1001.926881700759
 30
0.0
 40
4.14
 41
0.0
 71
     5
 72
     1
  1
\A1;80
 73
     1
 44
1.0
  0
POINT
  5
5B25
330
5935
100
AcDbEntity
  8
DEFPOINTS
 62
     0
100
AcDbPoint
 10
1478.599138173802
 20
1041.971539286158
 30
0.0
  0
POINT
  5
5B26
330
5935
100
AcDbEntity
  8
DEFPOINTS
 62
     0
100
AcDbPoint
 10
1513.969182175722
 20
961.8822241153612
 30
0.0
  0
POINT
  5
5B27
330
5935
100
AcDbEntity
  8
DEFPOINTS
 62
     0
100
AcDbPoint
 10
1464.980359155579
 20
961.8822241153612
 30
0.0
  0
ENDBLK
  5
5941
330
5935
100
AcDbEntity
  8
0
100
AcDbBlockEnd
  0
BLOCK
  5
597F
330
5974
100
AcDbEntity
  8
0
100
AcDbBlockBegin
  2
*D30
 70
     1
 10
0.0
 20
0.0
 30
0.0
  3
*D30
  1

  0
LINE
  5
5B3A
330
5974
100
AcDbEntity
  8
1
 62
     0
370
    -2
100
AcDbLine
 10
1674.25545123287
 20
1041.971539286158
 30
0.0
 11
1659.556672214647
 21
1041.971539286158
 31
0.0
  0
LINE
  5
5B3B
330
5974
100
AcDbEntity
  8
1
 62
     0
370
    -2
100
AcDbLine
 10
1724.62549523479
 20
961.8822241153612
 30
0.0
 11
1659.556672214647
 21
961.8822241153612
 31
0.0
  0
LINE
  5
5B3C
330
5974
100
AcDbEntity
  8
1
 62
     0
370
    -2
100
AcDbLine
 10
1662.796672214647
 20
1037.831539286158
 30
0.0
 11
1662.796672214647
 21
1005.66832906918
 31
0.0
  0
LINE
  5
5B3D
330
5974
100
AcDbEntity
  8
1
 62
     0
370
    -2
100
AcDbLine
 10
1662.796672214647
 20
966.0222241153611
 30
0.0
 11
1662.796672214647
 21
998.1854343323385
 31
0.0
  0
SOLID
  5
5B3E
330
5974
100
AcDbEntity
  8
1
 62
     0
100
AcDbTrace
 10
1662.106672214647
 20
1037.831539286158
 30
0.0
 11
1663.486672214647
 21
1037.831539286158
 31
0.0
 12
1662.796672214647
 22
1041.971539286158
 32
0.0
 13
1662.796672214647
 23
1041.971539286158
 33
0.0
  0
SOLID
  5
5B3F
330
5974
100
AcDbEntity
  8
1
 62
     0
100
AcDbTrace
 10
1662.106672214647
 20
966.0222241153611
 30
0.0
 11
1663.486672214647
 21
966.0222241153611
 31
0.0
 12
1662.796672214647
 22
961.8822241153612
 32
0.0
 13
1662.796672214647
 23
961.8822241153612
 33
0.0
  0
MTEXT
  5
5B40
330
5974
100
AcDbEntity
  8
1
 62
     0
100
AcDbMText
 10
1662.796672214646
 20
1001.926881700759
 30
0.0
 40
4.14
 41
0.0
 71
     5
 72
     1
  1
\A1;80
 73
     1
 44
1.0
  0
POINT
  5
5B41
330
5974
100
AcDbEntity
  8
DEFPOINTS
 62
     0
100
AcDbPoint
 10
1676.41545123287
 20
1041.971539286158
 30
0.0
  0
POINT
  5
5B42
330
5974
100
AcDbEntity
  8
DEFPOINTS
 62
     0
100
AcDbPoint
 10
1726.78549523479
 20
961.8822241153612
 30
0.0
  0
POINT
  5
5B43
330
5974
100
AcDbEntity
  8
DEFPOINTS
 62
     0
100
AcDbPoint
 10
1662.796672214647
 20
961.8822241153612
 30
0.0
  0
ENDBLK
  5
5980
330
5974
100
AcDbEntity
  8
0
100
AcDbBlockEnd
  0
BLOCK
  5
598B
330
5981
100
AcDbEntity
  8
0
100
AcDbBlockBegin
  2
*D31
 70
     1
 10
0.0
 20
0.0
 30
0.0
  3
*D31
  1

  0
LINE
  5
5B44
330
5981
100
AcDbEntity
  8
1
 62
     0
370
    -2
100
AcDbLine
 10
1701.328221870906
 20
1043.788711324979
 30
0.0
 11
1701.328221870906
 21
1054.807297368148
 31
0.0
  0
LINE
  5
5B45
330
5981
100
AcDbEntity
  8
1
 62
     0
370
    -2
100
AcDbLine
 10
1751.749553544099
 20
1043.70662046107
 30
0.0
 11
1751.749553544099
 21
1054.807297368148
 31
0.0
  0
LINE
  5
5B46
330
5981
100
AcDbEntity
  8
1
 62
     0
370
    -2
100
AcDbLine
 10
1705.468221870906
 20
1051.567297368148
 30
0.0
 11
1747.609553544099
 21
1051.567297368148
 31
0.0
  0
SOLID
  5
5B47
330
5981
100
AcDbEntity
  8
1
 62
     0
100
AcDbTrace
 10
1705.468221870906
 20
1052.257297368148
 30
0.0
 11
1705.468221870906
 21
1050.877297368148
 31
0.0
 12
1701.328221870906
 22
1051.567297368148
 32
0.0
 13
1701.328221870906
 23
1051.567297368148
 33
0.0
  0
SOLID
  5
5B48
330
5981
100
AcDbEntity
  8
1
 62
     0
100
AcDbTrace
 10
1747.609553544099
 20
1052.257297368148
 30
0.0
 11
1747.609553544099
 21
1050.877297368148
 31
0.0
 12
1751.749553544099
 22
1051.567297368148
 32
0.0
 13
1751.749553544099
 23
1051.567297368148
 33
0.0
  0
MTEXT
  5
5B49
330
5981
100
AcDbEntity
  8
1
 62
     0
100
AcDbMText
 10
1726.538887707502
 20
1055.30269210499
 30
0.0
 40
4.14
 41
0.0
 71
     5
 72
     1
  1
\A1;50
 73
     1
 44
1.0
  0
POINT
  5
5B4A
330
5981
100
AcDbEntity
  8
DEFPOINTS
 62
     0
100
AcDbPoint
 10
1701.328221870906
 20
1041.628711324978
 30
0.0
  0
POINT
  5
5B4B
330
5981
100
AcDbEntity
  8
DEFPOINTS
 62
     0
100
AcDbPoint
 10
1751.749553544099
 20
1041.54662046107
 30
0.0
  0
POINT
  5
5B4C
330
5981
100
AcDbEntity
  8
DEFPOINTS
 62
     0
100
AcDbPoint
 10
1751.749553544099
 20
1051.567297368148
 30
0.0
  0
ENDBLK
  5
598C
330
5981
100
AcDbEntity
  8
0
100
AcDbBlockEnd
  0
BLOCK
  5
5997
330
598D
100
AcDbEntity
  8
0
100
AcDbBlockBegin
  2
*D32
 70
     1
 10
0.0
 20
0.0
 30
0.0
  3
*D32
  1

  0
LINE
  5
5B4D
330
598D
100
AcDbEntity
  8
1
 62
     0
370
    -2
100
AcDbLine
 10
1676.41545123287
 20
1044.131539286158
 30
0.0
 11
1676.41545123287
 21
1054.889388232057
 31
0.0
  0
LINE
  5
5B4E
330
598D
100
AcDbEntity
  8
1
 62
     0
370
    -2
100
AcDbLine
 10
1701.328221870906
 20
1041.988711324979
 30
0.0
 11
1701.328221870906
 21
1054.889388232057
 31
0.0
  0
LINE
  5
5B4F
330
598D
100
AcDbEntity
  8
1
 62
     0
370
    -2
100
AcDbLine
 10
1680.55545123287
 20
1051.649388232057
 30
0.0
 11
1697.188221870906
 21
1051.649388232057
 31
0.0
  0
SOLID
  5
5B50
330
598D
100
AcDbEntity
  8
1
 62
     0
100
AcDbTrace
 10
1680.55545123287
 20
1052.339388232057
 30
0.0
 11
1680.55545123287
 21
1050.959388232056
 31
0.0
 12
1676.41545123287
 22
1051.649388232057
 32
0.0
 13
1676.41545123287
 23
1051.649388232057
 33
0.0
  0
SOLID
  5
5B51
330
598D
100
AcDbEntity
  8
1
 62
     0
100
AcDbTrace
 10
1697.188221870906
 20
1052.339388232057
 30
0.0
 11
1697.188221870906
 21
1050.959388232056
 31
0.0
 12
1701.328221870906
 22
1051.649388232057
 32
0.0
 13
1701.328221870906
 23
1051.649388232057
 33
0.0
  0
MTEXT
  5
5B52
330
598D
100
AcDbEntity
  8
1
 62
     0
100
AcDbMText
 10
1688.871836551888
 20
1055.384782968899
 30
0.0
 40
4.14
 41
0.0
 71
     5
 72
     1
  1
\A1;25
 73
     1
 44
1.0
  0
POINT
  5
5B53
330
598D
100
AcDbEntity
  8
DEFPOINTS
 62
     0
100
AcDbPoint
 10
1676.41545123287
 20
1041.971539286158
 30
0.0
  0
POINT
  5
5B54
330
598D
100
AcDbEntity
  8
DEFPOINTS
 62
     0
100
AcDbPoint
 10
1701.328221870906
 20
1039.828711324979
 30
0.0
  0
POINT
  5
5B55
330
598D
100
AcDbEntity
  8
DEFPOINTS
 62
     0
100
AcDbPoint
 10
1701.328221870906
 20
1051.649388232057
 30
0.0
  0
ENDBLK
  5
5998
330
598D
100
AcDbEntity
  8
0
100
AcDbBlockEnd
  0
BLOCK
  5
59A3
330
5999
100
AcDbEntity
  8
0
100
AcDbBlockBegin
  2
*D33
 70
     1
 10
0.0
 20
0.0
 30
0.0
  3
*D33
  1

  0
LINE
  5
5B56
330
5999
100
AcDbEntity
  8
1
 62
     0
370
    -2
100
AcDbLine
 10
1776.662324182135
 20
1044.049448422249
 30
0.0
 11
1776.662324182135
 21
1054.807297368148
 31
0.0
  0
LINE
  5
5B57
330
5999
100
AcDbEntity
  8
1
 62
     0
370
    -2
100
AcDbLine
 10
1751.749553544099
 20
1041.90662046107
 30
0.0
 11
1751.749553544099
 21
1054.807297368148
 31
0.0
  0
LINE
  5
5B58
330
5999
100
AcDbEntity
  8
1
 62
     0
370
    -2
100
AcDbLine
 10
1772.522324182135
 20
1051.567297368148
 30
0.0
 11
1755.889553544099
 21
1051.567297368148
 31
0.0
  0
SOLID
  5
5B59
330
5999
100
AcDbEntity
  8
1
 62
     0
100
AcDbTrace
 10
1772.522324182135
 20
1052.257297368148
 30
0.0
 11
1772.522324182135
 21
1050.877297368148
 31
0.0
 12
1776.662324182135
 22
1051.567297368148
 32
0.0
 13
1776.662324182135
 23
1051.567297368148
 33
0.0
  0
SOLID
  5
5B5A
330
5999
100
AcDbEntity
  8
1
 62
     0
100
AcDbTrace
 10
1755.889553544099
 20
1052.257297368148
 30
0.0
 11
1755.889553544099
 21
1050.877297368148
 31
0.0
 12
1751.749553544099
 22
1051.567297368148
 32
0.0
 13
1751.749553544099
 23
1051.567297368148
 33
0.0
  0
MTEXT
  5
5B5B
330
5999
100
AcDbEntity
  8
1
 62
     0
100
AcDbMText
 10
1764.205938863117
 20
1055.30269210499
 30
0.0
 40
4.14
 41
0.0
 71
     5
 72
     1
  1
\A1;25
 73
     1
 44
1.0
  0
POINT
  5
5B5C
330
5999
100
AcDbEntity
  8
DEFPOINTS
 62
     0
100
AcDbPoint
 10
1776.662324182135
 20
1041.889448422249
 30
0.0
  0
POINT
  5
5B5D
330
5999
100
AcDbEntity
  8
DEFPOINTS
 62
     0
100
AcDbPoint
 10
1751.749553544099
 20
1039.74662046107
 30
0.0
  0
POINT
  5
5B5E
330
5999
100
AcDbEntity
  8
DEFPOINTS
 62
     0
100
AcDbPoint
 10
1751.749553544099
 20
1051.567297368148
 30
0.0
  0
ENDBLK
  5
59A4
330
5999
100
AcDbEntity
  8
0
100
AcDbBlockEnd
  0
BLOCK
  5
5A77
330
5A6C
100
AcDbEntity
  8
0
100
AcDbBlockBegin
  2
*D35
 70
     1
 10
0.0
 20
0.0
 30
0.0
  3
*D35
  1

  0
LINE
  5
5AE7
330
5A6C
100
AcDbEntity
  8
1
 62
     0
370
    -2
100
AcDbLine
 10
1568.612408203889
 20
1041.971539286158
 30
0.0
 11
1558.913629185666
 21
1041.971539286158
 31
0.0
  0
LINE
  5
5AE8
330
5A6C
100
AcDbEntity
  8
1
 62
     0
370
    -2
100
AcDbLine
 10
1608.982452205809
 20
961.8822241153612
 30
0.0
 11
1558.913629185666
 21
961.8822241153612
 31
0.0
  0
LINE
  5
5AE9
330
5A6C
100
AcDbEntity
  8
1
 62
     0
370
    -2
100
AcDbLine
 10
1562.153629185666
 20
1037.831539286158
 30
0.0
 11
1562.153629185666
 21
1005.66832906918
 31
0.0
  0
LINE
  5
5AEA
330
5A6C
100
AcDbEntity
  8
1
 62
     0
370
    -2
100
AcDbLine
 10
1562.153629185666
 20
966.0222241153611
 30
0.0
 11
1562.153629185666
 21
998.1854343323385
 31
0.0
  0
SOLID
  5
5AEB
330
5A6C
100
AcDbEntity
  8
1
 62
     0
100
AcDbTrace
 10
1561.463629185666
 20
1037.831539286158
 30
0.0
 11
1562.843629185666
 21
1037.831539286158
 31
0.0
 12
1562.153629185666
 22
1041.971539286158
 32
0.0
 13
1562.153629185666
 23
1041.971539286158
 33
0.0
  0
SOLID
  5
5AEC
330
5A6C
100
AcDbEntity
  8
1
 62
     0
100
AcDbTrace
 10
1561.463629185666
 20
966.0222241153611
 30
0.0
 11
1562.843629185666
 21
966.0222241153611
 31
0.0
 12
1562.153629185666
 22
961.8822241153612
 32
0.0
 13
1562.153629185666
 23
961.8822241153612
 33
0.0
  0
MTEXT
  5
5AED
330
5A6C
100
AcDbEntity
  8
1
 62
     0
100
AcDbMText
 10
1562.153629185666
 20
1001.926881700759
 30
0.0
 40
4.14
 41
0.0
 71
     5
 72
     1
  1
\A1;80
 73
     1
 44
1.0
  0
POINT
  5
5AEE
330
5A6C
100
AcDbEntity
  8
DEFPOINTS
 62
     0
100
AcDbPoint
 10
1570.772408203889
 20
1041.971539286158
 30
0.0
  0
POINT
  5
5AEF
330
5A6C
100
AcDbEntity
  8
DEFPOINTS
 62
     0
100
AcDbPoint
 10
1611.142452205809
 20
961.8822241153612
 30
0.0
  0
POINT
  5
5AF0
330
5A6C
100
AcDbEntity
  8
DEFPOINTS
 62
     0
100
AcDbPoint
 10
1562.153629185666
 20
961.8822241153612
 30
0.0
  0
ENDBLK
  5
5A78
330
5A6C
100
AcDbEntity
  8
0
100
AcDbBlockEnd
  0
BLOCK
  5
5A83
330
5A79
100
AcDbEntity
  8
0
100
AcDbBlockBegin
  2
*D36
 70
     1
 10
0.0
 20
0.0
 30
0.0
  3
*D36
  1

  0
LINE
  5
5B0C
330
5A79
100
AcDbEntity
  8
1
 62
     0
370
    -2
100
AcDbLine
 10
1595.685178841925
 20
1043.788711324979
 30
0.0
 11
1595.685178841925
 21
1054.807297368148
 31
0.0
  0
LINE
  5
5B0D
330
5A79
100
AcDbEntity
  8
1
 62
     0
370
    -2
100
AcDbLine
 10
1626.106510515119
 20
1043.70662046107
 30
0.0
 11
1626.106510515119
 21
1054.807297368148
 31
0.0
  0
LINE
  5
5B0E
330
5A79
100
AcDbEntity
  8
1
 62
     0
370
    -2
100
AcDbLine
 10
1599.825178841926
 20
1051.567297368148
 30
0.0
 11
1621.966510515118
 21
1051.567297368148
 31
0.0
  0
SOLID
  5
5B0F
330
5A79
100
AcDbEntity
  8
1
 62
     0
100
AcDbTrace
 10
1599.825178841926
 20
1052.257297368148
 30
0.0
 11
1599.825178841926
 21
1050.877297368148
 31
0.0
 12
1595.685178841925
 22
1051.567297368148
 32
0.0
 13
1595.685178841925
 23
1051.567297368148
 33
0.0
  0
SOLID
  5
5B10
330
5A79
100
AcDbEntity
  8
1
 62
     0
100
AcDbTrace
 10
1621.966510515118
 20
1052.257297368148
 30
0.0
 11
1621.966510515118
 21
1050.877297368148
 31
0.0
 12
1626.106510515119
 22
1051.567297368148
 32
0.0
 13
1626.106510515119
 23
1051.567297368148
 33
0.0
  0
MTEXT
  5
5B11
330
5A79
100
AcDbEntity
  8
1
 62
     0
100
AcDbMText
 10
1610.895844678522
 20
1055.348086841832
 30
0.0
 40
4.14
 41
0.0
 71
     5
 72
     1
  1
\A1;30
 73
     1
 44
1.0
  0
POINT
  5
5B12
330
5A79
100
AcDbEntity
  8
DEFPOINTS
 62
     0
100
AcDbPoint
 10
1595.685178841925
 20
1041.628711324978
 30
0.0
  0
POINT
  5
5B13
330
5A79
100
AcDbEntity
  8
DEFPOINTS
 62
     0
100
AcDbPoint
 10
1626.106510515119
 20
1041.54662046107
 30
0.0
  0
POINT
  5
5B14
330
5A79
100
AcDbEntity
  8
DEFPOINTS
 62
     0
100
AcDbPoint
 10
1626.106510515119
 20
1051.567297368148
 30
0.0
  0
ENDBLK
  5
5A84
330
5A79
100
AcDbEntity
  8
0
100
AcDbBlockEnd
  0
BLOCK
  5
5A8F
330
5A85
100
AcDbEntity
  8
0
100
AcDbBlockBegin
  2
*D37
 70
     1
 10
0.0
 20
0.0
 30
0.0
  3
*D37
  1

  0
LINE
  5
5AFA
330
5A85
100
AcDbEntity
  8
1
 62
     0
370
    -2
100
AcDbLine
 10
1570.772408203889
 20
1044.131539286158
 30
0.0
 11
1570.772408203889
 21
1054.889388232057
 31
0.0
  0
LINE
  5
5AFB
330
5A85
100
AcDbEntity
  8
1
 62
     0
370
    -2
100
AcDbLine
 10
1595.685178841925
 20
1041.988711324979
 30
0.0
 11
1595.685178841925
 21
1054.889388232057
 31
0.0
  0
LINE
  5
5AFC
330
5A85
100
AcDbEntity
  8
1
 62
     0
370
    -2
100
AcDbLine
 10
1574.912408203889
 20
1051.649388232057
 30
0.0
 11
1591.545178841925
 21
1051.649388232057
 31
0.0
  0
SOLID
  5
5AFD
330
5A85
100
AcDbEntity
  8
1
 62
     0
100
AcDbTrace
 10
1574.912408203889
 20
1052.339388232057
 30
0.0
 11
1574.912408203889
 21
1050.959388232056
 31
0.0
 12
1570.772408203889
 22
1051.649388232057
 32
0.0
 13
1570.772408203889
 23
1051.649388232057
 33
0.0
  0
SOLID
  5
5AFE
330
5A85
100
AcDbEntity
  8
1
 62
     0
100
AcDbTrace
 10
1591.545178841925
 20
1052.339388232057
 30
0.0
 11
1591.545178841925
 21
1050.959388232056
 31
0.0
 12
1595.685178841925
 22
1051.649388232057
 32
0.0
 13
1595.685178841925
 23
1051.649388232057
 33
0.0
  0
MTEXT
  5
5AFF
330
5A85
100
AcDbEntity
  8
1
 62
     0
100
AcDbMText
 10
1583.228793522907
 20
1055.384782968899
 30
0.0
 40
4.14
 41
0.0
 71
     5
 72
     1
  1
\A1;25
 73
     1
 44
1.0
  0
POINT
  5
5B00
330
5A85
100
AcDbEntity
  8
DEFPOINTS
 62
     0
100
AcDbPoint
 10
1570.772408203889
 20
1041.971539286158
 30
0.0
  0
POINT
  5
5B01
330
5A85
100
AcDbEntity
  8
DEFPOINTS
 62
     0
100
AcDbPoint
 10
1595.685178841925
 20
1039.828711324979
 30
0.0
  0
POINT
  5
5B02
330
5A85
100
AcDbEntity
  8
DEFPOINTS
 62
     0
100
AcDbPoint
 10
1595.685178841925
 20
1051.649388232057
 30
0.0
  0
ENDBLK
  5
5A90
330
5A85
100
AcDbEntity
  8
0
100
AcDbBlockEnd
  0
BLOCK
  5
5A9B
330
5A91
100
AcDbEntity
  8
0
100
AcDbBlockBegin
  2
*D38
 70
     1
 10
0.0
 20
0.0
 30
0.0
  3
*D38
  1

  0
LINE
  5
5B03
330
5A91
100
AcDbEntity
  8
1
 62
     0
370
    -2
100
AcDbLine
 10
1651.019281153155
 20
1044.049448422249
 30
0.0
 11
1651.019281153155
 21
1054.807297368148
 31
0.0
  0
LINE
  5
5B04
330
5A91
100
AcDbEntity
  8
1
 62
     0
370
    -2
100
AcDbLine
 10
1626.106510515119
 20
1041.90662046107
 30
0.0
 11
1626.106510515119
 21
1054.807297368148
 31
0.0
  0
LINE
  5
5B05
330
5A91
100
AcDbEntity
  8
1
 62
     0
370
    -2
100
AcDbLine
 10
1646.879281153155
 20
1051.567297368148
 30
0.0
 11
1630.246510515118
 21
1051.567297368148
 31
0.0
  0
SOLID
  5
5B06
330
5A91
100
AcDbEntity
  8
1
 62
     0
100
AcDbTrace
 10
1646.879281153155
 20
1052.257297368148
 30
0.0
 11
1646.879281153155
 21
1050.877297368148
 31
0.0
 12
1651.019281153155
 22
1051.567297368148
 32
0.0
 13
1651.019281153155
 23
1051.567297368148
 33
0.0
  0
SOLID
  5
5B07
330
5A91
100
AcDbEntity
  8
1
 62
     0
100
AcDbTrace
 10
1630.246510515118
 20
1052.257297368148
 30
0.0
 11
1630.246510515118
 21
1050.877297368148
 31
0.0
 12
1626.106510515119
 22
1051.567297368148
 32
0.0
 13
1626.106510515119
 23
1051.567297368148
 33
0.0
  0
MTEXT
  5
5B08
330
5A91
100
AcDbEntity
  8
1
 62
     0
100
AcDbMText
 10
1638.562895834137
 20
1055.30269210499
 30
0.0
 40
4.14
 41
0.0
 71
     5
 72
     1
  1
\A1;25
 73
     1
 44
1.0
  0
POINT
  5
5B09
330
5A91
100
AcDbEntity
  8
DEFPOINTS
 62
     0
100
AcDbPoint
 10
1651.019281153155
 20
1041.889448422249
 30
0.0
  0
POINT
  5
5B0A
330
5A91
100
AcDbEntity
  8
DEFPOINTS
 62
     0
100
AcDbPoint
 10
1626.106510515119
 20
1039.74662046107
 30
0.0
  0
POINT
  5
5B0B
330
5A91
100
AcDbEntity
  8
DEFPOINTS
 62
     0
100
AcDbPoint
 10
1626.106510515119
 20
1051.567297368148
 30
0.0
  0
ENDBLK
  5
5A9C
330
5A91
100
AcDbEntity
  8
0
100
AcDbBlockEnd
  0
ENDSEC
  0
SECTION
  2
ENTITIES
  0
LINE
  5
58AE
330
19
100
AcDbEntity
  8
1
100
AcDbLine
 10
1527.475967121144
 20
1039.889448422249
 30
0.0
 11
1546.846011123068
 21
1039.889448422249
 31
0.0
  0
LINE
  5
58AF
330
19
100
AcDbEntity
  8
1
100
AcDbLine
 10
1548.846011123067
 20
1041.889448422249
 30
0.0
 11
1527.475967121144
 21
1041.889448422249
 31
0.0
  0
ARC
  5
58B0
330
19
100
AcDbEntity
  8
1
100
AcDbCircle
 10
1527.475967121144
 20
1037.889448422249
 30
0.0
 40
2.0
100
AcDbArc
 50
90.0
 51
214.6710471112661
  0
ARC
  5
58B1
330
19
100
AcDbEntity
  8
1
100
AcDbCircle
 10
1499.969182175726
 20
1037.971539286158
 30
0.0
 40
2.0
100
AcDbArc
 50
325.3289528887338
 51
90.0
  0
ARC
  5
58B2
330
19
100
AcDbEntity
  8
1
100
AcDbCircle
 10
1527.475967121144
 20
1037.889448422249
 30
0.0
 40
4.0
100
AcDbArc
 50
90.0
 51
214.6710471112661
  0
ARC
  5
58B3
330
19
100
AcDbEntity
  8
1
100
AcDbCircle
 10
1499.969182175726
 20
1037.971539286158
 30
0.0
 40
4.0
100
AcDbArc
 50
325.3289528887338
 51
90.0
  0
LINE
  5
58B4
330
19
100
AcDbEntity
  8
1
100
AcDbLine
 10
1540.408977799121
 20
1012.955224246732
 30
0.0
 11
1540.408977799121
 21
974.9552242467325
 31
0.0
  0
LINE
  5
58B5
330
19
100
AcDbEntity
  8
1
100
AcDbLine
 10
1542.408977799121
 20
973.5548091703131
 30
0.0
 11
1542.408977799121
 21
1013.579515441353
 31
0.0
  0
LINE
  5
58B6
330
19
100
AcDbEntity
  8
1
100
AcDbLine
 10
1480.599138173802
 20
1029.971539286158
 30
0.0
 11
1478.599138173802
 21
1029.971539286158
 31
0.0
  0
LINE
  5
58B7
330
19
100
AcDbEntity
  8
1
100
AcDbLine
 10
1480.599138173802
 20
1039.971539286158
 30
0.0
 11
1480.599138173802
 21
1029.971539286158
 31
0.0
  0
LINE
  5
58B8
330
19
100
AcDbEntity
  8
1
100
AcDbLine
 10
1478.599138173802
 20
1029.971539286158
 30
0.0
 11
1478.599138173802
 21
1041.971539286158
 31
0.0
  0
LINE
  5
58B9
330
19
100
AcDbEntity
  8
1
100
AcDbLine
 10
1499.969182175726
 20
1039.971539286158
 30
0.0
 11
1480.599138173802
 21
1039.971539286158
 31
0.0
  0
LINE
  5
58BA
330
19
100
AcDbEntity
  8
1
100
AcDbLine
 10
1478.599138173802
 20
1041.971539286158
 30
0.0
 11
1499.969182175726
 21
1041.971539286158
 31
0.0
  0
LINE
  5
58BB
330
19
100
AcDbEntity
  8
1
100
AcDbLine
 10
1487.529386552323
 20
1012.955224246732
 30
0.0
 11
1487.529386552323
 21
974.9552242467325
 31
0.0
  0
LINE
  5
58BC
330
19
100
AcDbEntity
  8
1
100
AcDbLine
 10
1513.969182175722
 20
961.8822241153612
 30
0.0
 11
1485.529386552323
 21
973.5548091703131
 31
0.0
  0
LINE
  5
58BD
330
19
100
AcDbEntity
  8
1
100
AcDbLine
 10
1485.529386552323
 20
973.5548091703131
 30
0.0
 11
1485.529386552323
 21
1013.579515441353
 31
0.0
  0
LINE
  5
58BE
330
19
100
AcDbEntity
  8
1
100
AcDbLine
 10
1487.529386552323
 20
974.9552242467325
 30
0.0
 11
1513.969182175722
 21
964.010579660313
 31
0.0
  0
LINE
  5
58BF
330
19
100
AcDbEntity
  8
1
100
AcDbLine
 10
1503.258908600608
 20
1035.696083277041
 30
0.0
 11
1487.529386552323
 21
1012.955224246732
 31
0.0
  0
LINE
  5
58C0
330
19
100
AcDbEntity
  8
1
100
AcDbLine
 10
1501.614045388167
 20
1036.833811281598
 30
0.0
 11
1485.529386552323
 21
1013.579515441353
 31
0.0
  0
LINE
  5
58C1
330
19
100
AcDbEntity
  8
1
100
AcDbLine
 10
1525.831103908703
 20
1036.751720417689
 30
0.0
 11
1542.408977799121
 21
1013.579515441353
 31
0.0
  0
LINE
  5
58C2
330
19
100
AcDbEntity
  8
1
100
AcDbLine
 10
1524.186240696262
 20
1035.613992413133
 30
0.0
 11
1540.408977799121
 21
1012.955224246732
 31
0.0
  0
LINE
  5
58C3
330
19
100
AcDbEntity
  8
1
100
AcDbLine
 10
1540.408977799121
 20
974.9552242467325
 30
0.0
 11
1513.969182175722
 21
964.010579660313
 31
0.0
  0
LINE
  5
58C4
330
19
100
AcDbEntity
  8
1
100
AcDbLine
 10
1513.969182175722
 20
961.8822241153612
 30
0.0
 11
1542.408977799121
 21
973.5548091703131
 31
0.0
  0
LINE
  5
58C5
330
19
100
AcDbEntity
  8
1
100
AcDbLine
 10
1546.846011123068
 20
1029.889448422249
 30
0.0
 11
1548.846011123067
 21
1029.889448422249
 31
0.0
  0
LINE
  5
58C6
330
19
100
AcDbEntity
  8
1
100
AcDbLine
 10
1548.846011123067
 20
1029.889448422249
 30
0.0
 11
1548.846011123067
 21
1041.889448422249
 31
0.0
  0
LINE
  5
58C7
330
19
100
AcDbEntity
  8
1
100
AcDbLine
 10
1546.846011123068
 20
1039.889448422249
 30
0.0
 11
1546.846011123068
 21
1029.889448422249
 31
0.0
  0
DIMENSION
  5
58C8
330
19
100
AcDbEntity
  8
1
100
AcDbDimension
  2
*D25
 10
1503.511908811838
 20
1051.649388232057
 30
0.0
 11
1491.05552349282
 21
1055.384782968899
 31
0.0
 70
    32
 71
     5
 42
24.91277063803636
  3
STANDARD
100
AcDbAlignedDimension
 13
1478.599138173802
 23
1041.971539286158
 33
0.0
 14
1503.511908811838
 24
1039.828711324979
 34
0.0
100
AcDbRotatedDimension
1001
ACAD
1000
DSTYLE
1002
{
1070
     4
1000
mm
1070
    40
1040
18.0
1070
    41
1040
0.23
1070
    42
1040
0.12
1070
    77
1070
     1
1070
   140
1040
0.23
1070
   141
1040
0.0
1070
   171
1070
     0
1070
   271
1070
     0
1070
   272
1070
     0
1070
   274
1070
     0
1002
}
  0
DIMENSION
  5
58E7
330
19
100
AcDbEntity
  8
1
100
AcDbDimension
  2
*D26
 10
1523.933240485031
 20
1051.567297368148
 30
0.0
 11
1536.389625804049
 21
1055.30269210499
 31
0.0
 70
    32
 71
     5
 42
24.91277063803636
  3
STANDARD
100
AcDbAlignedDimension
 13
1548.846011123067
 23
1041.889448422249
 33
0.0
 14
1523.933240485031
 24
1039.74662046107
 34
0.0
100
AcDbRotatedDimension
1001
ACAD
1000
DSTYLE
1002
{
1070
     4
1000
mm
1070
    40
1040
18.0
1070
    41
1040
0.23
1070
    42
1040
0.12
1070
    77
1070
     1
1070
   140
1040
0.23
1070
   141
1040
0.0
1070
   171
1070
     0
1070
   271
1070
     0
1070
   272
1070
     0
1070
   274
1070
     0
1002
}
  0
DIMENSION
  5
58F4
330
19
100
AcDbEntity
  8
1
100
AcDbDimension
  2
*D27
 10
1523.933240485031
 20
1051.567297368148
 30
0.0
 11
1513.722574648435
 21
1055.2996657892
 31
0.0
 70
    32
 71
     5
 42
20.42133167319298
  3
STANDARD
100
AcDbAlignedDimension
 13
1503.511908811838
 23
1041.628711324978
 33
0.0
 14
1523.933240485031
 24
1041.54662046107
 34
0.0
100
AcDbRotatedDimension
1001
ACAD
1000
DSTYLE
1002
{
1070
     4
1000
mm
1070
    40
1040
18.0
1070
    41
1040
0.23
1070
    42
1040
0.12
1070
    77
1070
     1
1070
   140
1040
0.23
1070
   141
1040
0.0
1070
   171
1070
     0
1070
   271
1070
     0
1070
   272
1070
     0
1070
   274
1070
     0
1002
}
  0
DIMENSION
  5
5934
330
19
100
AcDbEntity
  8
1
100
AcDbDimension
  2
*D29
 10
1464.980359155579
 20
961.8822241153612
 30
0.0
 11
1464.980359155578
 21
1001.926881700759
 31
0.0
 70
    32
 71
     5
 42
80.08931517079679
  3
STANDARD
100
AcDbAlignedDimension
 13
1478.599138173802
 23
1041.971539286158
 33
0.0
 14
1513.969182175722
 24
961.8822241153612
 34
0.0
 50
90.0
100
AcDbRotatedDimension
1001
ACAD
1000
DSTYLE
1002
{
1070
     4
1000
mm
1070
    40
1040
18.0
1070
    41
1040
0.23
1070
    42
1040
0.12
1070
    77
1070
     1
1070
   140
1040
0.23
1070
   141
1040
0.0
1070
   171
1070
     0
1070
   271
1070
     0
1070
   272
1070
     0
1070
   274
1070
     0
1002
}
  0
MTEXT
  5
5942
330
19
100
AcDbEntity
  8
1
100
AcDbMText
 10
1513.78947547312
 20
951.3881211252556
 30
0.0
 40
4.5
 41
171.5
 71
     2
 72
     5
  1
{\fTechnicLite|b0|i0|c2|p2;KSCC20 CHANNEL PROFILE\PSUPER CLEAN}
  7
ROMANC
 73
     1
 44
1.0
  0
DIMENSION
  5
5955
330
19
100
AcDbEntity
  8
1
100
AcDbDimension
  2
*D33
 10
1751.749553544099
 20
1051.567297368148
 30
0.0
 11
1764.205938863117
 21
1055.30269210499
 31
0.0
 70
    32
 71
     5
 42
24.91277063803636
  3
STANDARD
100
AcDbAlignedDimension
 13
1776.662324182135
 23
1041.889448422249
 33
0.0
 14
1751.749553544099
 24
1039.74662046107
 34
0.0
100
AcDbRotatedDimension
1001
ACAD
1000
DSTYLE
1002
{
1070
     4
1000
mm
1070
    40
1040
18.0
1070
    41
1040
0.23
1070
    42
1040
0.12
1070
    77
1070
     1
1070
   140
1040
0.23
1070
   141
1040
0.0
1070
   171
1070
     0
1070
   271
1070
     0
1070
   272
1070
     0
1070
   274
1070
     0
1002
}
  0
LINE
  5
5956
330
19
100
AcDbEntity
  8
1
100
AcDbLine
 10
1755.292280180212
 20
1039.889448422249
 30
0.0
 11
1774.662324182135
 21
1039.889448422249
 31
0.0
  0
LINE
  5
5957
330
19
100
AcDbEntity
  8
1
100
AcDbLine
 10
1776.662324182135
 20
1041.889448422249
 30
0.0
 11
1755.292280180212
 21
1041.889448422249
 31
0.0
  0
LINE
  5
5958
330
19
100
AcDbEntity
  8
1
100
AcDbLine
 10
1753.647416967771
 20
1036.751720417689
 30
0.0
 11
1770.225290858189
 21
1013.579515441353
 31
0.0
  0
LINE
  5
5959
330
19
100
AcDbEntity
  8
1
100
AcDbLine
 10
1752.002553755329
 20
1035.613992413133
 30
0.0
 11
1768.225290858189
 21
1012.955224246732
 31
0.0
  0
MTEXT
  5
595A
330
19
100
AcDbEntity
  8
1
100
AcDbMText
 10
1726.605788532187
 20
951.3881211252556
 30
0.0
 40
4.5
 41
171.5
 71
     2
 72
     5
  1
{\fTechnicLite|b0|i0|c2|p2;KSCC50 CHANNEL PROFILE\PSUPER CLEAN}
  7
ROMANC
 73
     1
 44
1.0
  0
LINE
  5
595B
330
19
100
AcDbEntity
  8
1
100
AcDbLine
 10
1768.225290858189
 20
974.9552242467325
 30
0.0
 11
1726.78549523479
 21
964.010579660313
 31
0.0
  0
LINE
  5
595C
330
19
100
AcDbEntity
  8
1
100
AcDbLine
 10
1726.78549523479
 20
961.8822241153612
 30
0.0
 11
1770.225290858189
 21
973.5548091703131
 31
0.0
  0
DIMENSION
  5
595D
330
19
100
AcDbEntity
  8
1
100
AcDbDimension
  2
*D30
 10
1662.796672214647
 20
961.8822241153612
 30
0.0
 11
1662.796672214646
 21
1001.926881700759
 31
0.0
 70
    32
 71
     5
 42
80.08931517079702
  3
STANDARD
100
AcDbAlignedDimension
 13
1676.41545123287
 23
1041.971539286158
 33
0.0
 14
1726.78549523479
 24
961.8822241153612
 34
0.0
 50
90.0
100
AcDbRotatedDimension
1001
ACAD
1000
DSTYLE
1002
{
1070
     4
1000
mm
1070
    40
1040
18.0
1070
    41
1040
0.23
1070
    42
1040
0.12
1070
    77
1070
     1
1070
   140
1040
0.23
1070
   141
1040
0.0
1070
   171
1070
     0
1070
   271
1070
     0
1070
   272
1070
     0
1070
   274
1070
     0
1002
}
  0
LINE
  5
595E
330
19
100
AcDbEntity
  8
1
100
AcDbLine
 10
1699.430358447235
 20
1036.833811281598
 30
0.0
 11
1683.345699611391
 21
1013.579515441353
 31
0.0
  0
LINE
  5
595F
330
19
100
AcDbEntity
  8
1
100
AcDbLine
 10
1701.075221659676
 20
1035.696083277041
 30
0.0
 11
1685.345699611391
 21
1012.955224246732
 31
0.0
  0
LINE
  5
5960
330
19
100
AcDbEntity
  8
1
100
AcDbLine
 10
1685.345699611391
 20
1012.955224246732
 30
0.0
 11
1685.345699611391
 21
974.9552242467325
 31
0.0
  0
LINE
  5
5961
330
19
100
AcDbEntity
  8
1
100
AcDbLine
 10
1683.345699611391
 20
973.5548091703131
 30
0.0
 11
1683.345699611391
 21
1013.579515441353
 31
0.0
  0
LINE
  5
5962
330
19
100
AcDbEntity
  8
1
100
AcDbLine
 10
1726.78549523479
 20
961.8822241153612
 30
0.0
 11
1683.345699611391
 21
973.5548091703131
 31
0.0
  0
LINE
  5
5963
330
19
100
AcDbEntity
  8
1
100
AcDbLine
 10
1685.345699611391
 20
974.9552242467325
 30
0.0
 11
1726.78549523479
 21
964.010579660313
 31
0.0
  0
DIMENSION
  5
5964
330
19
100
AcDbEntity
  8
1
100
AcDbDimension
  2
*D31
 10
1751.749553544099
 20
1051.567297368148
 30
0.0
 11
1726.538887707502
 21
1055.30269210499
 31
0.0
 70
    32
 71
     5
 42
50.42133167319298
  3
STANDARD
100
AcDbAlignedDimension
 13
1701.328221870906
 23
1041.628711324978
 33
0.0
 14
1751.749553544099
 24
1041.54662046107
 34
0.0
100
AcDbRotatedDimension
1001
ACAD
1000
DSTYLE
1002
{
1070
     4
1000
mm
1070
    40
1040
18.0
1070
    41
1040
0.23
1070
    42
1040
0.12
1070
    77
1070
     1
1070
   140
1040
0.23
1070
   141
1040
0.0
1070
   171
1070
     0
1070
   271
1070
     0
1070
   272
1070
     0
1070
   274
1070
     0
1002
}
  0
DIMENSION
  5
5965
330
19
100
AcDbEntity
  8
1
100
AcDbDimension
  2
*D32
 10
1701.328221870906
 20
1051.649388232057
 30
0.0
 11
1688.871836551888
 21
1055.384782968899
 31
0.0
 70
    32
 71
     5
 42
24.91277063803636
  3
STANDARD
100
AcDbAlignedDimension
 13
1676.41545123287
 23
1041.971539286158
 33
0.0
 14
1701.328221870906
 24
1039.828711324979
 34
0.0
100
AcDbRotatedDimension
1001
ACAD
1000
DSTYLE
1002
{
1070
     4
1000
mm
1070
    40
1040
18.0
1070
    41
1040
0.23
1070
    42
1040
0.12
1070
    77
1070
     1
1070
   140
1040
0.23
1070
   141
1040
0.0
1070
   171
1070
     0
1070
   271
1070
     0
1070
   272
1070
     0
1070
   274
1070
     0
1002
}
  0
LINE
  5
5966
330
19
100
AcDbEntity
  8
1
100
AcDbLine
 10
1676.41545123287
 20
1041.971539286158
 30
0.0
 11
1697.785495234794
 21
1041.971539286158
 31
0.0
  0
LINE
  5
5967
330
19
100
AcDbEntity
  8
1
100
AcDbLine
 10
1697.785495234794
 20
1039.971539286158
 30
0.0
 11
1678.41545123287
 21
1039.971539286158
 31
0.0
  0
LINE
  5
5968
330
19
100
AcDbEntity
  8
1
100
AcDbLine
 10
1676.41545123287
 20
1029.971539286158
 30
0.0
 11
1676.41545123287
 21
1041.971539286158
 31
0.0
  0
LINE
  5
5969
330
19
100
AcDbEntity
  8
1
100
AcDbLine
 10
1678.41545123287
 20
1039.971539286158
 30
0.0
 11
1678.41545123287
 21
1029.971539286158
 31
0.0
  0
LINE
  5
596A
330
19
100
AcDbEntity
  8
1
100
AcDbLine
 10
1678.41545123287
 20
1029.971539286158
 30
0.0
 11
1676.41545123287
 21
1029.971539286158
 31
0.0
  0
ARC
  5
596B
330
19
100
AcDbEntity
  8
1
100
AcDbCircle
 10
1697.785495234794
 20
1037.971539286158
 30
0.0
 40
4.0
100
AcDbArc
 50
325.3289528887338
 51
90.0
  0
ARC
  5
596C
330
19
100
AcDbEntity
  8
1
100
AcDbCircle
 10
1697.785495234794
 20
1037.971539286158
 30
0.0
 40
2.0
100
AcDbArc
 50
325.3289528887338
 51
90.0
  0
ARC
  5
596D
330
19
100
AcDbEntity
  8
1
100
AcDbCircle
 10
1755.292280180212
 20
1037.889448422249
 30
0.0
 40
2.0
100
AcDbArc
 50
90.0
 51
214.6710471112661
  0
ARC
  5
596E
330
19
100
AcDbEntity
  8
1
100
AcDbCircle
 10
1755.292280180212
 20
1037.889448422249
 30
0.0
 40
4.0
100
AcDbArc
 50
90.0
 51
214.6710471112661
  0
LINE
  5
596F
330
19
100
AcDbEntity
  8
1
100
AcDbLine
 10
1768.225290858189
 20
1012.955224246732
 30
0.0
 11
1768.225290858189
 21
974.9552242467325
 31
0.0
  0
LINE
  5
5970
330
19
100
AcDbEntity
  8
1
100
AcDbLine
 10
1770.225290858189
 20
973.5548091703131
 30
0.0
 11
1770.225290858189
 21
1013.579515441353
 31
0.0
  0
LINE
  5
5971
330
19
100
AcDbEntity
  8
1
100
AcDbLine
 10
1776.662324182135
 20
1029.889448422249
 30
0.0
 11
1776.662324182135
 21
1041.889448422249
 31
0.0
  0
LINE
  5
5972
330
19
100
AcDbEntity
  8
1
100
AcDbLine
 10
1774.662324182135
 20
1039.889448422249
 30
0.0
 11
1774.662324182135
 21
1029.889448422249
 31
0.0
  0
LINE
  5
5973
330
19
100
AcDbEntity
  8
1
100
AcDbLine
 10
1774.662324182135
 20
1029.889448422249
 30
0.0
 11
1776.662324182135
 21
1029.889448422249
 31
0.0
  0
LINE
  5
5A20
330
19
100
AcDbEntity
  8
1
100
AcDbLine
 10
1728.91545123287
 20
1042.971539286158
 30
0.0
 11
1728.91545123287
 21
1017.971539286158
 31
0.0
1001
ACAD
1000
ASC_BOUNDS
1002
{
1070
    19
1005
0
1002
}
  0
LINE
  5
5A21
330
19
100
AcDbEntity
  8
1
100
AcDbLine
 10
1723.91545123287
 20
1042.971539286158
 30
0.0
 11
1723.91545123287
 21
1017.971539286158
 31
0.0
1001
ACAD
1000
ASC_BOUNDS
1002
{
1070
    19
1005
0
1002
}
  0
LINE
  5
5A22
330
19
100
AcDbEntity
  8
1
100
AcDbLine
 10
1701.41545123287
 20
1037.471539286158
 30
0.0
 11
1723.91545123287
 21
1037.471539286158
 31
0.0
  0
LINE
  5
5A23
330
19
100
AcDbEntity
  8
1
100
AcDbLine
 10
1694.003053017149
 20
1025.471539286157
 30
0.0
 11
1723.91545123287
 21
1025.471539286158
 31
0.0
  0
LINE
  5
5A24
330
19
100
AcDbEntity
  8
1
100
AcDbLine
 10
1759.264129029354
 20
1025.471539286158
 30
0.0
 11
1728.91545123287
 21
1025.471539286158
 31
0.0
  0
LINE
  5
5A25
330
19
100
AcDbEntity
  8
1
100
AcDbLine
 10
1728.91545123287
 20
1017.971539286158
 30
0.0
 11
1723.91545123287
 21
1017.971539286158
 31
0.0
1001
ACAD
1000
ASC_BOUNDS
1002
{
1070
    19
1005
0
1002
}
  0
LINE
  5
5A26
330
19
100
AcDbEntity
  8
1
100
AcDbLine
 10
1751.41545123287
 20
1037.471539286158
 30
0.0
 11
1728.91545123287
 21
1037.471539286158
 31
0.0
  0
LINE
  5
5A27
330
19
100
AcDbEntity
  8
1
100
AcDbLine
 10
1728.91545123287
 20
1042.971539286158
 30
0.0
 11
1723.91545123287
 21
1042.971539286158
 31
0.0
1001
ACAD
1000
ASC_BOUNDS
1002
{
1070
    19
1005
0
1002
}
  0
MTEXT
  5
5A4D
330
19
100
AcDbEntity
  8
1
100
AcDbMText
 10
1610.962745503207
 20
951.3881211252556
 30
0.0
 40
4.5
 41
171.5
 71
     2
 72
     5
  1
{\fTechnicLite|b0|i0|c2|p2;KSCC30 CHANNEL PROFILE\PSUPER CLEAN}
  7
ROMANC
 73
     1
 44
1.0
  0
DIMENSION
  5
5A4E
330
19
100
AcDbEntity
  8
1
100
AcDbDimension
  2
*D38
 10
1626.106510515119
 20
1051.567297368148
 30
0.0
 11
1638.562895834137
 21
1055.30269210499
 31
0.0
 70
    32
 71
     5
 42
24.91277063803636
  3
STANDARD
100
AcDbAlignedDimension
 13
1651.019281153155
 23
1041.889448422249
 33
0.0
 14
1626.106510515119
 24
1039.74662046107
 34
0.0
100
AcDbRotatedDimension
1001
ACAD
1000
DSTYLE
1002
{
1070
     4
1000
mm
1070
    40
1040
18.0
1070
    41
1040
0.23
1070
    42
1040
0.12
1070
    77
1070
     1
1070
   140
1040
0.23
1070
   141
1040
0.0
1070
   171
1070
     0
1070
   271
1070
     0
1070
   272
1070
     0
1070
   274
1070
     0
1002
}
  0
LINE
  5
5A4F
330
19
100
AcDbEntity
  8
1
100
AcDbLine
 10
1629.649237151231
 20
1039.889448422249
 30
0.0
 11
1649.019281153154
 21
1039.889448422249
 31
0.0
  0
LINE
  5
5A50
330
19
100
AcDbEntity
  8
1
100
AcDbLine
 10
1651.019281153155
 20
1041.889448422249
 30
0.0
 11
1629.649237151231
 21
1041.889448422249
 31
0.0
  0
LINE
  5
5A51
330
19
100
AcDbEntity
  8
1
100
AcDbLine
 10
1628.00437393879
 20
1036.751720417689
 30
0.0
 11
1644.582247829208
 21
1013.579515441353
 31
0.0
  0
LINE
  5
5A52
330
19
100
AcDbEntity
  8
1
100
AcDbLine
 10
1626.359510726349
 20
1035.613992413133
 30
0.0
 11
1642.582247829208
 21
1012.955224246732
 31
0.0
  0
LINE
  5
5A53
330
19
100
AcDbEntity
  8
1
100
AcDbLine
 10
1642.582247829208
 20
974.9552242467325
 30
0.0
 11
1611.142452205809
 21
964.010579660313
 31
0.0
  0
LINE
  5
5A54
330
19
100
AcDbEntity
  8
1
100
AcDbLine
 10
1611.142452205809
 20
961.8822241153612
 30
0.0
 11
1644.582247829208
 21
973.5548091703131
 31
0.0
  0
DIMENSION
  5
5A55
330
19
100
AcDbEntity
  8
1
100
AcDbDimension
  2
*D35
 10
1562.153629185666
 20
961.8822241153612
 30
0.0
 11
1562.153629185666
 21
1001.926881700759
 31
0.0
 70
    32
 71
     5
 42
80.08931517079702
  3
STANDARD
100
AcDbAlignedDimension
 13
1570.772408203889
 23
1041.971539286158
 33
0.0
 14
1611.142452205809
 24
961.8822241153612
 34
0.0
 50
90.0
100
AcDbRotatedDimension
1001
ACAD
1000
DSTYLE
1002
{
1070
     4
1000
mm
1070
    40
1040
18.0
1070
    41
1040
0.23
1070
    42
1040
0.12
1070
    77
1070
     1
1070
   140
1040
0.23
1070
   141
1040
0.0
1070
   171
1070
     0
1070
   271
1070
     0
1070
   272
1070
     0
1070
   274
1070
     0
1002
}
  0
LINE
  5
5A56
330
19
100
AcDbEntity
  8
1
100
AcDbLine
 10
1593.787315418254
 20
1036.833811281598
 30
0.0
 11
1577.702656582411
 21
1013.579515441353
 31
0.0
  0
LINE
  5
5A57
330
19
100
AcDbEntity
  8
1
100
AcDbLine
 10
1595.432178630695
 20
1035.696083277041
 30
0.0
 11
1579.70265658241
 21
1012.955224246732
 31
0.0
  0
LINE
  5
5A58
330
19
100
AcDbEntity
  8
1
100
AcDbLine
 10
1579.70265658241
 20
1012.955224246732
 30
0.0
 11
1579.70265658241
 21
974.9552242467325
 31
0.0
  0
LINE
  5
5A59
330
19
100
AcDbEntity
  8
1
100
AcDbLine
 10
1577.702656582411
 20
973.5548091703131
 30
0.0
 11
1577.702656582411
 21
1013.579515441353
 31
0.0
  0
LINE
  5
5A5A
330
19
100
AcDbEntity
  8
1
100
AcDbLine
 10
1611.142452205809
 20
961.8822241153612
 30
0.0
 11
1577.702656582411
 21
973.5548091703131
 31
0.0
  0
LINE
  5
5A5B
330
19
100
AcDbEntity
  8
1
100
AcDbLine
 10
1579.70265658241
 20
974.9552242467325
 30
0.0
 11
1611.142452205809
 21
964.010579660313
 31
0.0
  0
DIMENSION
  5
5A5C
330
19
100
AcDbEntity
  8
1
100
AcDbDimension
  2
*D36
 10
1626.106510515119
 20
1051.567297368148
 30
0.0
 11
1610.895844678522
 21
1055.348086841832
 31
0.0
 70
    32
 71
     5
 42
30.42133167319298
  3
STANDARD
100
AcDbAlignedDimension
 13
1595.685178841925
 23
1041.628711324978
 33
0.0
 14
1626.106510515119
 24
1041.54662046107
 34
0.0
100
AcDbRotatedDimension
1001
ACAD
1000
DSTYLE
1002
{
1070
     4
1000
mm
1070
    40
1040
18.0
1070
    41
1040
0.23
1070
    42
1040
0.12
1070
    77
1070
     1
1070
   140
1040
0.23
1070
   141
1040
0.0
1070
   171
1070
     0
1070
   271
1070
     0
1070
   272
1070
     0
1070
   274
1070
     0
1002
}
  0
DIMENSION
  5
5A5D
330
19
100
AcDbEntity
  8
1
100
AcDbDimension
  2
*D37
 10
1595.685178841925
 20
1051.649388232057
 30
0.0
 11
1583.228793522907
 21
1055.384782968899
 31
0.0
 70
    32
 71
     5
 42
24.91277063803636
  3
STANDARD
100
AcDbAlignedDimension
 13
1570.772408203889
 23
1041.971539286158
 33
0.0
 14
1595.685178841925
 24
1039.828711324979
 34
0.0
100
AcDbRotatedDimension
1001
ACAD
1000
DSTYLE
1002
{
1070
     4
1000
mm
1070
    40
1040
18.0
1070
    41
1040
0.23
1070
    42
1040
0.12
1070
    77
1070
     1
1070
   140
1040
0.23
1070
   141
1040
0.0
1070
   171
1070
     0
1070
   271
1070
     0
1070
   272
1070
     0
1070
   274
1070
     0
1002
}
  0
LINE
  5
5A5E
330
19
100
AcDbEntity
  8
1
100
AcDbLine
 10
1570.772408203889
 20
1041.971539286158
 30
0.0
 11
1592.142452205813
 21
1041.971539286158
 31
0.0
  0
LINE
  5
5A5F
330
19
100
AcDbEntity
  8
1
100
AcDbLine
 10
1592.142452205813
 20
1039.971539286158
 30
0.0
 11
1572.772408203889
 21
1039.971539286158
 31
0.0
  0
LINE
  5
5A60
330
19
100
AcDbEntity
  8
1
100
AcDbLine
 10
1570.772408203889
 20
1029.971539286158
 30
0.0
 11
1570.772408203889
 21
1041.971539286158
 31
0.0
  0
LINE
  5
5A61
330
19
100
AcDbEntity
  8
1
100
AcDbLine
 10
1572.772408203889
 20
1039.971539286158
 30
0.0
 11
1572.772408203889
 21
1029.971539286158
 31
0.0
  0
LINE
  5
5A62
330
19
100
AcDbEntity
  8
1
100
AcDbLine
 10
1572.772408203889
 20
1029.971539286158
 30
0.0
 11
1570.772408203889
 21
1029.971539286158
 31
0.0
  0
ARC
  5
5A63
330
19
100
AcDbEntity
  8
1
100
AcDbCircle
 10
1592.142452205813
 20
1037.971539286158
 30
0.0
 40
4.0
100
AcDbArc
 50
325.3289528887338
 51
90.0
  0
ARC
  5
5A64
330
19
100
AcDbEntity
  8
1
100
AcDbCircle
 10
1592.142452205813
 20
1037.971539286158
 30
0.0
 40
2.0
100
AcDbArc
 50
325.3289528887338
 51
90.0
  0
ARC
  5
5A65
330
19
100
AcDbEntity
  8
1
100
AcDbCircle
 10
1629.649237151231
 20
1037.889448422249
 30
0.0
 40
2.0
100
AcDbArc
 50
90.0
 51
214.6710471112661
  0
ARC
  5
5A66
330
19
100
AcDbEntity
  8
1
100
AcDbCircle
 10
1629.649237151231
 20
1037.889448422249
 30
0.0
 40
4.0
100
AcDbArc
 50
90.0
 51
214.6710471112661
  0
LINE
  5
5A67
330
19
100
AcDbEntity
  8
1
100
AcDbLine
 10
1642.582247829208
 20
1012.955224246732
 30
0.0
 11
1642.582247829208
 21
974.9552242467325
 31
0.0
  0
LINE
  5
5A68
330
19
100
AcDbEntity
  8
1
100
AcDbLine
 10
1644.582247829208
 20
973.5548091703131
 30
0.0
 11
1644.582247829208
 21
1013.579515441353
 31
0.0
  0
LINE
  5
5A69
330
19
100
AcDbEntity
  8
1
100
AcDbLine
 10
1651.019281153155
 20
1029.889448422249
 30
0.0
 11
1651.019281153155
 21
1041.889448422249
 31
0.0
  0
LINE
  5
5A6A
330
19
100
AcDbEntity
  8
1
100
AcDbLine
 10
1649.019281153154
 20
1039.889448422249
 30
0.0
 11
1649.019281153154
 21
1029.889448422249
 31
0.0
  0
LINE
  5
5A6B
330
19
100
AcDbEntity
  8
1
100
AcDbLine
 10
1649.019281153154
 20
1029.889448422249
 30
0.0
 11
1651.019281153155
 21
1029.889448422249
 31
0.0
  0
VIEWPORT
  5
3E4E
330
3E47
100
AcDbEntity
 67
     1
  8
0
100
AcDbViewport
 10
5.678333072211798
 20
3.966666563289372
 30
0.0
 40
18.02443831169918
 41
8.746133096049151
 68
     1
 69
     1
 12
5.678333072211798
 22
3.966666563289372
 13
0.0
 23
0.0
 14
10.0
 24
10.0
 15
10.0
 25
10.0
 16
0.0
 26
0.0
 36
1.0
 17
0.0
 27
0.0
 37
0.0
 42
50.0
 43
0.0
 44
0.0
 45
8.746133096049151
 50
0.0
 51
0.0
 72
 20000
 90
    32800
  1

281
     0
 71
     1
 74
     0
110
0.0
120
0.0
130
0.0
111
1.0
121
0.0
131
0.0
112
0.0
122
1.0
132
0.0
 79
     0
146
0.0
  0
ENDSEC
  0
SECTION
  2
OBJECTS
  0
DICTIONARY
  5
C
330
0
100
AcDbDictionary
281
     1
  3
ACAD_GROUP
350
D
  3
ACAD_LAYOUT
350
37B7
  3
ACAD_MLINESTYLE
350
E
  3
ACAD_PLOTSETTINGS
350
37B8
  3
ACAD_PLOTSTYLENAME
350
37B5
  3
ACDBVARIABLEDICTIONARY
350
C69
  0
DICTIONARY
  5
391B
330
19
100
AcDbDictionary
280
     1
281
     1
  3
ACAD_LAYOUTSELFREF
360
3E35
  0
DICTIONARY
  5
D
102
{ACAD_REACTORS
330
C
102
}
330
C
100
AcDbDictionary
281
     1
  0
DICTIONARY
  5
37B7
102
{ACAD_REACTORS
330
C
102
}
330
C
100
AcDbDictionary
281
     1
  3
Layout1
350
3E48
  3
Model
350
37B9
  0
DICTIONARY
  5
E
102
{ACAD_REACTORS
330
C
102
}
330
C
100
AcDbDictionary
281
     1
  3
STANDARD
350
12
  0
DICTIONARY
  5
37B8
102
{ACAD_REACTORS
330
C
102
}
330
C
100
AcDbDictionary
281
     1
  0
ACDBDICTIONARYWDFLT
  5
37B5
102
{ACAD_REACTORS
330
C
102
}
330
C
100
AcDbDictionary
281
     1
  3
Normal
350
37B6
100
AcDbDictionaryWithDefault
340
37B6
  0
DICTIONARY
  5
C69
102
{ACAD_REACTORS
330
C
102
}
330
C
100
AcDbDictionary
281
     1
  3
DIMASSOC
350
3E51
  3
SORTENTS
350
C6A
  0
XRECORD
  5
3E35
102
{ACAD_REACTORS
330
391B
102
}
330
391B
100
AcDbXrecord
280
     1
340
19
  0
LAYOUT
  5
3E48
102
{ACAD_REACTORS
330
37B7
102
}
330
37B7
100
AcDbPlotSettings
  1

  2
HP LaserJet 1200
  4
A4
  6

 40
4.233333110809326
 41
4.233341693878172
 42
7.789321899414062
 43
4.23333740234375
 44
209.9733276367186
 45
296.9259948730469
 46
0.0
 47
0.0
 48
0.0
 49
0.0
140
0.0
141
0.0
142
1.0
143
1.0
 70
   688
 72
     0
 73
     1
 74
     5
  7

 75
    16
147
1.0
148
0.0
149
0.0
100
AcDbLayout
  1
Layout1
 70
     1
 71
     1
 10
-0.1666668268639272
 20
-0.166666657905879
 11
11.52333297128752
 21
8.099999784484621
 12
0.0
 22
0.0
 32
0.0
 14
1.000000000000000E+20
 24
1.000000000000000E+20
 34
1.000000000000000E+20
 15
-1.000000000000000E+20
 25
-1.000000000000000E+20
 35
-1.000000000000000E+20
146
0.0
 13
0.0
 23
0.0
 33
0.0
 16
1.0
 26
0.0
 36
0.0
 17
0.0
 27
1.0
 37
0.0
 76
     0
330
3E47
331
3E4E
  0
LAYOUT
  5
37B9
102
{ACAD_REACTORS
330
37B7
102
}
330
37B7
100
AcDbPlotSettings
  1

  2
none_device
  4
Letter_(8.50_x_11.00_Inches)
  6

 40
6.349999904632567
 41
6.349999904632567
 42
6.350006103515625
 43
6.350006103515625
 44
215.8999938964841
 45
279.3999938964843
 46
0.0
 47
0.0
 48
0.0
 49
0.0
140
0.0
141
0.0
142
1.0
143
1.0
 70
 11952
 72
     0
 73
     1
 74
     0
  7

 75
     0
147
1.0
148
22009.97398741658
149
-18121.5236927284
100
AcDbLayout
  1
Model
 70
     1
 71
     0
 10
0.0
 20
0.0
 11
12.0
 21
9.0
 12
0.0
 22
0.0
 32
0.0
 14
0.0
 24
0.0
 34
0.0
 15
0.0
 25
0.0
 35
0.0
146
0.0
 13
0.0
 23
0.0
 33
0.0
 16
1.0
 26
0.0
 36
0.0
 17
0.0
 27
1.0
 37
0.0
 76
     0
330
19
  0
MLINESTYLE
  5
12
102
{ACAD_REACTORS
330
E
102
}
330
E
100
AcDbMlineStyle
  2
STANDARD
 70
     0
  3

 62
     0
 51
90.0
 52
90.0
 71
     2
 49
0.5
 62
   256
  6
BYLAYER
 49
-0.5
 62
   256
  6
BYLAYER
  0
ACDBPLACEHOLDER
  5
37B6
102
{ACAD_REACTORS
330
37B5
102
}
330
37B5
  0
DICTIONARYVAR
  5
3E51
102
{ACAD_REACTORS
330
C69
102
}
330
C69
100
DictionaryVariables
280
     0
  1
1
  0
DICTIONARYVAR
  5
C6A
102
{ACAD_REACTORS
330
C69
102
}
330
C69
100
DictionaryVariables
280
     0
  1
96
  0
ENDSEC
  0
EOF
