  0
SECTION
  2
HEADER
  9
$ACADVER
  1
AC1015
  9
$ACADMAINTVER
 70
    13
  9
$DWGCODEPAGE
  3
ANSI_1252
  9
$INSBASE
 10
0.0
 20
0.0
 30
0.0
  9
$EXTMIN
 10
-920.8857990484769
 20
823.3802268790636
 30
-0.0000000590666652
  9
$EXTMAX
 10
-153.8345597656148
 20
1227.206223879246
 30
0.0000000362476368
  9
$LIMMIN
 10
-702.5638614136987
 20
157.8715568061255
  9
$LIMMAX
 10
-313.6316672333482
 20
442.5869997172253
  9
$ORTHOMODE
 70
     1
  9
$REGENMODE
 70
     1
  9
$FILLMODE
 70
     1
  9
$QTEXTMODE
 70
     0
  9
$MIRRTEXT
 70
     1
  9
$LTSCALE
 40
30.0
  9
$ATTMODE
 70
     1
  9
$TEXTSIZE
 40
4.009999999999998
  9
$TRACEWID
 40
0.05
  9
$TEXTSTYLE
  7
ROMANC
  9
$CLAYER
  8
1
  9
$CELTYPE
  6
BYLAYER
  9
$CECOLOR
 62
   256
  9
$CELTSCALE
 40
1.0
  9
$DISPSILH
 70
     0
  9
$DIMSCALE
 40
50.0
  9
$DIMASZ
 40
0.23
  9
$DIMEXO
 40
0.12
  9
$DIMDLI
 40
0.38
  9
$DIMRND
 40
0.0
  9
$DIMDLE
 40
0.0
  9
$DIMEXE
 40
0.18
  9
$DIMTP
 40
0.0
  9
$DIMTM
 40
0.0
  9
$DIMTXT
 40
0.23
  9
$DIMCEN
 40
0.0
  9
$DIMTSZ
 40
0.0
  9
$DIMTOL
 70
     0
  9
$DIMLIM
 70
     0
  9
$DIMTIH
 70
     1
  9
$DIMTOH
 70
     1
  9
$DIMSE1
 70
     0
  9
$DIMSE2
 70
     0
  9
$DIMTAD
 70
     0
  9
$DIMZIN
 70
     0
  9
$DIMBLK
  1

  9
$DIMASO
 70
     1
  9
$DIMSHO
 70
     0
  9
$DIMPOST
  1

  9
$DIMAPOST
  1
mm
  9
$DIMALT
 70
     0
  9
$DIMALTD
 70
     0
  9
$DIMALTF
 40
25.4
  9
$DIMLFAC
 40
1.0
  9
$DIMTOFL
 70
     0
  9
$DIMTVP
 40
0.0
  9
$DIMTIX
 70
     0
  9
$DIMSOXD
 70
     0
  9
$DIMSAH
 70
     0
  9
$DIMBLK1
  1

  9
$DIMBLK2
  1

  9
$DIMSTYLE
  2
STANDARD
  9
$DIMCLRD
 70
     0
  9
$DIMCLRE
 70
     0
  9
$DIMCLRT
 70
     0
  9
$DIMTFAC
 40
1.0
  9
$DIMGAP
 40
0.09
  9
$DIMJUST
 70
     0
  9
$DIMSD1
 70
     0
  9
$DIMSD2
 70
     0
  9
$DIMTOLJ
 70
     1
  9
$DIMTZIN
 70
     0
  9
$DIMALTZ
 70
     0
  9
$DIMALTTZ
 70
     0
  9
$DIMUPT
 70
     0
  9
$DIMDEC
 70
     0
  9
$DIMTDEC
 70
     0
  9
$DIMALTU
 70
     2
  9
$DIMALTTD
 70
     0
  9
$DIMTXSTY
  7
STANDARD
  9
$DIMAUNIT
 70
     0
  9
$DIMADEC
 70
     0
  9
$DIMALTRND
 40
0.0
  9
$DIMAZIN
 70
     0
  9
$DIMDSEP
 70
    46
  9
$DIMATFIT
 70
     3
  9
$DIMFRAC
 70
     0
  9
$DIMLDRBLK
  1

  9
$DIMLUNIT
 70
     2
  9
$DIMLWD
 70
    -2
  9
$DIMLWE
 70
    -2
  9
$DIMTMOVE
 70
     0
  9
$LUNITS
 70
     2
  9
$LUPREC
 70
     2
  9
$SKETCHINC
 40
0.0
  9
$FILLETRAD
 40
1.0
  9
$AUNITS
 70
     0
  9
$AUPREC
 70
     2
  9
$MENU
  1
acad
  9
$ELEVATION
 40
0.0
  9
$PELEVATION
 40
0.0
  9
$THICKNESS
 40
0.0
  9
$LIMCHECK
 70
     0
  9
$CHAMFERA
 40
0.0
  9
$CHAMFERB
 40
0.0
  9
$CHAMFERC
 40
0.0
  9
$CHAMFERD
 40
0.0
  9
$SKPOLY
 70
     0
  9
$TDCREATE
 40
2450224.417987847
  9
$TDUCREATE
 40
2450224.376321180
  9
$TDUPDATE
 40
2452410.478851736
  9
$TDUUPDATE
 40
2452410.437185069
  9
$TDINDWG
 40
0.7164216435
  9
$TDUSRTIMER
 40
0.7164216435
  9
$USRTIMER
 70
     1
  9
$ANGBASE
 50
0.0
  9
$ANGDIR
 70
     0
  9
$PDMODE
 70
    34
  9
$PDSIZE
 40
0.0
  9
$PLINEWID
 40
0.0
  9
$SPLFRAME
 70
     0
  9
$SPLINETYPE
 70
     6
  9
$SPLINESEGS
 70
     8
  9
$HANDSEED
  5
4DD0
  9
$SURFTAB1
 70
     6
  9
$SURFTAB2
 70
     6
  9
$SURFTYPE
 70
     6
  9
$SURFU
 70
     6
  9
$SURFV
 70
     6
  9
$UCSBASE
  2

  9
$UCSNAME
  2

  9
$UCSORG
 10
-881.3725378634428
 20
-169.8351068294423
 30
0.0
  9
$UCSXDIR
 10
1.0
 20
0.0
 30
0.0
  9
$UCSYDIR
 10
0.0
 20
1.0
 30
0.0
  9
$UCSORTHOREF
  2

  9
$UCSORTHOVIEW
 70
     0
  9
$UCSORGTOP
 10
0.0
 20
0.0
 30
0.0
  9
$UCSORGBOTTOM
 10
0.0
 20
0.0
 30
0.0
  9
$UCSORGLEFT
 10
0.0
 20
0.0
 30
0.0
  9
$UCSORGRIGHT
 10
0.0
 20
0.0
 30
0.0
  9
$UCSORGFRONT
 10
0.0
 20
0.0
 30
0.0
  9
$UCSORGBACK
 10
0.0
 20
0.0
 30
0.0
  9
$PUCSBASE
  2

  9
$PUCSNAME
  2

  9
$PUCSORG
 10
0.0
 20
0.0
 30
0.0
  9
$PUCSXDIR
 10
1.0
 20
0.0
 30
0.0
  9
$PUCSYDIR
 10
0.0
 20
1.0
 30
0.0
  9
$PUCSORTHOREF
  2

  9
$PUCSORTHOVIEW
 70
     0
  9
$PUCSORGTOP
 10
0.0
 20
0.0
 30
0.0
  9
$PUCSORGBOTTOM
 10
0.0
 20
0.0
 30
0.0
  9
$PUCSORGLEFT
 10
0.0
 20
0.0
 30
0.0
  9
$PUCSORGRIGHT
 10
0.0
 20
0.0
 30
0.0
  9
$PUCSORGFRONT
 10
0.0
 20
0.0
 30
0.0
  9
$PUCSORGBACK
 10
0.0
 20
0.0
 30
0.0
  9
$USERI1
 70
     0
  9
$USERI2
 70
     0
  9
$USERI3
 70
     0
  9
$USERI4
 70
     0
  9
$USERI5
 70
     0
  9
$USERR1
 40
0.0
  9
$USERR2
 40
0.0
  9
$USERR3
 40
0.0
  9
$USERR4
 40
0.0
  9
$USERR5
 40
0.0
  9
$WORLDVIEW
 70
     1
  9
$SHADEDGE
 70
     3
  9
$SHADEDIF
 70
    70
  9
$TILEMODE
 70
     1
  9
$MAXACTVP
 70
    16
  9
$PINSBASE
 10
0.0
 20
0.0
 30
0.0
  9
$PLIMCHECK
 70
     0
  9
$PEXTMIN
 10
1.135666597546552
 20
0.7793333567972259
 30
0.0
  9
$PEXTMAX
 10
10.22099937791898
 20
7.014000211175031
 30
0.0
  9
$PLIMMIN
 10
-0.1666668268639272
 20
-0.166666657905879
  9
$PLIMMAX
 10
11.52333297128752
 20
8.099999784484621
  9
$UNITMODE
 70
     0
  9
$VISRETAIN
 70
     0
  9
$PLINEGEN
 70
     0
  9
$PSLTSCALE
 70
     1
  9
$TREEDEPTH
 70
  3020
  9
$CMLSTYLE
  2
STANDARD
  9
$CMLJUST
 70
     0
  9
$CMLSCALE
 40
1.0
  9
$PROXYGRAPHICS
 70
     1
  9
$MEASUREMENT
 70
     0
  9
$CELWEIGHT
370
    -1
  9
$ENDCAPS
280
     0
  9
$JOINSTYLE
280
     0
  9
$LWDISPLAY
290
     0
  9
$INSUNITS
 70
     0
  9
$HYPERLINKBASE
  1

  9
$STYLESHEET
  1

  9
$XEDIT
290
     1
  9
$CEPSNTYPE
380
     0
  9
$PSTYLEMODE
290
     1
  9
$FINGERPRINTGUID
  2
{6C551284-AFF8-11D5-9ED5-00025574647A}
  9
$VERSIONGUID
  2
{98FB5E79-67F4-11D6-8FCF-0050DA4C4468}
  9
$EXTNAMES
290
     1
  9
$PSVPSCALE
 40
0.0
  9
$OLESTARTUP
290
     0
  0
ENDSEC
  0
SECTION
  2
CLASSES
  0
CLASS
  1
LWPOLYLINE
  2
AcDbPolyline
  3
AutoCAD 2000
 90
    32768
280
     0
281
     1
  0
CLASS
  1
DICTIONARYVAR
  2
AcDbDictionaryVar
  3
AutoCAD 2000
 90
        0
280
     0
281
     0
  0
CLASS
  1
HATCH
  2
AcDbHatch
  3
AutoCAD 2000
 90
    32768
280
     0
281
     1
  0
CLASS
  1
ACDBDICTIONARYWDFLT
  2
AcDbDictionaryWithDefault
  3
AutoCAD 2000
 90
        0
280
     0
281
     0
  0
CLASS
  1
ACDBPLACEHOLDER
  2
AcDbPlaceHolder
  3
AutoCAD 2000
 90
        0
280
     0
281
     0
  0
CLASS
  1
LAYOUT
  2
AcDbLayout
  3
AutoCAD 2000
 90
        0
280
     0
281
     0
  0
CLASS
  1
LONG_TRANSACTION
  2
AcDbLongTransaction
  3
AutoCAD 2000
 90
    32768
280
     0
281
     0
  0
CLASS
  1
LWPOLYLINE
  2
AcDbPolyline
  3
AutoCAD 2000
 90
    32768
280
     0
281
     1
  0
CLASS
  1
HATCH
  2
AcDbHatch
  3
AutoCAD 2000
 90
    32768
280
     0
281
     1
  0
CLASS
  1
XRECORD
  2
AcDbXrecord
  3
AutoCAD 2000
 90
    32768
280
     0
281
     0
  0
CLASS
  1
LONG_TRANSACTION
  2
AcDbLongTransaction
  3
AutoCAD 2000
 90
    32768
280
     0
281
     0
  0
CLASS
  1
LWPOLYLINE
  2
AcDbPolyline
  3
AutoCAD 2000
 90
    32768
280
     0
281
     1
  0
CLASS
  1
HATCH
  2
AcDbHatch
  3
AutoCAD 2000
 90
    32768
280
     0
281
     1
  0
CLASS
  1
XRECORD
  2
AcDbXrecord
  3
AutoCAD 2000
 90
    32768
280
     0
281
     0
  0
CLASS
  1
LONG_TRANSACTION
  2
AcDbLongTransaction
  3
AutoCAD 2000
 90
    32768
280
     0
281
     0
  0
CLASS
  1
LWPOLYLINE
  2
AcDbPolyline
  3
AutoCAD 2000
 90
    32768
280
     0
281
     1
  0
CLASS
  1
HATCH
  2
AcDbHatch
  3
AutoCAD 2000
 90
    32768
280
     0
281
     1
  0
CLASS
  1
XRECORD
  2
AcDbXrecord
  3
AutoCAD 2000
 90
    32768
280
     0
281
     0
  0
CLASS
  1
LONG_TRANSACTION
  2
AcDbLongTransaction
  3
AutoCAD 2000
 90
    32768
280
     0
281
     0
  0
CLASS
  1
LWPOLYLINE
  2
AcDbPolyline
  3
AutoCAD 2000
 90
    32768
280
     0
281
     1
  0
CLASS
  1
HATCH
  2
AcDbHatch
  3
AutoCAD 2000
 90
    32768
280
     0
281
     1
  0
CLASS
  1
XRECORD
  2
AcDbXrecord
  3
AutoCAD 2000
 90
    32768
280
     0
281
     0
  0
CLASS
  1
LONG_TRANSACTION
  2
AcDbLongTransaction
  3
AutoCAD 2000
 90
    32768
280
     0
281
     0
  0
CLASS
  1
LWPOLYLINE
  2
AcDbPolyline
  3
AutoCAD 2000
 90
    32768
280
     0
281
     1
  0
CLASS
  1
HATCH
  2
AcDbHatch
  3
AutoCAD 2000
 90
    32768
280
     0
281
     1
  0
CLASS
  1
XRECORD
  2
AcDbXrecord
  3
AutoCAD 2000
 90
    32768
280
     0
281
     0
  0
CLASS
  1
LONG_TRANSACTION
  2
AcDbLongTransaction
  3
AutoCAD 2000
 90
    32768
280
     0
281
     0
  0
CLASS
  1
LWPOLYLINE
  2
AcDbPolyline
  3
AutoCAD 2000
 90
    32768
280
     0
281
     1
  0
CLASS
  1
HATCH
  2
AcDbHatch
  3
AutoCAD 2000
 90
    32768
280
     0
281
     1
  0
CLASS
  1
XRECORD
  2
AcDbXrecord
  3
AutoCAD 2000
 90
    32768
280
     0
281
     0
  0
CLASS
  1
LONG_TRANSACTION
  2
AcDbLongTransaction
  3
AutoCAD 2000
 90
    32768
280
     0
281
     0
  0
CLASS
  1
LWPOLYLINE
  2
AcDbPolyline
  3
AutoCAD 2000
 90
    32768
280
     0
281
     1
  0
CLASS
  1
HATCH
  2
AcDbHatch
  3
AutoCAD 2000
 90
    32768
280
     0
281
     1
  0
CLASS
  1
XRECORD
  2
AcDbXrecord
  3
AutoCAD 2000
 90
    32768
280
     0
281
     0
  0
ENDSEC
  0
SECTION
  2
TABLES
  0
TABLE
  2
VPORT
  5
8
330
0
100
AcDbSymbolTable
 70
     2
  0
VPORT
  5
4DCF
330
8
100
AcDbSymbolTableRecord
100
AcDbViewportTableRecord
  2
*Active
 70
     0
 10
0.0
 20
0.0
 11
1.0
 21
1.0
 12
-537.3601794070459
 22
1025.293225379155
 13
0.0
 23
0.0
 14
20.0
 24
20.0
 15
10.0
 25
10.0
 16
0.0
 26
0.0
 36
1.0
 17
0.0
 27
0.0
 37
0.0
 40
410.2190206993941
 41
2.06084656084656
 42
50.0
 43
0.0
 44
0.0
 50
0.0
 51
0.0
 71
     0
 72
 20000
 73
     1
 74
     3
 75
     0
 76
     0
 77
     0
 78
     1
281
     0
 65
     1
110
-881.3725378634428
120
-169.8351068294423
130
0.0
111
1.0
121
0.0
131
0.0
112
0.0
122
1.0
132
0.0
 79
     0
146
0.0
  0
ENDTAB
  0
TABLE
  2
LTYPE
  5
5
330
0
100
AcDbSymbolTable
 70
     2
  0
LTYPE
  5
13
330
5
100
AcDbSymbolTableRecord
100
AcDbLinetypeTableRecord
  2
BYBLOCK
 70
     0
  3

 72
    65
 73
     0
 40
0.0
  0
LTYPE
  5
14
330
5
100
AcDbSymbolTableRecord
100
AcDbLinetypeTableRecord
  2
BYLAYER
 70
     0
  3

 72
    65
 73
     0
 40
0.0
  0
LTYPE
  5
15
330
5
100
AcDbSymbolTableRecord
100
AcDbLinetypeTableRecord
  2
CONTINUOUS
 70
     0
  3
Solid line
 72
    65
 73
     0
 40
0.0
  0
LTYPE
  5
41E7
330
5
100
AcDbSymbolTableRecord
100
AcDbLinetypeTableRecord
  2
HIDDEN
 70
     0
  3
_ _ _ _ _ _ _ _ _ _ _ _ _ _ _ _ _ _ _ _ _ _ _
 72
    65
 73
     2
 40
0.375
 49
0.25
 74
     0
 49
-0.125
 74
     0
  0
ENDTAB
  0
TABLE
  2
LAYER
  5
2
330
0
100
AcDbSymbolTable
 70
     3
  0
LAYER
  5
F
330
2
100
AcDbSymbolTableRecord
100
AcDbLayerTableRecord
  2
0
 70
     0
 62
    30
  6
CONTINUOUS
370
    -3
390
37B6
  0
LAYER
  5
30
330
2
100
AcDbSymbolTableRecord
100
AcDbLayerTableRecord
  2
1
 70
     0
 62
     7
  6
CONTINUOUS
370
    -3
390
37B6
  0
LAYER
  5
31
330
2
100
AcDbSymbolTableRecord
100
AcDbLayerTableRecord
  2
DEFPOINTS
 70
     0
 62
     6
  6
CONTINUOUS
290
     0
370
    -3
390
37B6
  0
ENDTAB
  0
TABLE
  2
STYLE
  5
3
330
0
100
AcDbSymbolTable
 70
     2
  0
STYLE
  5
10
330
3
100
AcDbSymbolTableRecord
100
AcDbTextStyleTableRecord
  2
STANDARD
 70
     0
 40
0.0
 41
1.0
 50
0.0
 71
     0
 42
19.71412580829619
  3
techl___.ttf
  4

1001
ACAD
1000
TechnicLite
1071
      514
  0
STYLE
  5
2B
330
3
100
AcDbSymbolTableRecord
100
AcDbTextStyleTableRecord
  2
ROMANC
 70
     0
 40
4.009999999999998
 41
1.0
 50
0.0
 71
     0
 42
4.009999999999998
  3
romanc
  4

  0
ENDTAB
  0
TABLE
  2
VIEW
  5
6
330
0
100
AcDbSymbolTable
 70
     1
  0
VIEW
  5
2B15
330
6
100
AcDbSymbolTableRecord
100
AcDbViewTableRecord
  2
P1
 70
     1
 40
195.7116207376954
 10
156.3078220645051
 20
105.1927068532014
 41
281.044737853693
 11
0.0
 21
0.0
 31
1.0
 12
0.0
 22
0.0
 32
0.0
 42
50.0
 43
0.0
 44
0.0
 50
0.0
 71
     0
281
     0
 72
     0
  0
ENDTAB
  0
TABLE
  2
UCS
  5
7
330
0
100
AcDbSymbolTable
 70
     0
  0
ENDTAB
  0
TABLE
  2
APPID
  5
9
330
0
100
AcDbSymbolTable
 70
     3
  0
APPID
  5
11
330
9
100
AcDbSymbolTableRecord
100
AcDbRegAppTableRecord
  2
ACAD
 70
     0
  0
APPID
  5
21B6
330
9
100
AcDbSymbolTableRecord
100
AcDbRegAppTableRecord
  2
CONTENTTABDATA
 70
     0
  0
APPID
  5
21B7
330
9
100
AcDbSymbolTableRecord
100
AcDbRegAppTableRecord
  2
CONTENTCURRENTTAB
 70
     0
  0
ENDTAB
  0
TABLE
  2
DIMSTYLE
  5
A
330
0
100
AcDbSymbolTable
 70
     1
100
AcDbDimStyleTable
 71
     1
340
AD6
  0
DIMSTYLE
105
AD6
102
{ACAD_REACTORS
330
484D
330
481A
330
47DA
330
4887
330
4D2E
330
4D88
102
}
330
A
100
AcDbSymbolTableRecord
100
AcDbDimStyleTableRecord
  2
STANDARD
 70
     0
340
10
  0
ENDTAB
  0
TABLE
  2
BLOCK_RECORD
  5
1
330
0
100
AcDbSymbolTable
 70
    19
  0
BLOCK_RECORD
  5
19
102
{ACAD_XDICTIONARY
360
391B
102
}
330
1
100
AcDbSymbolTableRecord
100
AcDbBlockTableRecord
  2
*MODEL_SPACE
340
37B9
  0
BLOCK_RECORD
  5
3E47
330
1
100
AcDbSymbolTableRecord
100
AcDbBlockTableRecord
  2
*Paper_Space
340
3E48
  0
BLOCK_RECORD
  5
47AD
330
1
100
AcDbSymbolTableRecord
100
AcDbBlockTableRecord
  2
*D0
340
0
  0
BLOCK_RECORD
  5
47CD
330
1
100
AcDbSymbolTableRecord
100
AcDbBlockTableRecord
  2
*D1
340
0
  0
BLOCK_RECORD
  5
47DB
330
1
100
AcDbSymbolTableRecord
100
AcDbBlockTableRecord
  2
*D2
340
0
  0
BLOCK_RECORD
  5
481B
330
1
100
AcDbSymbolTableRecord
100
AcDbBlockTableRecord
  2
*D3
340
0
  0
BLOCK_RECORD
  5
484E
330
1
100
AcDbSymbolTableRecord
100
AcDbBlockTableRecord
  2
*D4
340
0
  0
BLOCK_RECORD
  5
48DC
330
1
100
AcDbSymbolTableRecord
100
AcDbBlockTableRecord
  2
LADDER
340
0
310
28000000200000002000000001000800000000000004000000000000000000000000000000000000000000004000000080000000FF000000002000004020000080200000FF200000004000004040000080400000FF400000006000004060000080600000FF600000008000004080000080800000FF80000000A0000040A000
310
0080A00000FFA0000000C0000040C0000080C00000FFC0000000FF000040FF000080FF0000FFFF0000000020004000200080002000FF002000002020004020200080202000FF202000004020004040200080402000FF402000006020004060200080602000FF602000008020004080200080802000FF80200000A0200040A0
310
200080A02000FFA0200000C0200040C0200080C02000FFC0200000FF200040FF200080FF2000FFFF2000000040004000400080004000FF004000002040004020400080204000FF204000004040004040400080404000FF404000006040004060400080604000FF604000008040004080400080804000FF80400000A0400040
310
A0400080A04000FFA0400000C0400040C0400080C04000FFC0400000FF400040FF400080FF4000FFFF4000000060004000600080006000FF006000002060004020600080206000FF206000004060004040600080406000FF406000006060004060600080606000FF606000008060004080600080806000FF80600000A06000
310
40A0600080A06000FFA0600000C0600040C0600080C06000FFC0600000FF600040FF600080FF6000FFFF6000000080004000800080008000FF008000002080004020800080208000FF208000004080004040800080408000FF408000006080004060800080608000FF608000008080004080800080808000FF80800000A080
310
0040A0800080A08000FFA0800000C0800040C0800080C08000FFC0800000FF800040FF800080FF8000FFFF80000000A0004000A0008000A000FF00A0000020A0004020A0008020A000FF20A0000040A0004040A0008040A000FF40A0000060A0004060A0008060A000FF60A0000080A0004080A0008080A000FF80A00000A0
310
A00040A0A00080A0A000FFA0A00000C0A00040C0A00080C0A000FFC0A00000FFA00040FFA00080FFA000FFFFA0000000C0004000C0008000C000FF00C0000020C0004020C0008020C000FF20C0000040C0004040C0008040C000FF40C0000060C0004060C0008060C000FF60C0000080C0004080C0008080C000FF80C00000
310
A0C00040A0C00080A0C000FFA0C00000C0C00040C0C00080C0C000FFC0C00000FFC00040FFC00080FFC000FFFFC0000000FF004000FF008000FF00FF00FF000020FF004020FF008020FF00FF20FF000040FF004040FF008040FF00FF40FF000060FF004060FF008060FF00FF60FF000080FF004080FF008080FF00FF80FF00
310
00A0FF0040A0FF0080A0FF00FFA0FF0000C0FF0040C0FF0080C0FF00FFC0FF0000FFFF0040FFFF0080FFFF00FFFFFF00000000000000000000000000000000000000000000000000000000000000000000FFFFFFFFFFFFFFFFFFFFFFFFFFFFFFFFFFFFFFFFFFFFFFFFFFFFFFFFFFFF0000FFFFFFFFFFFFFFFFFFFFFFFFFFFF
310
FFFFFFFFFFFFFFFFFFFFFFFFFFFFFFFF0000FFFF00FFFF00FF00FF00FFFF00FF00FFFF00FF00FFFF00FF00FFFF00FFFF0000FFFF00FFFF00FF00FF00FFFF00FF00FFFF00FF00FFFF00FF00FFFF00FFFF0000FFFF00FFFF00FF00FF00FFFF00FF00FFFF00FF00FFFF00FF00FFFF00FFFF0000FFFF00FFFF00FF00FF00FFFF00
310
FF00FFFF00FF00FFFF00FF00FFFF00FFFF0000FFFF00FFFF00FF00FF00FFFF00FF00FFFF00FF00FFFF00FF00FFFF00FFFF0000FFFF00FFFF00FF00FF00FFFF00FF00FFFF00FF00FFFF00FF00FFFF00FFFF0000FFFF00FFFF00FF00FF00FFFF00FF00FFFF00FF00FFFF00FF00FFFF00FFFF0000FFFF00FFFF00FF00FF00FFFF
310
00FF00FFFF00FF00FFFF00FF00FFFF00FFFF0000FFFF00FFFF00FF00FF00FFFF00FF00FFFF00FF00FFFF00FF00FFFF00FFFF0000FFFF00FFFF00FF00FF00FFFF00FF00FFFF00FF00FFFF00FF00FFFF00FFFF0000FFFF00FFFF00FF00FF00FFFF00FF00FFFF00FF00FFFF00FF00FFFF00FFFF0000FFFF00FFFF00FF00FF00FF
310
FF00FF00FFFF00FF00FFFF00FF00FFFF00FFFF0000FFFF00FFFF00FF00FF00FFFF00FF00FFFF00FF00FFFF00FF00FFFF00FFFF0000FFFF00FFFF00FF00FF00FFFF00FF00FFFF00FF00FFFF00FF00FFFF00FFFF0000FFFF00FFFF00FF00FF00FFFF00FF00FFFF00FF00FFFF00FF00FFFF00FFFF0000FFFF00FFFF00FF00FF00
310
FFFF00FF00FFFF00FF00FFFF00FF00FFFF00FFFF0000FFFF00FFFF00FF00FF00FFFF00FF00FFFF00FF00FFFF00FF00FFFF00FFFF0000FFFF00FFFF00FF00FF00FFFF00FF00FFFF00FF00FFFF00FF00FFFF00FFFF0000FFFF00FFFF00FF00FF00FFFF00FF00FFFF00FF00FFFF00FF00FFFF00FFFF0000FFFF00FFFF00FF00FF
310
00FFFF00FF00FFFF00FF00FFFF00FF00FFFF00FFFF0000FFFF00FFFF00FF00FF00FFFF00FF00FFFF00FF00FFFF00FF00FFFF00FFFF0000FFFF00FFFF00FF00FF00FFFF00FF00FFFF00FF00FFFF00FF00FFFF00FFFF0000FFFF00FFFF00FF00FF00FFFF00FF00FFFF00FF00FFFF00FF00FFFF00FFFF0000FFFF00FFFF00FF00
310
FF00FFFF00FF00FFFF00FF00FFFF00FF00FFFF00FFFF0000FFFF00FFFF00FF00FF00FFFF00FF00FFFF00FF00FFFF00FF00FFFF00FFFF0000FFFF00FFFF00FF00FF00FFFF00FF00FFFF00FF00FFFF00FF00FFFF00FFFF0000FFFFFFFFFFFFFFFFFFFFFFFFFFFFFFFFFFFFFFFFFFFFFFFFFFFFFFFFFFFF0000FFFFFFFFFFFFFF
310
FFFFFFFFFFFFFFFFFFFFFFFFFFFFFFFFFFFFFFFFFFFFFF000000000000000000000000000000000000000000000000000000000000000000
102
{BLKREFS
331
48F5
102
}
  0
BLOCK_RECORD
  5
4929
330
1
100
AcDbSymbolTableRecord
100
AcDbBlockTableRecord
  2
LADDER2
340
0
310
28000000200000002000000001000800000000000004000000000000000000000000000000000000000000004000000080000000FF000000002000004020000080200000FF200000004000004040000080400000FF400000006000004060000080600000FF600000008000004080000080800000FF80000000A0000040A000
310
0080A00000FFA0000000C0000040C0000080C00000FFC0000000FF000040FF000080FF0000FFFF0000000020004000200080002000FF002000002020004020200080202000FF202000004020004040200080402000FF402000006020004060200080602000FF602000008020004080200080802000FF80200000A0200040A0
310
200080A02000FFA0200000C0200040C0200080C02000FFC0200000FF200040FF200080FF2000FFFF2000000040004000400080004000FF004000002040004020400080204000FF204000004040004040400080404000FF404000006040004060400080604000FF604000008040004080400080804000FF80400000A0400040
310
A0400080A04000FFA0400000C0400040C0400080C04000FFC0400000FF400040FF400080FF4000FFFF4000000060004000600080006000FF006000002060004020600080206000FF206000004060004040600080406000FF406000006060004060600080606000FF606000008060004080600080806000FF80600000A06000
310
40A0600080A06000FFA0600000C0600040C0600080C06000FFC0600000FF600040FF600080FF6000FFFF6000000080004000800080008000FF008000002080004020800080208000FF208000004080004040800080408000FF408000006080004060800080608000FF608000008080004080800080808000FF80800000A080
310
0040A0800080A08000FFA0800000C0800040C0800080C08000FFC0800000FF800040FF800080FF8000FFFF80000000A0004000A0008000A000FF00A0000020A0004020A0008020A000FF20A0000040A0004040A0008040A000FF40A0000060A0004060A0008060A000FF60A0000080A0004080A0008080A000FF80A00000A0
310
A00040A0A00080A0A000FFA0A00000C0A00040C0A00080C0A000FFC0A00000FFA00040FFA00080FFA000FFFFA0000000C0004000C0008000C000FF00C0000020C0004020C0008020C000FF20C0000040C0004040C0008040C000FF40C0000060C0004060C0008060C000FF60C0000080C0004080C0008080C000FF80C00000
310
A0C00040A0C00080A0C000FFA0C00000C0C00040C0C00080C0C000FFC0C00000FFC00040FFC00080FFC000FFFFC0000000FF004000FF008000FF00FF00FF000020FF004020FF008020FF00FF20FF000040FF004040FF008040FF00FF40FF000060FF004060FF008060FF00FF60FF000080FF004080FF008080FF00FF80FF00
310
00A0FF0040A0FF0080A0FF00FFA0FF0000C0FF0040C0FF0080C0FF00FFC0FF0000FFFF0040FFFF0080FFFF00FFFFFF0000000000000000000000000000000000000000000000000000000000000000000000000000000000000000000000000000000000000000000000000000000000000000000000000000000000000000
310
00000000000000000000000000000000000000000000000000000000000000000000000000000000000000000000000000000000000000000000000000000000000000000000000000000000000000000000000000000000000000000000000000000000000000000000000000000000000000000000000000000000000000
310
00000000000000000000000000000000000000000000000000000000000000000000000000000000000000000000000000000000000000000000000000000000000000000000000000000000000000000000000000000000000000000000000000000000000000000000000000000000000000000000000000000000000000
310
0000000000000000000000000000000000000000000000000000000000000000000000000000000000000000000000000000000000000000000000000000000000000000000000000000000000000000000000000000000000000000000000000000000000000000000000000000000000000000FFFF00FF00FFFF00FF00FF
310
FF00FF0000FF00FFFF00FF00FFFF00FF00FFFF0000FFFF00FF00FFFF00FF00FFFF00FF0000FF00FFFF00FF00FFFF00FF00FFFF0000FFFF00FF00FFFF00FF00FFFF00FF0000FF00FFFF00FF00FFFF00FF00FFFF0000FFFFFFFFFFFFFFFFFFFFFFFFFFFFFFFFFFFFFFFFFFFFFFFFFFFFFFFFFFFF000000000000000000000000
310
00000000000000000000000000000000000000000000000000000000000000000000000000000000000000000000000000000000000000000000000000000000000000000000000000000000000000000000000000000000000000000000000000000000000000000000000000000000000000000000000000000000000000
310
00000000000000000000000000000000000000000000000000000000000000000000000000000000000000000000000000000000000000000000000000000000000000000000000000000000000000000000000000000000000000000000000000000000000000000000000000000000000000000000000000000000000000
310
00000000000000000000000000000000000000000000000000000000000000000000000000000000000000000000000000000000000000000000000000000000000000000000000000000000000000000000000000000000000000000000000000000000000000000000000000000000000000000000000000000000000000
310
0000000000000000000000000000000000000000000000000000000000000000000000000000000000000000000000000000000000000000
102
{BLKREFS
331
4951
102
}
  0
BLOCK_RECORD
  5
4B36
330
1
100
AcDbSymbolTableRecord
100
AcDbBlockTableRecord
  2
*D7
340
0
  0
BLOCK_RECORD
  5
4B42
330
1
100
AcDbSymbolTableRecord
100
AcDbBlockTableRecord
  2
*D8
340
0
  0
BLOCK_RECORD
  5
4B4E
330
1
100
AcDbSymbolTableRecord
100
AcDbBlockTableRecord
  2
*D9
340
0
  0
BLOCK_RECORD
  5
4B5B
330
1
100
AcDbSymbolTableRecord
100
AcDbBlockTableRecord
  2
*D10
340
0
  0
BLOCK_RECORD
  5
4C4C
330
1
100
AcDbSymbolTableRecord
100
AcDbBlockTableRecord
  2
*D11
340
0
  0
BLOCK_RECORD
  5
4C59
330
1
100
AcDbSymbolTableRecord
100
AcDbBlockTableRecord
  2
*D12
340
0
  0
BLOCK_RECORD
  5
4C66
330
1
100
AcDbSymbolTableRecord
100
AcDbBlockTableRecord
  2
*D13
340
0
  0
BLOCK_RECORD
  5
4C72
330
1
100
AcDbSymbolTableRecord
100
AcDbBlockTableRecord
  2
*D14
340
0
  0
BLOCK_RECORD
  5
4CD4
330
1
100
AcDbSymbolTableRecord
100
AcDbBlockTableRecord
  2
SLOTTED
340
0
310
28000000200000002000000001000800000000000004000000000000000000000000000000000000000000004000000080000000FF000000002000004020000080200000FF200000004000004040000080400000FF400000006000004060000080600000FF600000008000004080000080800000FF80000000A0000040A000
310
0080A00000FFA0000000C0000040C0000080C00000FFC0000000FF000040FF000080FF0000FFFF0000000020004000200080002000FF002000002020004020200080202000FF202000004020004040200080402000FF402000006020004060200080602000FF602000008020004080200080802000FF80200000A0200040A0
310
200080A02000FFA0200000C0200040C0200080C02000FFC0200000FF200040FF200080FF2000FFFF2000000040004000400080004000FF004000002040004020400080204000FF204000004040004040400080404000FF404000006040004060400080604000FF604000008040004080400080804000FF80400000A0400040
310
A0400080A04000FFA0400000C0400040C0400080C04000FFC0400000FF400040FF400080FF4000FFFF4000000060004000600080006000FF006000002060004020600080206000FF206000004060004040600080406000FF406000006060004060600080606000FF606000008060004080600080806000FF80600000A06000
310
40A0600080A06000FFA0600000C0600040C0600080C06000FFC0600000FF600040FF600080FF6000FFFF6000000080004000800080008000FF008000002080004020800080208000FF208000004080004040800080408000FF408000006080004060800080608000FF608000008080004080800080808000FF80800000A080
310
0040A0800080A08000FFA0800000C0800040C0800080C08000FFC0800000FF800040FF800080FF8000FFFF80000000A0004000A0008000A000FF00A0000020A0004020A0008020A000FF20A0000040A0004040A0008040A000FF40A0000060A0004060A0008060A000FF60A0000080A0004080A0008080A000FF80A00000A0
310
A00040A0A00080A0A000FFA0A00000C0A00040C0A00080C0A000FFC0A00000FFA00040FFA00080FFA000FFFFA0000000C0004000C0008000C000FF00C0000020C0004020C0008020C000FF20C0000040C0004040C0008040C000FF40C0000060C0004060C0008060C000FF60C0000080C0004080C0008080C000FF80C00000
310
A0C00040A0C00080A0C000FFA0C00000C0C00040C0C00080C0C000FFC0C00000FFC00040FFC00080FFC000FFFFC0000000FF004000FF008000FF00FF00FF000020FF004020FF008020FF00FF20FF000040FF004040FF008040FF00FF40FF000060FF004060FF008060FF00FF60FF000080FF004080FF008080FF00FF80FF00
310
00A0FF0040A0FF0080A0FF00FFA0FF0000C0FF0040C0FF0080C0FF00FFC0FF0000FFFF0040FFFF0080FFFF00FFFFFF0000000000000000000000000000000000000000000000000000000000000000000000000000000000000000000000FFFFFFFF00000000000000000000000000000000000000000000000000FFFFFF00
310
000000FFFFFF0000000000000000000000000000000000000000FFFF00000000000000000000FFFF00000000000000000000000000000000FFFF0000000000000000000000000000FFFF00000000000000000000000000FF000000FFFFFFFFFF0000FFFFFFFFFF000000FF0000000000000000000000FF00000000FFFFFFFF
310
FFFFFFFFFFFFFFFF00000000FF000000000000000000FF00000000000000000000000000000000000000000000FF0000000000000000FF0000FFFFFFFFFFFFFFFF0000FFFFFFFFFFFFFFFF000000FF000000000000FF0000FF0000000000000000FFFF0000000000000000FF0000FF000000000000FF000000FFFFFFFFFFFF
310
FFFF0000FFFFFFFFFFFFFFFF00000000FF00000000FF0000FFFFFFFFFFFFFFFFFFFF0000FFFFFFFFFFFFFFFFFFFF0000FF00000000FF00FF00000000000000000000FFFF00000000000000000000FF00FF00000000FF0000FFFFFFFFFFFFFFFFFFFF0000FFFFFFFFFFFFFFFFFFFF0000FF000000FF00000000000000000000
310
000000000000000000000000000000000000FF0000FF000000FFFFFFFFFFFFFFFFFFFF0000FFFFFFFFFFFFFFFFFFFF000000FF0000FF0000FFFFFFFFFFFFFFFFFFFFFFFFFFFFFFFFFFFFFFFFFFFFFFFF0000FF0000FF00000000000000000000000000000000000000000000000000000000FF000000FF0000FFFFFFFFFFFF
310
FFFFFFFF0000FFFFFFFFFFFFFFFFFFFF000000FF000000FF00FF00000000000000000000FFFF00000000000000000000FF00FF00000000FF0000FFFFFFFFFFFFFFFFFFFF0000FFFFFFFFFFFFFFFFFFFF0000FF0000000000FF000000FFFFFFFFFFFFFFFF0000FFFFFFFFFFFFFFFF00000000FF0000000000FF0000FF000000
310
0000000000FFFF0000000000000000FF0000FF00000000000000FF0000FFFFFFFFFFFFFFFF0000FFFFFFFFFFFFFFFF000000FF00000000000000FF00000000000000000000000000000000000000000000FF000000000000000000FF00000000FFFFFFFFFFFFFFFFFFFFFFFF00000000FF0000000000000000000000FF0000
310
00FFFFFFFFFF0000FFFFFFFFFF000000FF00000000000000000000000000FF00000000000000000000000000000000FF000000000000000000000000000000FFFF000000000000000000000000FFFF000000000000000000000000000000000000FFFFFFFF0000000000FFFFFF000000000000000000000000000000000000
310
000000000000FFFFFFFFFF000000000000000000000000000000000000000000000000000000000000000000000000000000000000000000
102
{BLKREFS
331
4D19
331
4D25
102
}
  0
BLOCK_RECORD
  5
4D66
330
1
100
AcDbSymbolTableRecord
100
AcDbBlockTableRecord
  2
*D16
340
0
  0
BLOCK_RECORD
  5
4D8F
330
1
100
AcDbSymbolTableRecord
100
AcDbBlockTableRecord
  2
*D18
340
0
  0
ENDTAB
  0
ENDSEC
  0
SECTION
  2
BLOCKS
  0
BLOCK
  5
35
330
19
100
AcDbEntity
  8
0
100
AcDbBlockBegin
  2
*MODEL_SPACE
 70
     0
 10
0.0
 20
0.0
 30
0.0
  3
*MODEL_SPACE
  1

  0
ENDBLK
  5
36
330
19
100
AcDbEntity
  8
0
100
AcDbBlockEnd
  0
BLOCK
  5
3E49
330
3E47
100
AcDbEntity
 67
     1
  8
0
100
AcDbBlockBegin
  2
*Paper_Space
 70
     0
 10
0.0
 20
0.0
 30
0.0
  3
*Paper_Space
  1

  0
ENDBLK
  5
3E4A
330
3E47
100
AcDbEntity
 67
     1
  8
0
100
AcDbBlockEnd
  0
BLOCK
  5
47B7
330
47AD
100
AcDbEntity
  8
0
100
AcDbBlockBegin
  2
*D0
 70
     1
 10
0.0
 20
0.0
 30
0.0
  3
*D0
  1

  0
LINE
  5
4B24
330
47AD
100
AcDbEntity
  8
1
 62
     0
370
    -2
100
AcDbLine
 10
-778.6216835479207
 20
883.2663925340984
 30
0.0
 11
-778.6216835479207
 21
849.2735887878735
 31
0.0
  0
LINE
  5
4B25
330
47AD
100
AcDbEntity
  8
1
 62
     0
370
    -2
100
AcDbLine
 10
-668.6216835479207
 20
883.2663925340984
 30
0.0
 11
-668.6216835479207
 21
849.2735887878735
 31
0.0
  0
LINE
  5
4B26
330
47AD
100
AcDbEntity
  8
1
 62
     0
370
    -2
100
AcDbLine
 10
-767.1216835479206
 20
858.2735887878735
 30
0.0
 11
-680.1216835479207
 21
858.2735887878735
 31
0.0
  0
SOLID
  5
4B27
330
47AD
100
AcDbEntity
  8
1
 62
     0
100
AcDbTrace
 10
-767.1216835479206
 20
860.1902554545402
 30
0.0
 11
-767.1216835479206
 21
856.356922121207
 31
0.0
 12
-778.6216835479207
 22
858.2735887878735
 32
0.0
 13
-778.6216835479207
 23
858.2735887878735
 33
0.0
  0
SOLID
  5
4B28
330
47AD
100
AcDbEntity
  8
1
 62
     0
100
AcDbTrace
 10
-680.1216835479207
 20
860.1902554545402
 30
0.0
 11
-680.1216835479207
 21
856.356922121207
 31
0.0
 12
-668.6216835479207
 22
858.2735887878735
 32
0.0
 13
-668.6216835479207
 23
858.2735887878735
 33
0.0
  0
MTEXT
  5
4B29
330
47AD
100
AcDbEntity
  8
1
 62
     0
100
AcDbMText
 10
-723.6216835479207
 20
868.7001238755927
 30
0.0
 40
11.5
 41
0.0
 71
     5
 72
     1
  1
\A1;OUTLET
 73
     1
 44
1.0
  0
POINT
  5
4B2A
330
47AD
100
AcDbEntity
  8
DEFPOINTS
 62
     0
100
AcDbPoint
 10
-778.6216835479207
 20
889.2663925340983
 30
0.0000000002633979
  0
POINT
  5
4B2B
330
47AD
100
AcDbEntity
  8
DEFPOINTS
 62
     0
100
AcDbPoint
 10
-668.6216835479207
 20
889.2663925340983
 30
0.0000000002633979
  0
POINT
  5
4B2C
330
47AD
100
AcDbEntity
  8
DEFPOINTS
 62
     0
100
AcDbPoint
 10
-668.6216835479207
 20
858.2735887878735
 30
0.0
  0
ENDBLK
  5
47B8
330
47AD
100
AcDbEntity
  8
0
100
AcDbBlockEnd
  0
BLOCK
  5
47D8
330
47CD
100
AcDbEntity
  8
0
100
AcDbBlockBegin
  2
*D1
 70
     1
 10
0.0
 20
0.0
 30
0.0
  3
*D1
  1

  0
LINE
  5
4889
330
47CD
100
AcDbEntity
  8
1
 62
     0
370
    -2
100
AcDbLine
 10
-784.6216835479207
 20
889.2663925340983
 30
0.0
 11
-920.8730166370076
 21
889.2663925340983
 31
0.0
  0
LINE
  5
488A
330
47CD
100
AcDbEntity
  8
1
 62
     0
370
    -2
100
AcDbLine
 10
-844.6216835479061
 20
1009.266392534098
 30
0.0
 11
-920.8730166370076
 21
1009.266392534098
 31
0.0
  0
LINE
  5
488B
330
47CD
100
AcDbEntity
  8
1
 62
     0
370
    -2
100
AcDbLine
 10
-911.8730166370076
 20
900.7663925340983
 30
0.0
 11
-911.8730166370076
 21
938.898702475619
 31
0.0
  0
LINE
  5
488C
330
47CD
100
AcDbEntity
  8
1
 62
     0
370
    -2
100
AcDbLine
 10
-911.8730166370076
 20
997.7663925340984
 30
0.0
 11
-911.8730166370076
 21
959.634082592578
 31
0.0
  0
SOLID
  5
488D
330
47CD
100
AcDbEntity
  8
1
 62
     0
100
AcDbTrace
 10
-913.7896833036743
 20
900.7663925340983
 30
0.0
 11
-909.9563499703412
 21
900.7663925340983
 31
0.0
 12
-911.8730166370076
 22
889.2663925340983
 32
0.0
 13
-911.8730166370076
 23
889.2663925340983
 33
0.0
  0
SOLID
  5
488E
330
47CD
100
AcDbEntity
  8
1
 62
     0
100
AcDbTrace
 10
-913.7896833036743
 20
997.7663925340984
 30
0.0
 11
-909.9563499703412
 21
997.7663925340984
 31
0.0
 12
-911.8730166370076
 22
1009.266392534098
 32
0.0
 13
-911.8730166370076
 23
1009.266392534098
 33
0.0
  0
MTEXT
  5
488F
330
47CD
100
AcDbEntity
  8
1
 62
     0
100
AcDbMText
 10
-911.8730166370081
 20
949.2663925340982
 30
0.0
 40
11.5
 41
0.0
 71
     5
 72
     1
  1
\A1;120
 73
     1
 44
1.0
  0
POINT
  5
4890
330
47CD
100
AcDbEntity
  8
DEFPOINTS
 62
     0
100
AcDbPoint
 10
-778.6216835479207
 20
889.2663925340983
 30
0.0000000002633979
  0
POINT
  5
4891
330
47CD
100
AcDbEntity
  8
DEFPOINTS
 62
     0
100
AcDbPoint
 10
-838.6216835479061
 20
1009.266392534098
 30
-0.0000000001463127
  0
POINT
  5
4892
330
47CD
100
AcDbEntity
  8
DEFPOINTS
 62
     0
100
AcDbPoint
 10
-911.8730166370076
 20
1009.266392534098
 30
0.0
  0
ENDBLK
  5
47D9
330
47CD
100
AcDbEntity
  8
0
100
AcDbBlockEnd
  0
BLOCK
  5
47E6
330
47DB
100
AcDbEntity
  8
0
100
AcDbBlockBegin
  2
*D2
 70
     1
 10
0.0
 20
0.0
 30
0.0
  3
*D2
  1

  0
LINE
  5
4DBB
330
47DB
100
AcDbEntity
  8
1
 62
     0
370
    -2
100
AcDbLine
 10
-844.6216835479061
 20
904.1826248062184
 30
0.0
 11
-920.8730166370076
 21
904.1826248062184
 31
0.0
  0
LINE
  5
4DBC
330
47DB
100
AcDbEntity
  8
1
 62
     0
370
    -2
100
AcDbLine
 10
-856.6216835478989
 20
1187.203128060944
 30
0.0
 11
-920.8730166370076
 21
1187.203128060944
 31
0.0
  0
LINE
  5
4DBD
330
47DB
100
AcDbEntity
  8
1
 62
     0
370
    -2
100
AcDbLine
 10
-911.8730166370076
 20
915.6826248062184
 30
0.0
 11
-911.8730166370076
 21
1035.375624971593
 31
0.0
  0
LINE
  5
4DBE
330
47DB
100
AcDbEntity
  8
1
 62
     0
370
    -2
100
AcDbLine
 10
-911.8730166370076
 20
1175.703128060944
 30
0.0
 11
-911.8730166370076
 21
1056.010127895569
 31
0.0
  0
SOLID
  5
4DBF
330
47DB
100
AcDbEntity
  8
1
 62
     0
100
AcDbTrace
 10
-913.7896833036743
 20
915.6826248062184
 30
0.0
 11
-909.9563499703409
 21
915.6826248062184
 31
0.0
 12
-911.8730166370076
 22
904.1826248062184
 32
0.0
 13
-911.8730166370076
 23
904.1826248062184
 33
0.0
  0
SOLID
  5
4DC0
330
47DB
100
AcDbEntity
  8
1
 62
     0
100
AcDbTrace
 10
-913.7896833036743
 20
1175.703128060944
 30
0.0
 11
-909.9563499703409
 21
1175.703128060944
 31
0.0
 12
-911.8730166370076
 22
1187.203128060944
 32
0.0
 13
-911.8730166370076
 23
1187.203128060944
 33
0.0
  0
MTEXT
  5
4DC1
330
47DB
100
AcDbEntity
  8
1
 62
     0
100
AcDbMText
 10
-911.8730166370077
 20
1045.692876433581
 30
0.0
 40
11.5
 41
0.0
 71
     5
 72
     1
  1
\A1;H
 73
     1
 44
1.0
  0
POINT
  5
4DC2
330
47DB
100
AcDbEntity
  8
DEFPOINTS
 62
     0
100
AcDbPoint
 10
-838.6216835479061
 20
904.1826248062184
 30
-0.0000000001463127
  0
POINT
  5
4DC3
330
47DB
100
AcDbEntity
  8
DEFPOINTS
 62
     0
100
AcDbPoint
 10
-850.6216835478989
 20
1187.203128060944
 30
-0.0000000005131511
  0
POINT
  5
4DC4
330
47DB
100
AcDbEntity
  8
DEFPOINTS
 62
     0
100
AcDbPoint
 10
-911.8730166370076
 20
1187.203128060944
 30
0.0
  0
ENDBLK
  5
47E7
330
47DB
100
AcDbEntity
  8
0
100
AcDbBlockEnd
  0
BLOCK
  5
4825
330
481B
100
AcDbEntity
  8
0
100
AcDbBlockBegin
  2
*D3
 70
     1
 10
0.0
 20
0.0
 30
0.0
  3
*D3
  1

  0
LINE
  5
4DB2
330
481B
100
AcDbEntity
  8
1
 62
     0
370
    -2
100
AcDbLine
 10
-850.6216835478989
 20
1193.203128060944
 30
0.0
 11
-850.6216835478989
 21
1216.426112951577
 31
0.0
  0
LINE
  5
4DB3
330
481B
100
AcDbEntity
  8
1
 62
     0
370
    -2
100
AcDbLine
 10
-596.6216835479425
 20
1193.203128060944
 30
0.0
 11
-596.6216835479425
 21
1216.426112951577
 31
0.0
  0
LINE
  5
4DB4
330
481B
100
AcDbEntity
  8
1
 62
     0
370
    -2
100
AcDbLine
 10
-839.1216835478989
 20
1207.426112951577
 30
0.0
 11
-608.1216835479425
 21
1207.426112951577
 31
0.0
  0
SOLID
  5
4DB5
330
481B
100
AcDbEntity
  8
1
 62
     0
100
AcDbTrace
 10
-839.1216835478989
 20
1209.342779618244
 30
0.0
 11
-839.1216835478989
 21
1205.50944628491
 31
0.0
 12
-850.6216835478989
 22
1207.426112951577
 32
0.0
 13
-850.6216835478989
 23
1207.426112951577
 33
0.0
  0
SOLID
  5
4DB6
330
481B
100
AcDbEntity
  8
1
 62
     0
100
AcDbTrace
 10
-608.1216835479425
 20
1209.342779618244
 30
0.0
 11
-608.1216835479425
 21
1205.50944628491
 31
0.0
 12
-596.6216835479425
 22
1207.426112951577
 32
0.0
 13
-596.6216835479425
 23
1207.426112951577
 33
0.0
  0
MTEXT
  5
4DB7
330
481B
100
AcDbEntity
  8
1
 62
     0
100
AcDbMText
 10
-723.6216835479207
 20
1217.743364413565
 30
0.0
 40
11.5
 41
0.0
 71
     5
 72
     1
  1
\A1;D1
 73
     1
 44
1.0
  0
POINT
  5
4DB8
330
481B
100
AcDbEntity
  8
DEFPOINTS
 62
     0
100
AcDbPoint
 10
-850.6216835478989
 20
1187.203128060944
 30
0.000000000334776
  0
POINT
  5
4DB9
330
481B
100
AcDbEntity
  8
DEFPOINTS
 62
     0
100
AcDbPoint
 10
-596.6216835479425
 20
1187.203128060944
 30
0.000000000334776
  0
POINT
  5
4DBA
330
481B
100
AcDbEntity
  8
DEFPOINTS
 62
     0
100
AcDbPoint
 10
-596.6216835479425
 20
1207.426112951577
 30
0.0
  0
ENDBLK
  5
4826
330
481B
100
AcDbEntity
  8
0
100
AcDbBlockEnd
  0
BLOCK
  5
4858
330
484E
100
AcDbEntity
  8
0
100
AcDbBlockBegin
  2
*D4
 70
     1
 10
0.0
 20
0.0
 30
0.0
  3
*D4
  1

  0
LINE
  5
4D53
330
484E
100
AcDbEntity
  8
1
 62
     0
370
    -2
100
AcDbLine
 10
-858.6216835479207
 20
897.341485192849
 30
0.0
 11
-858.6216835479207
 21
853.6048771692419
 31
0.0
  0
LINE
  5
4D54
330
484E
100
AcDbEntity
  8
1
 62
     0
370
    -2
100
AcDbLine
 10
-588.6216835479354
 20
897.3414851928637
 30
0.0
 11
-588.6216835479354
 21
853.6048771692419
 31
0.0
  0
LINE
  5
4D55
330
484E
100
AcDbEntity
  8
1
 62
     0
370
    -2
100
AcDbLine
 10
-847.1216835479207
 20
862.6048771692419
 30
0.0
 11
-600.1216835479354
 21
862.6048771692419
 31
0.0
  0
SOLID
  5
4D56
330
484E
100
AcDbEntity
  8
1
 62
     0
100
AcDbTrace
 10
-847.1216835479207
 20
864.5215438359084
 30
0.0
 11
-847.1216835479207
 21
860.6882105025752
 31
0.0
 12
-858.6216835479207
 22
862.6048771692419
 32
0.0
 13
-858.6216835479207
 23
862.6048771692419
 33
0.0
  0
SOLID
  5
4D57
330
484E
100
AcDbEntity
  8
1
 62
     0
100
AcDbTrace
 10
-600.1216835479354
 20
864.5215438359084
 30
0.0
 11
-600.1216835479354
 21
860.6882105025752
 31
0.0
 12
-588.6216835479354
 22
862.6048771692419
 32
0.0
 13
-588.6216835479354
 23
862.6048771692419
 33
0.0
  0
MTEXT
  5
4D58
330
484E
100
AcDbEntity
  8
1
 62
     0
100
AcDbMText
 10
-723.6216835479281
 20
872.8548771692418
 30
0.0
 40
11.5
 41
0.0
 71
     5
 72
     1
  1
\A1;D2
 73
     1
 44
1.0
  0
POINT
  5
4D59
330
484E
100
AcDbEntity
  8
DEFPOINTS
 62
     0
100
AcDbPoint
 10
-858.6216835479207
 20
903.341485192849
 30
-0.0000000002745585
  0
POINT
  5
4D5A
330
484E
100
AcDbEntity
  8
DEFPOINTS
 62
     0
100
AcDbPoint
 10
-588.6216835479354
 20
903.3414851928638
 30
-0.0000000003339983
  0
POINT
  5
4D5B
330
484E
100
AcDbEntity
  8
DEFPOINTS
 62
     0
100
AcDbPoint
 10
-588.6216835479354
 20
862.6048771692419
 30
0.0
  0
ENDBLK
  5
4859
330
484E
100
AcDbEntity
  8
0
100
AcDbBlockEnd
  0
BLOCK
  5
48DD
330
48DC
100
AcDbEntity
  8
0
100
AcDbBlockBegin
  2
LADDER
 70
     0
 10
0.0
 20
0.0
 30
0.0
  3
LADDER
  1

  0
LINE
  5
48DF
330
48DC
100
AcDbEntity
  8
1
100
AcDbLine
 10
1583.08159048349
 20
1096.944647414128
 30
0.0
 11
1583.08159048349
 21
1374.944647414128
 31
0.0
  0
LINE
  5
48E0
330
48DC
100
AcDbEntity
  8
1
100
AcDbLine
 10
1588.081590483489
 20
1096.944647414128
 30
0.0
 11
1588.081590483489
 21
1374.944647414128
 31
0.0
  0
LINE
  5
48E1
330
48DC
100
AcDbEntity
  8
1
100
AcDbLine
 10
1563.08159048349
 20
1096.944647414128
 30
0.0
 11
1563.08159048349
 21
1374.944647414128
 31
0.0
  0
LINE
  5
48E2
330
48DC
100
AcDbEntity
  8
1
100
AcDbLine
 10
1558.081590483491
 20
1096.944647414128
 30
0.0
 11
1558.081590483491
 21
1374.944647414128
 31
0.0
  0
LINE
  5
48E3
330
48DC
100
AcDbEntity
  8
1
100
AcDbLine
 10
1533.081590483489
 20
1096.944647414128
 30
0.0
 11
1533.081590483489
 21
1374.944647414128
 31
0.0
  0
LINE
  5
48E4
330
48DC
100
AcDbEntity
  8
1
100
AcDbLine
 10
1538.081590483488
 20
1096.944647414128
 30
0.0
 11
1538.081590483488
 21
1374.944647414128
 31
0.0
  0
LINE
  5
48E5
330
48DC
100
AcDbEntity
  8
1
100
AcDbLine
 10
1513.08159048349
 20
1096.944647414128
 30
0.0
 11
1513.08159048349
 21
1374.944647414128
 31
0.0
  0
LINE
  5
48E6
330
48DC
100
AcDbEntity
  8
1
100
AcDbLine
 10
1508.081590483491
 20
1096.944647414128
 30
0.0
 11
1508.081590483491
 21
1374.944647414128
 31
0.0
  0
LINE
  5
48E7
330
48DC
100
AcDbEntity
  8
1
100
AcDbLine
 10
1483.081590483489
 20
1096.944647414128
 30
0.0
 11
1483.081590483489
 21
1374.944647414128
 31
0.0
  0
LINE
  5
48E8
330
48DC
100
AcDbEntity
  8
1
100
AcDbLine
 10
1488.081590483488
 20
1096.944647414128
 30
0.0
 11
1488.081590483488
 21
1374.944647414128
 31
0.0
  0
LINE
  5
48E9
330
48DC
100
AcDbEntity
  8
1
100
AcDbLine
 10
1463.081590483489
 20
1096.944647414128
 30
0.0
 11
1463.081590483489
 21
1374.944647414128
 31
0.0
  0
LINE
  5
48EA
330
48DC
100
AcDbEntity
  8
1
100
AcDbLine
 10
1458.08159048349
 20
1096.944647414128
 30
0.0
 11
1458.08159048349
 21
1374.944647414128
 31
0.0
  0
LINE
  5
48EB
330
48DC
100
AcDbEntity
  8
1
100
AcDbLine
 10
1433.081590483491
 20
1096.944647414128
 30
0.0
 11
1433.081590483491
 21
1374.944647414128
 31
0.0
  0
LINE
  5
48EC
330
48DC
100
AcDbEntity
  8
1
100
AcDbLine
 10
1438.08159048349
 20
1096.944647414128
 30
0.0
 11
1438.08159048349
 21
1374.944647414128
 31
0.0
  0
LINE
  5
48ED
330
48DC
100
AcDbEntity
  8
1
100
AcDbLine
 10
1413.081590483488
 20
1096.944647414128
 30
0.0
 11
1413.081590483488
 21
1374.944647414128
 31
0.0
  0
LINE
  5
48EE
330
48DC
100
AcDbEntity
  8
1
100
AcDbLine
 10
1408.081590483489
 20
1096.944647414128
 30
0.0
 11
1408.081590483489
 21
1374.944647414128
 31
0.0
  0
LINE
  5
48EF
330
48DC
100
AcDbEntity
  8
1
100
AcDbLine
 10
1383.081590483491
 20
1096.944647414128
 30
0.0
 11
1383.081590483491
 21
1374.944647414128
 31
0.0
  0
LINE
  5
48F0
330
48DC
100
AcDbEntity
  8
1
100
AcDbLine
 10
1388.08159048349
 20
1096.944647414128
 30
0.0
 11
1388.08159048349
 21
1374.944647414128
 31
0.0
  0
LINE
  5
48F1
330
48DC
100
AcDbEntity
  8
1
100
AcDbLine
 10
1363.081590483491
 20
1096.944647414128
 30
0.0
 11
1363.081590483491
 21
1374.944647414128
 31
0.0
  0
LINE
  5
48F2
330
48DC
100
AcDbEntity
  8
1
100
AcDbLine
 10
1358.081590483491
 20
1096.944647414128
 30
0.0
 11
1358.081590483491
 21
1374.944647414128
 31
0.0
  0
LWPOLYLINE
  5
48F3
330
48DC
100
AcDbEntity
  8
1
100
AcDbPolyline
 90
        4
 70
     1
 43
0.0
 10
1335.581590483491
 20
1374.944647414128
 10
1613.58159048349
 20
1374.944647414128
 10
1613.58159048349
 20
1096.944647414128
 10
1335.581590483491
 20
1096.944647414128
  0
LWPOLYLINE
  5
48F4
330
48DC
100
AcDbEntity
  8
1
100
AcDbPolyline
 90
        4
 70
     1
 43
0.0
 10
1330.581590483491
 20
1379.944647414128
 10
1618.58159048349
 20
1379.944647414128
 10
1618.58159048349
 20
1091.944647414128
 10
1330.581590483491
 20
1091.944647414128
  0
ENDBLK
  5
48DE
330
48DC
100
AcDbEntity
  8
0
100
AcDbBlockEnd
  0
BLOCK
  5
492A
330
4929
100
AcDbEntity
  8
0
100
AcDbBlockBegin
  2
LADDER2
 70
     0
 10
0.0
 20
0.0
 30
0.0
  3
LADDER2
  1

  0
LINE
  5
492C
330
4929
100
AcDbEntity
  8
1
100
AcDbLine
 10
17.98132113700262
 20
1428.127084863947
 30
0.0000000003347759
 11
297.9813211370026
 21
1428.127084863947
 31
0.0000000003347759
  0
LINE
  5
492D
330
4929
100
AcDbEntity
  8
1
100
AcDbLine
 10
47.98132113700262
 20
1428.127084863947
 30
0.0000000003347759
 11
42.98132113700262
 21
1428.127084863947
 31
0.0000000003347759
  0
LINE
  5
492E
330
4929
100
AcDbEntity
  8
1
100
AcDbLine
 10
17.98132113700262
 20
1428.127084863947
 30
0.0000000003347759
 11
17.98132113700262
 21
1403.127084863948
 31
0.0000000003347759
  0
LINE
  5
492F
330
4929
100
AcDbEntity
  8
1
100
AcDbLine
 10
22.98132113700261
 20
1403.127084863948
 30
0.0000000003347759
 11
22.98132113700261
 21
1428.127084863947
 31
0.0000000003347759
  0
LINE
  5
4930
330
4929
100
AcDbEntity
  8
1
100
AcDbLine
 10
22.98132113700261
 20
1428.127084863947
 30
0.0000000003347759
 11
17.98132113700262
 21
1428.127084863947
 31
0.0000000003347759
  0
LINE
  5
4931
330
4929
100
AcDbEntity
  8
1
100
AcDbLine
 10
42.98132113700262
 20
1428.127084863947
 30
0.0000000003347759
 11
42.98132113700262
 21
1403.127084863948
 31
0.0000000003347759
  0
LINE
  5
4932
330
4929
100
AcDbEntity
  8
1
100
AcDbLine
 10
47.98132113700262
 20
1403.127084863948
 30
0.0000000003347759
 11
47.98132113700262
 21
1428.127084863947
 31
0.0000000003347759
  0
LINE
  5
4933
330
4929
100
AcDbEntity
  8
1
100
AcDbLine
 10
67.98132113700262
 20
1428.127084863947
 30
0.0000000003347759
 11
67.98132113700262
 21
1403.127084863948
 31
0.0000000003347759
  0
LINE
  5
4934
330
4929
100
AcDbEntity
  8
1
100
AcDbLine
 10
72.98132113700262
 20
1403.127084863948
 30
0.0000000003347759
 11
72.98132113700262
 21
1428.127084863947
 31
0.0000000003347759
  0
LINE
  5
4935
330
4929
100
AcDbEntity
  8
1
100
AcDbLine
 10
72.98132113700262
 20
1428.127084863947
 30
0.0000000003347759
 11
67.98132113700262
 21
1428.127084863947
 31
0.0000000003347759
  0
LINE
  5
4936
330
4929
100
AcDbEntity
  8
1
100
AcDbLine
 10
97.98132113700262
 20
1428.127084863947
 30
0.0000000003347759
 11
92.98132113700262
 21
1428.127084863947
 31
0.0000000003347759
  0
LINE
  5
4937
330
4929
100
AcDbEntity
  8
1
100
AcDbLine
 10
92.98132113700262
 20
1428.127084863947
 30
0.0000000003347759
 11
92.98132113700262
 21
1403.127084863948
 31
0.0000000003347759
  0
LINE
  5
4938
330
4929
100
AcDbEntity
  8
1
100
AcDbLine
 10
97.98132113700262
 20
1403.127084863948
 30
0.0000000003347759
 11
97.98132113700262
 21
1428.127084863947
 31
0.0000000003347759
  0
LINE
  5
4939
330
4929
100
AcDbEntity
  8
1
100
AcDbLine
 10
247.9813211370025
 20
1428.127084863947
 30
0.0000000003347759
 11
242.9813211370026
 21
1428.127084863947
 31
0.0000000003347759
  0
LINE
  5
493A
330
4929
100
AcDbEntity
  8
1
100
AcDbLine
 10
147.9813211370025
 20
1428.127084863947
 30
0.0000000003347759
 11
142.9813211370024
 21
1428.127084863947
 31
0.0000000003347759
  0
LINE
  5
493B
330
4929
100
AcDbEntity
  8
1
100
AcDbLine
 10
117.9813211370025
 20
1428.127084863947
 30
0.0000000003347759
 11
117.9813211370025
 21
1403.127084863948
 31
0.0000000003347759
  0
LINE
  5
493C
330
4929
100
AcDbEntity
  8
1
100
AcDbLine
 10
122.9813211370025
 20
1403.127084863948
 30
0.0000000003347759
 11
122.9813211370025
 21
1428.127084863947
 31
0.0000000003347759
  0
LINE
  5
493D
330
4929
100
AcDbEntity
  8
1
100
AcDbLine
 10
122.9813211370025
 20
1428.127084863947
 30
0.0000000003347759
 11
117.9813211370025
 21
1428.127084863947
 31
0.0000000003347759
  0
LINE
  5
493E
330
4929
100
AcDbEntity
  8
1
100
AcDbLine
 10
142.9813211370024
 20
1428.127084863947
 30
0.0000000003347759
 11
142.9813211370024
 21
1403.127084863948
 31
0.0000000003347759
  0
LINE
  5
493F
330
4929
100
AcDbEntity
  8
1
100
AcDbLine
 10
147.9813211370025
 20
1403.127084863948
 30
0.0000000003347759
 11
147.9813211370025
 21
1428.127084863947
 31
0.0000000003347759
  0
LINE
  5
4940
330
4929
100
AcDbEntity
  8
1
100
AcDbLine
 10
167.9813211370024
 20
1428.127084863947
 30
0.0000000003347759
 11
167.9813211370024
 21
1403.127084863948
 31
0.0000000003347759
  0
LINE
  5
4941
330
4929
100
AcDbEntity
  8
1
100
AcDbLine
 10
172.9813211370024
 20
1403.127084863948
 30
0.0000000003347759
 11
172.9813211370024
 21
1428.127084863947
 31
0.0000000003347759
  0
LINE
  5
4942
330
4929
100
AcDbEntity
  8
1
100
AcDbLine
 10
172.9813211370024
 20
1428.127084863947
 30
0.0000000003347759
 11
167.9813211370024
 21
1428.127084863947
 31
0.0000000003347759
  0
LINE
  5
4943
330
4929
100
AcDbEntity
  8
1
100
AcDbLine
 10
197.9813211370024
 20
1428.127084863947
 30
0.0000000003347759
 11
192.9813211370024
 21
1428.127084863947
 31
0.0000000003347759
  0
LINE
  5
4944
330
4929
100
AcDbEntity
  8
1
100
AcDbLine
 10
192.9813211370024
 20
1428.127084863947
 30
0.0000000003347759
 11
192.9813211370024
 21
1403.127084863948
 31
0.0000000003347759
  0
LINE
  5
4945
330
4929
100
AcDbEntity
  8
1
100
AcDbLine
 10
197.9813211370024
 20
1403.127084863948
 30
0.0000000003347759
 11
197.9813211370024
 21
1428.127084863947
 31
0.0000000003347759
  0
LINE
  5
4946
330
4929
100
AcDbEntity
  8
1
100
AcDbLine
 10
217.9813211370026
 20
1428.127084863947
 30
0.0000000003347759
 11
217.9813211370026
 21
1403.127084863948
 31
0.0000000003347759
  0
LINE
  5
4947
330
4929
100
AcDbEntity
  8
1
100
AcDbLine
 10
222.9813211370025
 20
1403.127084863948
 30
0.0000000003347759
 11
222.9813211370025
 21
1428.127084863947
 31
0.0000000003347759
  0
LINE
  5
4948
330
4929
100
AcDbEntity
  8
1
100
AcDbLine
 10
222.9813211370025
 20
1428.127084863947
 30
0.0000000003347759
 11
217.9813211370026
 21
1428.127084863947
 31
0.0000000003347759
  0
LINE
  5
4949
330
4929
100
AcDbEntity
  8
1
100
AcDbLine
 10
242.9813211370026
 20
1428.127084863947
 30
0.0000000003347759
 11
242.9813211370026
 21
1403.127084863948
 31
0.0000000003347759
  0
LINE
  5
494A
330
4929
100
AcDbEntity
  8
1
100
AcDbLine
 10
247.9813211370025
 20
1403.127084863948
 30
0.0000000003347759
 11
247.9813211370025
 21
1428.127084863947
 31
0.0000000003347759
  0
LINE
  5
494B
330
4929
100
AcDbEntity
  8
1
100
AcDbLine
 10
267.9813211370026
 20
1428.127084863947
 30
0.0000000003347759
 11
267.9813211370026
 21
1403.127084863948
 31
0.0000000003347759
  0
LINE
  5
494C
330
4929
100
AcDbEntity
  8
1
100
AcDbLine
 10
272.9813211370026
 20
1403.127084863948
 30
0.0000000003347759
 11
272.9813211370026
 21
1428.127084863947
 31
0.0000000003347759
  0
LINE
  5
494D
330
4929
100
AcDbEntity
  8
1
100
AcDbLine
 10
272.9813211370026
 20
1428.127084863947
 30
0.0000000003347759
 11
267.9813211370026
 21
1428.127084863947
 31
0.0000000003347759
  0
LINE
  5
494E
330
4929
100
AcDbEntity
  8
1
100
AcDbLine
 10
297.9813211370026
 20
1428.127084863947
 30
0.0000000003347759
 11
292.9813211370026
 21
1428.127084863947
 31
0.0000000003347759
  0
LINE
  5
494F
330
4929
100
AcDbEntity
  8
1
100
AcDbLine
 10
292.9813211370026
 20
1428.127084863947
 30
0.0000000003347759
 11
292.9813211370026
 21
1403.127084863948
 31
0.0000000003347759
  0
LINE
  5
4950
330
4929
100
AcDbEntity
  8
1
100
AcDbLine
 10
297.9813211370026
 20
1403.127084863948
 30
0.0000000003347759
 11
297.9813211370026
 21
1428.127084863947
 31
0.0000000003347759
  0
ENDBLK
  5
492B
330
4929
100
AcDbEntity
  8
0
100
AcDbBlockEnd
  0
BLOCK
  5
4B40
330
4B36
100
AcDbEntity
  8
0
100
AcDbBlockBegin
  2
*D7
 70
     1
 10
0.0
 20
0.0
 30
0.0
  3
*D7
  1

  0
LINE
  5
4B37
330
4B36
100
AcDbEntity
  8
1
 62
     0
370
    -2
100
AcDbLine
 10
-792.8738769539627
 20
705.5015826351474
 30
0.0
 11
-792.8738769539627
 21
675.9504702870067
 31
0.0
  0
LINE
  5
4B38
330
4B36
100
AcDbEntity
  8
1
 62
     0
370
    -2
100
AcDbLine
 10
-682.8738769539627
 20
705.5015826351474
 30
0.0
 11
-682.8738769539627
 21
675.9504702870067
 31
0.0
  0
LINE
  5
4B39
330
4B36
100
AcDbEntity
  8
1
 62
     0
370
    -2
100
AcDbLine
 10
-782.5238769539627
 20
684.0504702870068
 30
0.0
 11
-693.2238769539627
 21
684.0504702870068
 31
0.0
  0
SOLID
  5
4B3A
330
4B36
100
AcDbEntity
  8
1
 62
     0
100
AcDbTrace
 10
-782.5238769539627
 20
685.7754702870067
 30
0.0
 11
-782.5238769539627
 21
682.3254702870067
 31
0.0
 12
-792.8738769539627
 22
684.0504702870068
 32
0.0
 13
-792.8738769539627
 23
684.0504702870068
 33
0.0
  0
SOLID
  5
4B3B
330
4B36
100
AcDbEntity
  8
1
 62
     0
100
AcDbTrace
 10
-693.2238769539627
 20
685.7754702870067
 30
0.0
 11
-693.2238769539627
 21
682.3254702870067
 31
0.0
 12
-682.8738769539627
 22
684.0504702870068
 32
0.0
 13
-682.8738769539627
 23
684.0504702870068
 33
0.0
  0
MTEXT
  5
4B3C
330
4B36
100
AcDbEntity
  8
1
 62
     0
100
AcDbMText
 10
-737.8738769539627
 20
693.7521150238487
 30
0.0
 40
10.34999999999999
 41
0.0
 71
     5
 72
     1
  1
\A1;%%c110
 73
     1
 44
1.0
  0
POINT
  5
4B3D
330
4B36
100
AcDbEntity
  8
DEFPOINTS
 62
     0
100
AcDbPoint
 10
-792.8738769539627
 20
710.9015826351472
 30
0.0
  0
POINT
  5
4B3E
330
4B36
100
AcDbEntity
  8
DEFPOINTS
 62
     0
100
AcDbPoint
 10
-682.8738769539627
 20
710.9015826351472
 30
0.0
  0
POINT
  5
4B3F
330
4B36
100
AcDbEntity
  8
DEFPOINTS
 62
     0
100
AcDbPoint
 10
-682.8738769539627
 20
684.0504702870068
 30
0.0
  0
ENDBLK
  5
4B41
330
4B36
100
AcDbEntity
  8
0
100
AcDbBlockEnd
  0
BLOCK
  5
4B4C
330
4B42
100
AcDbEntity
  8
0
100
AcDbBlockBegin
  2
*D8
 70
     1
 10
0.0
 20
0.0
 30
0.0
  3
*D8
  1

  0
LINE
  5
4B43
330
4B42
100
AcDbEntity
  8
1
 62
     0
370
    -2
100
AcDbLine
 10
-847.8738769539628
 20
1006.301582635146
 30
0.0
 11
-847.8738769539628
 21
1030.741740863994
 31
0.0
  0
LINE
  5
4B44
330
4B42
100
AcDbEntity
  8
1
 62
     0
370
    -2
100
AcDbLine
 10
-627.8738769539627
 20
1006.301582635146
 30
0.0
 11
-627.8738769539627
 21
1030.741740863994
 31
0.0
  0
LINE
  5
4B45
330
4B42
100
AcDbEntity
  8
1
 62
     0
370
    -2
100
AcDbLine
 10
-837.5238769539627
 20
1022.641740863994
 30
0.0
 11
-638.2238769539627
 21
1022.641740863994
 31
0.0
  0
SOLID
  5
4B46
330
4B42
100
AcDbEntity
  8
1
 62
     0
100
AcDbTrace
 10
-837.5238769539627
 20
1024.366740863994
 30
0.0
 11
-837.5238769539627
 21
1020.916740863994
 31
0.0
 12
-847.8738769539628
 22
1022.641740863994
 32
0.0
 13
-847.8738769539628
 23
1022.641740863994
 33
0.0
  0
SOLID
  5
4B47
330
4B42
100
AcDbEntity
  8
1
 62
     0
100
AcDbTrace
 10
-638.2238769539627
 20
1024.366740863994
 30
0.0
 11
-638.2238769539627
 21
1020.916740863994
 31
0.0
 12
-627.8738769539627
 22
1022.641740863994
 32
0.0
 13
-627.8738769539627
 23
1022.641740863994
 33
0.0
  0
MTEXT
  5
4B48
330
4B42
100
AcDbEntity
  8
1
 62
     0
100
AcDbMText
 10
-739.2049998819111
 20
1031.972661916626
 30
0.0
 40
10.34999999999999
 41
0.0
 71
     5
 72
     1
  1
\A1;220
 73
     1
 44
1.0
  0
POINT
  5
4B49
330
4B42
100
AcDbEntity
  8
DEFPOINTS
 62
     0
100
AcDbPoint
 10
-847.8738769539628
 20
1000.901582635147
 30
0.0
  0
POINT
  5
4B4A
330
4B42
100
AcDbEntity
  8
DEFPOINTS
 62
     0
100
AcDbPoint
 10
-627.8738769539627
 20
1000.901582635147
 30
0.0
  0
POINT
  5
4B4B
330
4B42
100
AcDbEntity
  8
DEFPOINTS
 62
     0
100
AcDbPoint
 10
-627.8738769539627
 20
1022.641740863994
 30
0.0
  0
ENDBLK
  5
4B4D
330
4B42
100
AcDbEntity
  8
0
100
AcDbBlockEnd
  0
BLOCK
  5
4B59
330
4B4E
100
AcDbEntity
  8
0
100
AcDbBlockBegin
  2
*D9
 70
     1
 10
0.0
 20
0.0
 30
0.0
  3
*D9
  1

  0
LINE
  5
4B4F
330
4B4E
100
AcDbEntity
  8
1
 62
     0
370
    -2
100
AcDbLine
 10
-853.2738769539626
 20
1000.901582635147
 30
0.0
 11
-907.6220238195668
 21
1000.901582635147
 31
0.0
  0
LINE
  5
4B50
330
4B4E
100
AcDbEntity
  8
1
 62
     0
370
    -2
100
AcDbLine
 10
-836.273876953963
 20
831.9015826351471
 30
0.0
 11
-907.6220238195668
 21
831.9015826351471
 31
0.0
  0
LINE
  5
4B51
330
4B4E
100
AcDbEntity
  8
1
 62
     0
370
    -2
100
AcDbLine
 10
-899.5220238195669
 20
990.5515826351473
 30
0.0
 11
-899.5220238195669
 21
925.7325036877787
 31
0.0
  0
LINE
  5
4B52
330
4B4E
100
AcDbEntity
  8
1
 62
     0
370
    -2
100
AcDbLine
 10
-899.5220238195669
 20
842.2515826351471
 30
0.0
 11
-899.5220238195669
 21
907.0706615825155
 31
0.0
  0
SOLID
  5
4B53
330
4B4E
100
AcDbEntity
  8
1
 62
     0
100
AcDbTrace
 10
-901.2470238195668
 20
990.5515826351473
 30
0.0
 11
-897.7970238195668
 21
990.5515826351473
 31
0.0
 12
-899.5220238195669
 22
1000.901582635147
 32
0.0
 13
-899.5220238195669
 23
1000.901582635147
 33
0.0
  0
SOLID
  5
4B54
330
4B4E
100
AcDbEntity
  8
1
 62
     0
100
AcDbTrace
 10
-901.2470238195668
 20
842.2515826351471
 30
0.0
 11
-897.7970238195668
 21
842.2515826351471
 31
0.0
 12
-899.5220238195669
 22
831.9015826351471
 32
0.0
 13
-899.5220238195669
 23
831.9015826351471
 33
0.0
  0
MTEXT
  5
4B55
330
4B4E
100
AcDbEntity
  8
1
 62
     0
100
AcDbMText
 10
-899.5220238195669
 20
916.4015826351468
 30
0.0
 40
10.34999999999999
 41
0.0
 71
     5
 72
     1
  1
\A1;170
 73
     1
 44
1.0
  0
POINT
  5
4B56
330
4B4E
100
AcDbEntity
  8
DEFPOINTS
 62
     0
100
AcDbPoint
 10
-847.8738769539628
 20
1000.901582635147
 30
0.0
  0
POINT
  5
4B57
330
4B4E
100
AcDbEntity
  8
DEFPOINTS
 62
     0
100
AcDbPoint
 10
-830.873876953963
 20
831.9015826351471
 30
0.0
  0
POINT
  5
4B58
330
4B4E
100
AcDbEntity
  8
DEFPOINTS
 62
     0
100
AcDbPoint
 10
-899.5220238195669
 20
831.9015826351471
 30
0.0
  0
ENDBLK
  5
4B5A
330
4B4E
100
AcDbEntity
  8
0
100
AcDbBlockEnd
  0
BLOCK
  5
4B66
330
4B5B
100
AcDbEntity
  8
0
100
AcDbBlockBegin
  2
*D10
 70
     1
 10
0.0
 20
0.0
 30
0.0
  3
*D10
  1

  0
LINE
  5
4B5C
330
4B5B
100
AcDbEntity
  8
1
 62
     0
370
    -2
100
AcDbLine
 10
-836.273876953963
 20
831.9015826351471
 30
0.0
 11
-907.6220238195666
 21
831.9015826351471
 31
0.0
  0
LINE
  5
4B5D
330
4B5B
100
AcDbEntity
  8
1
 62
     0
370
    -2
100
AcDbLine
 10
-798.2738769539627
 20
710.9015826351472
 30
0.0
 11
-907.6220238195668
 21
710.9015826351472
 31
0.0
  0
LINE
  5
4B5E
330
4B5B
100
AcDbEntity
  8
1
 62
     0
370
    -2
100
AcDbLine
 10
-899.5220238195669
 20
821.5515826351472
 30
0.0
 11
-899.5220238195669
 21
780.7325036877788
 31
0.0
  0
LINE
  5
4B5F
330
4B5B
100
AcDbEntity
  8
1
 62
     0
370
    -2
100
AcDbLine
 10
-899.5220238195669
 20
721.2515826351474
 30
0.0
 11
-899.5220238195669
 21
762.0706615825157
 31
0.0
  0
SOLID
  5
4B60
330
4B5B
100
AcDbEntity
  8
1
 62
     0
100
AcDbTrace
 10
-901.2470238195668
 20
821.5515826351472
 30
0.0
 11
-897.7970238195666
 21
821.5515826351472
 31
0.0
 12
-899.5220238195669
 22
831.9015826351471
 32
0.0
 13
-899.5220238195669
 23
831.9015826351471
 33
0.0
  0
SOLID
  5
4B61
330
4B5B
100
AcDbEntity
  8
1
 62
     0
100
AcDbTrace
 10
-901.2470238195668
 20
721.2515826351474
 30
0.0
 11
-897.7970238195668
 21
721.2515826351474
 31
0.0
 12
-899.5220238195669
 22
710.9015826351472
 32
0.0
 13
-899.5220238195669
 23
710.9015826351472
 33
0.0
  0
MTEXT
  5
4B62
330
4B5B
100
AcDbEntity
  8
1
 62
     0
100
AcDbMText
 10
-899.5220238195669
 20
771.4015826351469
 30
0.0
 40
10.34999999999999
 41
0.0
 71
     5
 72
     1
  1
\A1;120
 73
     1
 44
1.0
  0
POINT
  5
4B63
330
4B5B
100
AcDbEntity
  8
DEFPOINTS
 62
     0
100
AcDbPoint
 10
-830.873876953963
 20
831.9015826351471
 30
0.0
  0
POINT
  5
4B64
330
4B5B
100
AcDbEntity
  8
DEFPOINTS
 62
     0
100
AcDbPoint
 10
-792.8738769539627
 20
710.9015826351472
 30
0.0
  0
POINT
  5
4B65
330
4B5B
100
AcDbEntity
  8
DEFPOINTS
 62
     0
100
AcDbPoint
 10
-899.5220238195669
 20
710.9015826351472
 30
0.0
  0
ENDBLK
  5
4B67
330
4B5B
100
AcDbEntity
  8
0
100
AcDbBlockEnd
  0
BLOCK
  5
4C57
330
4C4C
100
AcDbEntity
  8
0
100
AcDbBlockBegin
  2
*D11
 70
     1
 10
0.0
 20
0.0
 30
0.0
  3
*D11
  1

  0
LINE
  5
4C7E
330
4C4C
100
AcDbEntity
  8
1
 62
     0
370
    -2
100
AcDbLine
 10
91.31459389000198
 20
1740.963140303606
 30
0.0
 11
36.96644702439797
 21
1740.963140303606
 31
0.0
  0
LINE
  5
4C7F
330
4C4C
100
AcDbEntity
  8
1
 62
     0
370
    -2
100
AcDbLine
 10
108.3145938900015
 20
1571.963140303607
 30
0.0
 11
36.96644702439793
 21
1571.963140303607
 31
0.0
  0
LINE
  5
4C80
330
4C4C
100
AcDbEntity
  8
1
 62
     0
370
    -2
100
AcDbLine
 10
45.06644702439796
 20
1730.613140303606
 30
0.0
 11
45.06644702439795
 21
1665.794061356238
 31
0.0
  0
LINE
  5
4C81
330
4C4C
100
AcDbEntity
  8
1
 62
     0
370
    -2
100
AcDbLine
 10
45.06644702439792
 20
1582.313140303607
 30
0.0
 11
45.06644702439795
 21
1647.132219250975
 31
0.0
  0
SOLID
  5
4C82
330
4C4C
100
AcDbEntity
  8
1
 62
     0
100
AcDbTrace
 10
43.34144702439796
 20
1730.613140303606
 30
0.0
 11
46.79144702439796
 21
1730.613140303606
 31
0.0
 12
45.06644702439796
 22
1740.963140303606
 32
0.0
 13
45.06644702439796
 23
1740.963140303606
 33
0.0
  0
SOLID
  5
4C83
330
4C4C
100
AcDbEntity
  8
1
 62
     0
100
AcDbTrace
 10
43.34144702439792
 20
1582.313140303607
 30
0.0
 11
46.79144702439793
 21
1582.313140303607
 31
0.0
 12
45.06644702439792
 22
1571.963140303607
 32
0.0
 13
45.06644702439792
 23
1571.963140303607
 33
0.0
  0
MTEXT
  5
4C84
330
4C4C
100
AcDbEntity
  8
1
 62
     0
100
AcDbMText
 10
45.06644702439769
 20
1656.463140303606
 30
0.0
 40
10.34999999999999
 41
0.0
 71
     5
 72
     1
  1
\A1;170
 73
     1
 44
1.0
  0
POINT
  5
4C85
330
4C4C
100
AcDbEntity
  8
DEFPOINTS
 62
     0
100
AcDbPoint
 10
96.71459389000201
 20
1740.963140303606
 30
0.0
  0
POINT
  5
4C86
330
4C4C
100
AcDbEntity
  8
DEFPOINTS
 62
     0
100
AcDbPoint
 10
113.7145938900016
 20
1571.963140303607
 30
0.0
  0
POINT
  5
4C87
330
4C4C
100
AcDbEntity
  8
DEFPOINTS
 62
     0
100
AcDbPoint
 10
45.06644702439792
 20
1571.963140303607
 30
0.0
  0
ENDBLK
  5
4C58
330
4C4C
100
AcDbEntity
  8
0
100
AcDbBlockEnd
  0
BLOCK
  5
4C64
330
4C59
100
AcDbEntity
  8
0
100
AcDbBlockBegin
  2
*D12
 70
     1
 10
0.0
 20
0.0
 30
0.0
  3
*D12
  1

  0
LINE
  5
4C88
330
4C59
100
AcDbEntity
  8
1
 62
     0
370
    -2
100
AcDbLine
 10
108.3145938900015
 20
1571.963140303607
 30
0.0
 11
36.96644702439793
 21
1571.963140303607
 31
0.0
  0
LINE
  5
4C89
330
4C59
100
AcDbEntity
  8
1
 62
     0
370
    -2
100
AcDbLine
 10
146.3145938900018
 20
1450.963140303606
 30
0.0
 11
36.96644702439793
 21
1450.963140303606
 31
0.0
  0
LINE
  5
4C8A
330
4C59
100
AcDbEntity
  8
1
 62
     0
370
    -2
100
AcDbLine
 10
45.06644702439793
 20
1561.613140303606
 30
0.0
 11
45.06644702439792
 21
1520.794061356238
 31
0.0
  0
LINE
  5
4C8B
330
4C59
100
AcDbEntity
  8
1
 62
     0
370
    -2
100
AcDbLine
 10
45.06644702439792
 20
1461.313140303606
 30
0.0
 11
45.06644702439792
 21
1502.132219250975
 31
0.0
  0
SOLID
  5
4C8C
330
4C59
100
AcDbEntity
  8
1
 62
     0
100
AcDbTrace
 10
43.34144702439793
 20
1561.613140303606
 30
0.0
 11
46.79144702439795
 21
1561.613140303606
 31
0.0
 12
45.06644702439793
 22
1571.963140303607
 32
0.0
 13
45.06644702439793
 23
1571.963140303607
 33
0.0
  0
SOLID
  5
4C8D
330
4C59
100
AcDbEntity
  8
1
 62
     0
100
AcDbTrace
 10
43.34144702439792
 20
1461.313140303606
 30
0.0
 11
46.79144702439792
 21
1461.313140303606
 31
0.0
 12
45.06644702439792
 22
1450.963140303606
 32
0.0
 13
45.06644702439792
 23
1450.963140303606
 33
0.0
  0
MTEXT
  5
4C8E
330
4C59
100
AcDbEntity
  8
1
 62
     0
100
AcDbMText
 10
45.06644702439769
 20
1511.463140303606
 30
0.0
 40
10.34999999999999
 41
0.0
 71
     5
 72
     1
  1
\A1;120
 73
     1
 44
1.0
  0
POINT
  5
4C8F
330
4C59
100
AcDbEntity
  8
DEFPOINTS
 62
     0
100
AcDbPoint
 10
113.7145938900016
 20
1571.963140303607
 30
0.0
  0
POINT
  5
4C90
330
4C59
100
AcDbEntity
  8
DEFPOINTS
 62
     0
100
AcDbPoint
 10
151.7145938900019
 20
1450.963140303606
 30
0.0
  0
POINT
  5
4C91
330
4C59
100
AcDbEntity
  8
DEFPOINTS
 62
     0
100
AcDbPoint
 10
45.06644702439792
 20
1450.963140303606
 30
0.0
  0
ENDBLK
  5
4C65
330
4C59
100
AcDbEntity
  8
0
100
AcDbBlockEnd
  0
BLOCK
  5
4C70
330
4C66
100
AcDbEntity
  8
0
100
AcDbBlockBegin
  2
*D13
 70
     1
 10
0.0
 20
0.0
 30
0.0
  3
*D13
  1

  0
LINE
  5
4C92
330
4C66
100
AcDbEntity
  8
1
 62
     0
370
    -2
100
AcDbLine
 10
151.7145938900019
 20
1445.563140303606
 30
0.0
 11
151.7145938900019
 21
1416.012027955466
 31
0.0
  0
LINE
  5
4C93
330
4C66
100
AcDbEntity
  8
1
 62
     0
370
    -2
100
AcDbLine
 10
261.7145938900018
 20
1445.563140303606
 30
0.0
 11
261.7145938900018
 21
1416.012027955466
 31
0.0
  0
LINE
  5
4C94
330
4C66
100
AcDbEntity
  8
1
 62
     0
370
    -2
100
AcDbLine
 10
162.0645938900018
 20
1424.112027955465
 30
0.0
 11
251.3645938900018
 21
1424.112027955465
 31
0.0
  0
SOLID
  5
4C95
330
4C66
100
AcDbEntity
  8
1
 62
     0
100
AcDbTrace
 10
162.0645938900018
 20
1425.837027955466
 30
0.0
 11
162.0645938900018
 21
1422.387027955466
 31
0.0
 12
151.7145938900019
 22
1424.112027955465
 32
0.0
 13
151.7145938900019
 23
1424.112027955465
 33
0.0
  0
SOLID
  5
4C96
330
4C66
100
AcDbEntity
  8
1
 62
     0
100
AcDbTrace
 10
251.3645938900018
 20
1425.837027955466
 30
0.0
 11
251.3645938900018
 21
1422.387027955466
 31
0.0
 12
261.7145938900018
 22
1424.112027955465
 32
0.0
 13
261.7145938900018
 23
1424.112027955465
 33
0.0
  0
MTEXT
  5
4C97
330
4C66
100
AcDbEntity
  8
1
 62
     0
100
AcDbMText
 10
206.7145938900019
 20
1433.813672692308
 30
0.0
 40
10.34999999999999
 41
0.0
 71
     5
 72
     1
  1
\A1;%%c110
 73
     1
 44
1.0
  0
POINT
  5
4C98
330
4C66
100
AcDbEntity
  8
DEFPOINTS
 62
     0
100
AcDbPoint
 10
151.7145938900019
 20
1450.963140303606
 30
0.0
  0
POINT
  5
4C99
330
4C66
100
AcDbEntity
  8
DEFPOINTS
 62
     0
100
AcDbPoint
 10
261.7145938900018
 20
1450.963140303606
 30
0.0
  0
POINT
  5
4C9A
330
4C66
100
AcDbEntity
  8
DEFPOINTS
 62
     0
100
AcDbPoint
 10
261.7145938900018
 20
1424.112027955465
 30
0.0
  0
ENDBLK
  5
4C71
330
4C66
100
AcDbEntity
  8
0
100
AcDbBlockEnd
  0
BLOCK
  5
4C7C
330
4C72
100
AcDbEntity
  8
0
100
AcDbBlockBegin
  2
*D14
 70
     1
 10
0.0
 20
0.0
 30
0.0
  3
*D14
  1

  0
LINE
  5
4C9B
330
4C72
100
AcDbEntity
  8
1
 62
     0
370
    -2
100
AcDbLine
 10
96.71459389000201
 20
1746.363140303606
 30
0.0
 11
96.71459389000201
 21
1770.803298532453
 31
0.0
  0
LINE
  5
4C9C
330
4C72
100
AcDbEntity
  8
1
 62
     0
370
    -2
100
AcDbLine
 10
316.714593890002
 20
1746.363140303606
 30
0.0
 11
316.714593890002
 21
1770.803298532453
 31
0.0
  0
LINE
  5
4C9D
330
4C72
100
AcDbEntity
  8
1
 62
     0
370
    -2
100
AcDbLine
 10
107.0645938900019
 20
1762.703298532453
 30
0.0
 11
306.3645938900018
 21
1762.703298532453
 31
0.0
  0
SOLID
  5
4C9E
330
4C72
100
AcDbEntity
  8
1
 62
     0
100
AcDbTrace
 10
107.0645938900019
 20
1764.428298532454
 30
0.0
 11
107.0645938900019
 21
1760.978298532454
 31
0.0
 12
96.71459389000201
 22
1762.703298532453
 32
0.0
 13
96.71459389000201
 23
1762.703298532453
 33
0.0
  0
SOLID
  5
4C9F
330
4C72
100
AcDbEntity
  8
1
 62
     0
100
AcDbTrace
 10
306.3645938900018
 20
1764.428298532454
 30
0.0
 11
306.3645938900018
 21
1760.978298532454
 31
0.0
 12
316.714593890002
 22
1762.703298532453
 32
0.0
 13
316.714593890002
 23
1762.703298532453
 33
0.0
  0
MTEXT
  5
4CA0
330
4C72
100
AcDbEntity
  8
1
 62
     0
100
AcDbMText
 10
205.3834709620534
 20
1772.034219585085
 30
0.0
 40
10.34999999999999
 41
0.0
 71
     5
 72
     1
  1
\A1;220
 73
     1
 44
1.0
  0
POINT
  5
4CA1
330
4C72
100
AcDbEntity
  8
DEFPOINTS
 62
     0
100
AcDbPoint
 10
96.71459389000201
 20
1740.963140303606
 30
0.0
  0
POINT
  5
4CA2
330
4C72
100
AcDbEntity
  8
DEFPOINTS
 62
     0
100
AcDbPoint
 10
316.714593890002
 20
1740.963140303606
 30
0.0
  0
POINT
  5
4CA3
330
4C72
100
AcDbEntity
  8
DEFPOINTS
 62
     0
100
AcDbPoint
 10
316.714593890002
 20
1762.703298532453
 30
0.0
  0
ENDBLK
  5
4C7D
330
4C72
100
AcDbEntity
  8
0
100
AcDbBlockEnd
  0
BLOCK
  5
4D16
330
4CD4
100
AcDbEntity
  8
0
100
AcDbBlockBegin
  2
SLOTTED
 70
     0
 10
0.0
 20
0.0
 30
0.0
  3
SLOTTED
  1

  0
ARC
  5
4CD5
330
4CD4
100
AcDbEntity
  8
1
100
AcDbCircle
 10
4212.144317209531
 20
980.8125468953662
 30
0.0
 40
6.0
100
AcDbArc
 50
90.0
 51
270.0
  0
ARC
  5
4CD6
330
4CD4
100
AcDbEntity
  8
1
100
AcDbCircle
 10
4188.144317209531
 20
980.8125468953662
 30
0.0
 40
6.0
100
AcDbArc
 50
270.0
 51
90.0
  0
ARC
  5
4CD7
330
4CD4
100
AcDbEntity
  8
1
100
AcDbCircle
 10
4278.548874219118
 20
980.8125468953662
 30
0.0
 40
6.0
100
AcDbArc
 50
267.9033450422191
 51
92.09665495778081
  0
ARC
  5
4CD8
330
4CD4
100
AcDbEntity
  8
1
100
AcDbCircle
 10
4121.739760199946
 20
980.8125468953662
 30
0.0
 40
6.0
100
AcDbArc
 50
87.90334504221922
 51
272.0966549577807
  0
CIRCLE
  5
4CD9
330
4CD4
100
AcDbEntity
  8
1
100
AcDbCircle
 10
4200.144317209531
 20
1005.812546895366
 30
0.0
 40
107.0
  0
LINE
  5
4CDA
330
4CD4
100
AcDbEntity
  8
1
100
AcDbLine
 10
4188.144317209531
 20
974.8125468953663
 30
0.0
 11
4121.739760199946
 21
974.8125468953663
 31
0.0
  0
LINE
  5
4CDB
330
4CD4
100
AcDbEntity
  8
1
100
AcDbLine
 10
4188.144317209531
 20
961.8125468953662
 30
0.0
 11
4133.670104856082
 21
961.8125468953662
 31
0.0
  0
LINE
  5
4CDC
330
4CD4
100
AcDbEntity
  8
1
100
AcDbLine
 10
4188.144317209531
 20
949.8125468953663
 30
0.0
 11
4133.670104856082
 21
949.8125468953663
 31
0.0
  0
LINE
  5
4CDD
330
4CD4
100
AcDbEntity
  8
1
100
AcDbLine
 10
4188.144317209531
 20
936.8125468953662
 30
0.0
 11
4162.106815056264
 21
936.8125468953662
 31
0.0
  0
LINE
  5
4CDE
330
4CD4
100
AcDbEntity
  8
1
100
AcDbLine
 10
4188.144317209531
 20
924.8125468953663
 30
0.0
 11
4162.106815056264
 21
924.8125468953663
 31
0.0
  0
ARC
  5
4CDF
330
4CD4
100
AcDbEntity
  8
1
100
AcDbCircle
 10
4162.106815056264
 20
930.8125468953662
 30
0.0
 40
6.0
100
AcDbArc
 50
87.90334504221922
 51
272.0966549577807
  0
ARC
  5
4CE0
330
4CD4
100
AcDbEntity
  8
1
100
AcDbCircle
 10
4133.670104856082
 20
955.8125468953662
 30
0.0
 40
6.0
100
AcDbArc
 50
87.90334504221922
 51
272.0966549577807
  0
LINE
  5
4CE1
330
4CD4
100
AcDbEntity
  8
1
100
AcDbLine
 10
4212.144317209531
 20
924.8125468953663
 30
0.0
 11
4238.181819362798
 21
924.8125468953663
 31
0.0
  0
LINE
  5
4CE2
330
4CD4
100
AcDbEntity
  8
1
100
AcDbLine
 10
4212.144317209531
 20
936.8125468953662
 30
0.0
 11
4238.181819362798
 21
936.8125468953662
 31
0.0
  0
LINE
  5
4CE3
330
4CD4
100
AcDbEntity
  8
1
100
AcDbLine
 10
4212.144317209531
 20
949.8125468953663
 30
0.0
 11
4266.618529562981
 21
949.8125468953663
 31
0.0
  0
LINE
  5
4CE4
330
4CD4
100
AcDbEntity
  8
1
100
AcDbLine
 10
4212.144317209531
 20
961.8125468953662
 30
0.0
 11
4266.618529562981
 21
961.8125468953662
 31
0.0
  0
LINE
  5
4CE5
330
4CD4
100
AcDbEntity
  8
1
100
AcDbLine
 10
4212.144317209531
 20
974.8125468953663
 30
0.0
 11
4278.548874219118
 21
974.8125468953663
 31
0.0
  0
ARC
  5
4CE6
330
4CD4
100
AcDbEntity
  8
1
100
AcDbCircle
 10
4188.144317209531
 20
930.8125468953662
 30
0.0
 40
6.0
100
AcDbArc
 50
270.0
 51
90.0
  0
ARC
  5
4CE7
330
4CD4
100
AcDbEntity
  8
1
100
AcDbCircle
 10
4212.144317209531
 20
930.8125468953662
 30
0.0
 40
6.0
100
AcDbArc
 50
90.0
 51
270.0
  0
ARC
  5
4CE8
330
4CD4
100
AcDbEntity
  8
1
100
AcDbCircle
 10
4188.144317209531
 20
955.8125468953662
 30
0.0
 40
6.0
100
AcDbArc
 50
270.0
 51
90.0
  0
ARC
  5
4CE9
330
4CD4
100
AcDbEntity
  8
1
100
AcDbCircle
 10
4212.144317209531
 20
955.8125468953662
 30
0.0
 40
6.0
100
AcDbArc
 50
90.0
 51
270.0
  0
ARC
  5
4CEA
330
4CD4
100
AcDbEntity
  8
1
100
AcDbCircle
 10
4238.181819362798
 20
930.8125468953662
 30
0.0
 40
6.0
100
AcDbArc
 50
267.9033450422191
 51
92.09665495778081
  0
ARC
  5
4CEB
330
4CD4
100
AcDbEntity
  8
1
100
AcDbCircle
 10
4266.618529562981
 20
955.8125468953662
 30
0.0
 40
6.0
100
AcDbArc
 50
267.9033450422191
 51
92.09665495778081
  0
LINE
  5
4CEC
330
4CD4
100
AcDbEntity
  8
1
100
AcDbLine
 10
4188.144317209531
 20
999.8125468953663
 30
0.0
 11
4118.144317209531
 21
999.8125468953663
 31
0.0
  0
LINE
  5
4CED
330
4CD4
100
AcDbEntity
  8
1
100
AcDbLine
 10
4188.144317209531
 20
1011.812546895366
 30
0.0
 11
4118.144317209531
 21
1011.812546895366
 31
0.0
  0
LINE
  5
4CEE
330
4CD4
100
AcDbEntity
  8
1
100
AcDbLine
 10
4188.144317209531
 20
986.8125468953662
 30
0.0
 11
4121.739760199946
 21
986.8125468953662
 31
0.0
  0
LINE
  5
4CEF
330
4CD4
100
AcDbEntity
  8
1
100
AcDbLine
 10
4188.144317209531
 20
1086.812546895366
 30
0.0
 11
4162.106815056264
 21
1086.812546895366
 31
0.0
  0
LINE
  5
4CF0
330
4CD4
100
AcDbEntity
  8
1
100
AcDbLine
 10
4188.144317209531
 20
1074.812546895365
 30
0.0
 11
4162.106815056264
 21
1074.812546895365
 31
0.0
  0
LINE
  5
4CF1
330
4CD4
100
AcDbEntity
  8
1
100
AcDbLine
 10
4188.144317209531
 20
1061.812546895366
 30
0.0
 11
4133.670104856082
 21
1061.812546895366
 31
0.0
  0
LINE
  5
4CF2
330
4CD4
100
AcDbEntity
  8
1
100
AcDbLine
 10
4188.144317209531
 20
1049.812546895366
 30
0.0
 11
4133.670104856082
 21
1049.812546895366
 31
0.0
  0
LINE
  5
4CF3
330
4CD4
100
AcDbEntity
  8
1
100
AcDbLine
 10
4188.144317209531
 20
1024.812546895365
 30
0.0
 11
4121.739760199946
 21
1024.812546895365
 31
0.0
  0
LINE
  5
4CF4
330
4CD4
100
AcDbEntity
  8
1
100
AcDbLine
 10
4188.144317209531
 20
1036.812546895366
 30
0.0
 11
4121.739760199946
 21
1036.812546895366
 31
0.0
  0
LINE
  5
4CF5
330
4CD4
100
AcDbEntity
  8
1
100
AcDbLine
 10
4188.144317209531
 20
999.8125468953663
 30
0.0
 11
4118.144317209531
 21
999.8125468953663
 31
0.0
  0
LINE
  5
4CF6
330
4CD4
100
AcDbEntity
  8
1
100
AcDbLine
 10
4188.144317209531
 20
1011.812546895366
 30
0.0
 11
4118.144317209531
 21
1011.812546895366
 31
0.0
  0
ARC
  5
4CF7
330
4CD4
100
AcDbEntity
  8
1
100
AcDbCircle
 10
4133.670104856082
 20
1055.812546895366
 30
0.0
 40
6.0
100
AcDbArc
 50
87.90334504221922
 51
272.0966549577807
  0
ARC
  5
4CF8
330
4CD4
100
AcDbEntity
  8
1
100
AcDbCircle
 10
4118.144317209531
 20
1005.812546895366
 30
0.0
 40
6.0
100
AcDbArc
 50
87.90334504221922
 51
272.0966549577807
  0
ARC
  5
4CF9
330
4CD4
100
AcDbEntity
  8
1
100
AcDbCircle
 10
4121.739760199946
 20
1030.812546895366
 30
0.0
 40
6.0
100
AcDbArc
 50
87.90334504221922
 51
272.0966549577807
  0
ARC
  5
4CFA
330
4CD4
100
AcDbEntity
  8
1
100
AcDbCircle
 10
4118.144317209531
 20
1005.812546895366
 30
0.0
 40
6.0
100
AcDbArc
 50
87.90334504221922
 51
272.0966549577807
  0
ARC
  5
4CFB
330
4CD4
100
AcDbEntity
  8
1
100
AcDbCircle
 10
4162.106815056264
 20
1080.812546895365
 30
0.0
 40
6.0
100
AcDbArc
 50
87.90334504221922
 51
272.0966549577807
  0
ARC
  5
4CFC
330
4CD4
100
AcDbEntity
  8
1
100
AcDbCircle
 10
4282.144317209531
 20
1005.812546895366
 30
0.0
 40
6.0
100
AcDbArc
 50
267.9033450422191
 51
92.09665495778081
  0
ARC
  5
4CFD
330
4CD4
100
AcDbEntity
  8
1
100
AcDbCircle
 10
4282.144317209531
 20
1005.812546895366
 30
0.0
 40
6.0
100
AcDbArc
 50
267.9033450422191
 51
92.09665495778081
  0
ARC
  5
4CFE
330
4CD4
100
AcDbEntity
  8
1
100
AcDbCircle
 10
4278.548874219118
 20
1030.812546895366
 30
0.0
 40
6.0
100
AcDbArc
 50
267.9033450422191
 51
92.09665495778081
  0
ARC
  5
4CFF
330
4CD4
100
AcDbEntity
  8
1
100
AcDbCircle
 10
4266.618529562981
 20
1055.812546895366
 30
0.0
 40
6.0
100
AcDbArc
 50
267.9033450422191
 51
92.09665495778081
  0
ARC
  5
4D00
330
4CD4
100
AcDbEntity
  8
1
100
AcDbCircle
 10
4212.144317209531
 20
1055.812546895366
 30
0.0
 40
6.0
100
AcDbArc
 50
90.0
 51
270.0
  0
ARC
  5
4D01
330
4CD4
100
AcDbEntity
  8
1
100
AcDbCircle
 10
4188.144317209531
 20
1055.812546895366
 30
0.0
 40
6.0
100
AcDbArc
 50
270.0
 51
90.0
  0
LINE
  5
4D02
330
4CD4
100
AcDbEntity
  8
1
100
AcDbLine
 10
4212.144317209531
 20
986.8125468953662
 30
0.0
 11
4278.548874219118
 21
986.8125468953662
 31
0.0
  0
LINE
  5
4D03
330
4CD4
100
AcDbEntity
  8
1
100
AcDbLine
 10
4212.144317209531
 20
1011.812546895366
 30
0.0
 11
4282.144317209531
 21
1011.812546895366
 31
0.0
  0
LINE
  5
4D04
330
4CD4
100
AcDbEntity
  8
1
100
AcDbLine
 10
4212.144317209531
 20
999.8125468953663
 30
0.0
 11
4282.144317209531
 21
999.8125468953663
 31
0.0
  0
LINE
  5
4D05
330
4CD4
100
AcDbEntity
  8
1
100
AcDbLine
 10
4212.144317209531
 20
1011.812546895366
 30
0.0
 11
4282.144317209531
 21
1011.812546895366
 31
0.0
  0
LINE
  5
4D06
330
4CD4
100
AcDbEntity
  8
1
100
AcDbLine
 10
4212.144317209531
 20
999.8125468953663
 30
0.0
 11
4282.144317209531
 21
999.8125468953663
 31
0.0
  0
LINE
  5
4D07
330
4CD4
100
AcDbEntity
  8
1
100
AcDbLine
 10
4212.144317209531
 20
1036.812546895366
 30
0.0
 11
4278.548874219118
 21
1036.812546895366
 31
0.0
  0
LINE
  5
4D08
330
4CD4
100
AcDbEntity
  8
1
100
AcDbLine
 10
4212.144317209531
 20
1024.812546895365
 30
0.0
 11
4278.548874219118
 21
1024.812546895365
 31
0.0
  0
LINE
  5
4D09
330
4CD4
100
AcDbEntity
  8
1
100
AcDbLine
 10
4212.144317209531
 20
1049.812546895366
 30
0.0
 11
4266.618529562981
 21
1049.812546895366
 31
0.0
  0
ARC
  5
4D0A
330
4CD4
100
AcDbEntity
  8
1
100
AcDbCircle
 10
4188.144317209531
 20
1005.812546895366
 30
0.0
 40
6.0
100
AcDbArc
 50
270.0
 51
90.0
  0
ARC
  5
4D0B
330
4CD4
100
AcDbEntity
  8
1
100
AcDbCircle
 10
4188.144317209531
 20
1005.812546895366
 30
0.0
 40
6.0
100
AcDbArc
 50
270.0
 51
90.0
  0
ARC
  5
4D0C
330
4CD4
100
AcDbEntity
  8
1
100
AcDbCircle
 10
4212.144317209531
 20
1005.812546895366
 30
0.0
 40
6.0
100
AcDbArc
 50
90.0
 51
270.0
  0
ARC
  5
4D0D
330
4CD4
100
AcDbEntity
  8
1
100
AcDbCircle
 10
4212.144317209531
 20
1005.812546895366
 30
0.0
 40
6.0
100
AcDbArc
 50
90.0
 51
270.0
  0
ARC
  5
4D0E
330
4CD4
100
AcDbEntity
  8
1
100
AcDbCircle
 10
4188.144317209531
 20
1030.812546895366
 30
0.0
 40
6.0
100
AcDbArc
 50
270.0
 51
90.0
  0
ARC
  5
4D0F
330
4CD4
100
AcDbEntity
  8
1
100
AcDbCircle
 10
4212.144317209531
 20
1030.812546895366
 30
0.0
 40
6.0
100
AcDbArc
 50
90.0
 51
270.0
  0
LINE
  5
4D10
330
4CD4
100
AcDbEntity
  8
1
100
AcDbLine
 10
4212.144317209531
 20
1061.812546895366
 30
0.0
 11
4266.618529562981
 21
1061.812546895366
 31
0.0
  0
LINE
  5
4D11
330
4CD4
100
AcDbEntity
  8
1
100
AcDbLine
 10
4212.144317209531
 20
1074.812546895365
 30
0.0
 11
4238.181819362798
 21
1074.812546895365
 31
0.0
  0
LINE
  5
4D12
330
4CD4
100
AcDbEntity
  8
1
100
AcDbLine
 10
4212.144317209531
 20
1086.812546895366
 30
0.0
 11
4238.181819362798
 21
1086.812546895366
 31
0.0
  0
ARC
  5
4D13
330
4CD4
100
AcDbEntity
  8
1
100
AcDbCircle
 10
4188.144317209531
 20
1080.812546895365
 30
0.0
 40
6.0
100
AcDbArc
 50
270.0
 51
90.0
  0
ARC
  5
4D14
330
4CD4
100
AcDbEntity
  8
1
100
AcDbCircle
 10
4212.144317209531
 20
1080.812546895365
 30
0.0
 40
6.0
100
AcDbArc
 50
90.0
 51
270.0
  0
ARC
  5
4D15
330
4CD4
100
AcDbEntity
  8
1
100
AcDbCircle
 10
4238.181819362798
 20
1080.812546895365
 30
0.0
 40
6.0
100
AcDbArc
 50
267.9033450422191
 51
92.09665495778081
  0
ENDBLK
  5
4D17
330
4CD4
100
AcDbEntity
  8
0
100
AcDbBlockEnd
  0
BLOCK
  5
4D71
330
4D66
100
AcDbEntity
  8
0
100
AcDbBlockBegin
  2
*D16
 70
     1
 10
0.0
 20
0.0
 30
0.0
  3
*D16
  1

  0
LINE
  5
4D67
330
4D66
100
AcDbEntity
  8
1
 62
     0
370
    -2
100
AcDbLine
 10
2260.35835520791
 20
-1713.996194238085
 30
0.0
 11
2303.304257437198
 21
-1713.996194238085
 31
0.0
  0
LINE
  5
4D68
330
4D66
100
AcDbEntity
  8
1
 62
     0
370
    -2
100
AcDbLine
 10
2260.35835520791
 20
-1625.118944238085
 30
0.0
 11
2303.304257437198
 21
-1625.118944238085
 31
0.0
  0
LINE
  5
4D69
330
4D66
100
AcDbEntity
  8
1
 62
     0
370
    -2
100
AcDbLine
 10
2295.204257437198
 20
-1703.646194238085
 30
0.0
 11
2295.204257437198
 21
-1678.941450817031
 31
0.0
  0
LINE
  5
4D6A
330
4D66
100
AcDbEntity
  8
1
 62
     0
370
    -2
100
AcDbLine
 10
2295.204257437198
 20
-1635.468944238084
 30
0.0
 11
2295.204257437198
 21
-1660.173687659137
 31
0.0
  0
SOLID
  5
4D6B
330
4D66
100
AcDbEntity
  8
1
 62
     0
100
AcDbTrace
 10
2293.479257437197
 20
-1703.646194238085
 30
0.0
 11
2296.929257437198
 21
-1703.646194238085
 31
0.0
 12
2295.204257437198
 22
-1713.996194238085
 32
0.0
 13
2295.204257437198
 23
-1713.996194238085
 33
0.0
  0
SOLID
  5
4D6C
330
4D66
100
AcDbEntity
  8
1
 62
     0
100
AcDbTrace
 10
2293.479257437197
 20
-1635.468944238084
 30
0.0
 11
2296.929257437198
 21
-1635.468944238084
 31
0.0
 12
2295.204257437198
 22
-1625.118944238085
 32
0.0
 13
2295.204257437198
 23
-1625.118944238085
 33
0.0
  0
MTEXT
  5
4D6D
330
4D66
100
AcDbEntity
  8
1
 62
     0
100
AcDbMText
 10
2295.204257437199
 20
-1669.557569238085
 30
0.0
 40
10.34999999999999
 41
0.0
 71
     5
 72
     1
  1
\A1;OUTLET
 73
     1
 44
1.0
  0
POINT
  5
4D6E
330
4D66
100
AcDbEntity
  8
DEFPOINTS
 62
     0
100
AcDbPoint
 10
2254.95835520791
 20
-1713.996194238085
 30
-0.0000000002698623
  0
POINT
  5
4D6F
330
4D66
100
AcDbEntity
  8
DEFPOINTS
 62
     0
100
AcDbPoint
 10
2254.95835520791
 20
-1625.118944238085
 30
-0.0000000002698623
  0
POINT
  5
4D70
330
4D66
100
AcDbEntity
  8
DEFPOINTS
 62
     0
100
AcDbPoint
 10
2295.204257437198
 20
-1625.118944238085
 30
0.0
  0
ENDBLK
  5
4D72
330
4D66
100
AcDbEntity
  8
0
100
AcDbBlockEnd
  0
BLOCK
  5
4D9A
330
4D8F
100
AcDbEntity
  8
0
100
AcDbBlockBegin
  2
*D18
 70
     1
 10
0.0
 20
0.0
 30
0.0
  3
*D18
  1

  0
LINE
  5
4DC5
330
4D8F
100
AcDbEntity
  8
1
 62
     0
370
    -2
100
AcDbLine
 10
-523.0076085479323
 20
952.0818973680682
 30
0.0
 11
-480.0617063186445
 21
952.0818973680682
 31
0.0
  0
LINE
  5
4DC6
330
4D8F
100
AcDbEntity
  8
1
 62
     0
370
    -2
100
AcDbLine
 10
-523.0076085479323
 20
1049.618124806226
 30
0.0
 11
-480.0617063186445
 21
1049.618124806225
 31
0.0
  0
LINE
  5
4DC7
330
4D8F
100
AcDbEntity
  8
1
 62
     0
370
    -2
100
AcDbLine
 10
-488.1617063186445
 20
962.4318973680683
 30
0.0
 11
-488.1617063186445
 21
991.4661295081996
 31
0.0
  0
LINE
  5
4DC8
330
4D8F
100
AcDbEntity
  8
1
 62
     0
370
    -2
100
AcDbLine
 10
-488.1617063186445
 20
1039.268124806225
 30
0.0
 11
-488.1617063186445
 21
1010.233892666094
 31
0.0
  0
SOLID
  5
4DC9
330
4D8F
100
AcDbEntity
  8
1
 62
     0
100
AcDbTrace
 10
-489.8867063186445
 20
962.4318973680683
 30
0.0
 11
-486.4367063186445
 21
962.4318973680683
 31
0.0
 12
-488.1617063186445
 22
952.0818973680682
 32
0.0
 13
-488.1617063186445
 23
952.0818973680682
 33
0.0
  0
SOLID
  5
4DCA
330
4D8F
100
AcDbEntity
  8
1
 62
     0
100
AcDbTrace
 10
-489.8867063186445
 20
1039.268124806225
 30
0.0
 11
-486.4367063186445
 21
1039.268124806225
 31
0.0
 12
-488.1617063186445
 22
1049.618124806225
 32
0.0
 13
-488.1617063186445
 23
1049.618124806225
 33
0.0
  0
MTEXT
  5
4DCB
330
4D8F
100
AcDbEntity
  8
1
 62
     0
100
AcDbMText
 10
-488.1617063186446
 20
1000.850011087146
 30
0.0
 40
10.34999999999999
 41
0.0
 71
     5
 72
     1
  1
\A1;OUTLET
 73
     1
 44
1.0
  0
POINT
  5
4DCC
330
4D8F
100
AcDbEntity
  8
DEFPOINTS
 62
     0
100
AcDbPoint
 10
-528.4076085479323
 20
952.0818973680682
 30
-0.0000000002698622
  0
POINT
  5
4DCD
330
4D8F
100
AcDbEntity
  8
DEFPOINTS
 62
     0
100
AcDbPoint
 10
-528.4076085479323
 20
1049.618124806226
 30
-0.0000000002698622
  0
POINT
  5
4DCE
330
4D8F
100
AcDbEntity
  8
DEFPOINTS
 62
     0
100
AcDbPoint
 10
-488.1617063186445
 20
1049.618124806225
 30
0.0
  0
ENDBLK
  5
4D9B
330
4D8F
100
AcDbEntity
  8
0
100
AcDbBlockEnd
  0
ENDSEC
  0
SECTION
  2
ENTITIES
  0
LEADER
  5
461F
330
19
100
AcDbEntity
  8
1
100
AcDbLeader
  3
STANDARD
 73
     0
 75
     1
 40
29.84795321637426
 41
178.2032163742689
 76
     3
 10
-333.1063857295935
 20
986.7435383477243
 30
0.0
 10
-367.8134642859998
 20
877.025312405628
 30
0.0
 10
-378.1634642859998
 20
877.025312405628
 30
0.0
340
4620
213
0.0
223
5.174999999999998
233
0.0
1001
ACAD
1000
DSTYLE
1002
{
1070
   147
1040
0.09
1070
     4
1000
mm
1070
    40
1040
45.0
1070
    41
1040
0.23
1070
    42
1040
0.12
1070
    77
1070
     0
1070
   140
1040
0.23
1070
   141
1040
0.0
1070
   171
1070
     0
1070
   271
1070
     0
1070
   272
1070
     0
1070
   274
1070
     0
1002
}
  0
MTEXT
  5
4620
102
{ACAD_REACTORS
330
461F
102
}
330
19
100
AcDbEntity
  8
1
100
AcDbMText
 10
-382.2134642859998
 20
871.8503124056281
 30
0.0
 40
11.0
 41
0.0
 71
     9
 72
     1
  1
RANGE OF COVERS\P& GRATINGS AVAILABLE
 73
     1
 44
1.0
  0
ARC
  5
46D3
330
19
100
AcDbEntity
  8
1
100
AcDbCircle
 10
-608.6216835479354
 20
924.1826248062183
 30
-0.0000000590584753
 40
20.0
100
AcDbArc
 50
270.0
 51
0.0
  0
LINE
  5
46F9
330
19
100
AcDbEntity
  8
1
100
AcDbLine
 10
-590.6216835478927
 20
1088.172050886896
 30
0.0000000000301214
 11
-590.621683547904
 21
1048.002174806225
 31
-0.0000000000827938
  0
LINE
  5
46FA
330
19
100
AcDbEntity
  8
1
100
AcDbLine
 10
-588.6216835479076
 20
1086.672050886903
 30
0.000000000064886
 11
-588.6216835479188
 21
1048.002174806226
 31
-0.0000000000949201
  0
ARC
  5
4706
330
19
100
AcDbEntity
  8
1
100
AcDbCircle
 10
-838.6216835479061
 20
924.1826248062183
 30
0.0000000028088828
 40
20.0
210
-0.0000000000034886
220
0.0000000000000327
230
1.0
100
AcDbArc
 50
180.0
 51
270.0
  0
LINE
  5
4707
330
19
100
AcDbEntity
  8
1
100
AcDbLine
 10
-858.6216835479207
 20
924.1826248062183
 30
-0.0000000002745585
 11
-858.6216835479486
 21
1086.672050886903
 31
0.0000000000000494
  0
LINE
  5
4708
330
19
100
AcDbEntity
  8
1
100
AcDbLine
 10
-856.6216835479337
 20
1088.172050886896
 30
0.0000000000040074
 11
-856.6216835479062
 21
924.1826248062183
 31
-0.0000000002745598
  0
ARC
  5
4709
330
19
100
AcDbEntity
  8
1
100
AcDbCircle
 10
-838.6216835479352
 20
924.1826248062334
 30
-0.0000000032252786
 40
18.0
210
0.000000000003159
220
-0.0000000000002167
230
1.0
100
AcDbArc
 50
180.0
 51
270.0
  0
LINE
  5
4716
330
19
100
AcDbEntity
  8
1
100
AcDbLine
 10
-838.6216835479061
 20
904.1826248062184
 30
-0.0000000001463127
 11
-608.6216835479354
 21
904.1826248062184
 31
0.0000000006015718
  0
LINE
  5
4718
330
19
100
AcDbEntity
  8
1
100
AcDbLine
 10
-838.6216835479206
 20
906.1826248062335
 30
-0.0000000003796567
 11
-608.6216835479375
 21
906.182624806205
 31
-0.0000000009322591
  0
ARC
  5
471B
330
19
100
AcDbEntity
  8
1
100
AcDbCircle
 10
-608.6216835479354
 20
924.1826248062034
 30
0.0000000362394455
 40
18.0
100
AcDbArc
 50
270.0
 51
0.0
  0
MTEXT
  5
47CB
330
19
100
AcDbEntity
  8
1
100
AcDbMText
 10
-811.934027475122
 20
838.5334333100535
 30
0.0
 40
12.0
 41
277.87
 71
     1
 72
     5
  1
{\fTechnicLite|b0|i0|c2|p2;SECTIONAL ELEVATION}
  7
ROMANC
 73
     1
 44
1.0
  0
DIMENSION
  5
47DA
330
19
100
AcDbEntity
  8
1
100
AcDbDimension
  2
*D2
 10
-911.8730166370076
 20
1187.203128060944
 30
0.0
 11
-911.8730166370077
 21
1045.692876433581
 31
0.0
 70
    32
  1
H
 71
     5
 42
283.0205032547255
  3
STANDARD
100
AcDbAlignedDimension
 13
-838.6216835479061
 23
904.1826248062184
 33
-0.0000000001463127
 14
-850.6216835478989
 24
1187.203128060944
 34
-0.0000000005131511
 50
90.0
100
AcDbRotatedDimension
1001
ACAD
1000
DSTYLE
1002
{
1070
     4
1000
mm
1070
    40
1040
50.0
1070
    41
1040
0.23
1070
    42
1040
0.12
1070
    77
1070
     1
1070
   140
1040
0.23
1070
   141
1040
0.0
1070
   171
1070
     0
1070
   271
1070
     0
1070
   272
1070
     0
1070
   274
1070
     0
1002
}
  0
DIMENSION
  5
481A
330
19
100
AcDbEntity
  8
1
100
AcDbDimension
  2
*D3
 10
-596.6216835479425
 20
1207.426112951577
 30
-0.0000000008479271
 11
-723.6216835479207
 21
1217.743364413565
 31
-0.0000000008479271
 70
    32
  1
D1
 71
     5
 42
253.9999999999563
  3
STANDARD
100
AcDbAlignedDimension
 13
-850.6216835478989
 23
1187.203128060944
 33
-0.0000000005131511
 14
-596.6216835479425
 24
1187.203128060944
 34
-0.0000000005131511
100
AcDbRotatedDimension
1001
ACAD
1000
DSTYLE
1002
{
1070
     4
1000
mm
1070
    40
1040
50.0
1070
    41
1040
0.23
1070
    42
1040
0.12
1070
    77
1070
     1
1070
   140
1040
0.23
1070
   141
1040
0.0
1070
   171
1070
     0
1070
   271
1070
     0
1070
   272
1070
     0
1070
   274
1070
     0
1002
}
  0
DIMENSION
  5
484D
330
19
100
AcDbEntity
  8
1
100
AcDbDimension
  2
*D4
 10
-588.6216835479354
 20
862.6048771692419
 30
0.0
 11
-723.6216835479281
 21
872.8548771692418
 31
0.0
 70
    32
  1
D2
 71
     5
 42
269.9999999999853
  3
STANDARD
100
AcDbAlignedDimension
 13
-858.6216835479207
 23
903.341485192849
 33
-0.0000000002745585
 14
-588.6216835479354
 24
903.3414851928638
 34
-0.0000000003339983
100
AcDbRotatedDimension
1001
ACAD
1000
DSTYLE
1002
{
1070
     4
1000
mm
1070
    40
1040
50.0
1070
    41
1040
0.23
1070
    42
1040
0.12
1070
    77
1070
     1
1070
   140
1040
0.23
1070
   141
1040
0.0
1070
   171
1070
     0
1070
   271
1070
     0
1070
   272
1070
     0
1070
   274
1070
     0
1002
}
  0
MTEXT
  5
48C2
330
19
100
AcDbEntity
  8
1
100
AcDbMText
 10
-327.5924278602798
 20
840.4536933091643
 30
0.0
 40
12.0
 41
277.87
 71
     1
 72
     5
  1
{\fTechnicLite|b0|i0|c2|p2;PLAN}
  7
ROMANC
 73
     1
 44
1.0
  0
ARC
  5
4A38
330
19
100
AcDbEntity
  8
1
100
AcDbCircle
 10
-589.6216835479292
 20
1109.172050886904
 30
-0.0000000062133074
 40
1.0
100
AcDbArc
 50
180.0
 51
270.0
  0
ARC
  5
4A39
330
19
100
AcDbEntity
  8
1
100
AcDbCircle
 10
-857.6216835479268
 20
1109.172050886904
 30
-0.000000006278145
 40
1.0
100
AcDbArc
 50
270.0
 51
0.0
  0
LINE
  5
4A3A
330
19
100
AcDbEntity
  8
1
100
AcDbLine
 10
-588.6216835479367
 20
1110.672050886903
 30
0.0000000000895186
 11
-588.6216835479221
 21
1120.172050886904
 31
0.000000000089505
  0
LINE
  5
4A3B
330
19
100
AcDbEntity
  8
1
100
AcDbLine
 10
-590.6216835479368
 20
1120.172050886904
 30
0.0000000000895052
 11
-590.6216835479439
 21
1109.172050886904
 31
0.0000000000895208
  0
LINE
  5
4A3C
330
19
100
AcDbEntity
  8
1
100
AcDbLine
 10
-595.6216835479002
 20
1089.172050886904
 30
-0.000000000277029
 11
-589.6216835479149
 21
1089.172050886889
 31
0.0000000000185073
  0
ARC
  5
4A3D
330
19
100
AcDbEntity
  8
1
100
AcDbCircle
 10
-595.6216835479002
 20
1090.172050886904
 30
-0.0000000002078748
 40
1.0
100
AcDbArc
 50
180.0
 51
270.0
  0
LINE
  5
4A3E
330
19
100
AcDbEntity
  8
1
100
AcDbLine
 10
-589.6216835479292
 20
1108.172050886904
 30
0.0000000000309483
 11
-595.6216835479002
 21
1108.172050886904
 31
-0.0000000002770569
  0
LINE
  5
4A3F
330
19
100
AcDbEntity
  8
1
100
AcDbLine
 10
-596.6216835479002
 20
1107.172050886903
 30
-0.0000000002770551
 11
-596.6216835479002
 21
1090.172050886904
 31
-0.0000000002770301
  0
ARC
  5
4A40
330
19
100
AcDbEntity
  8
1
100
AcDbCircle
 10
-595.6216835479002
 20
1107.172050886903
 30
-0.0000000002078998
 40
1.0
100
AcDbArc
 50
90.0
 51
180.0
  0
ARC
  5
4A41
330
19
100
AcDbEntity
  8
1
100
AcDbCircle
 10
-588.1216835479076
 20
1086.672050886903
 30
0.000000000064886
 40
0.5
100
AcDbArc
 50
90.0
 51
180.0
  0
ARC
  5
4A42
330
19
100
AcDbEntity
  8
1
100
AcDbCircle
 10
-588.1216835479076
 20
1110.672050886903
 30
0.0000000000648507
 40
0.5
100
AcDbArc
 50
180.0
 51
270.0
  0
ARC
  5
4A43
330
19
100
AcDbEntity
  8
1
100
AcDbCircle
 10
-589.6216835479149
 20
1088.172050886896
 30
-0.0000000051744257
 40
1.0
210
0.000000000008906
220
0.0000000000000012
230
1.0
100
AcDbArc
 50
90.0
 51
180.0
  0
LINE
  5
4A44
330
19
100
AcDbEntity
  8
1
100
AcDbLine
 10
-583.6216835479076
 20
1087.172050886904
 30
0.0000000000309821
 11
-588.1216835479076
 21
1087.172050886904
 31
0.0000000000309805
  0
ARC
  5
4A45
330
19
100
AcDbEntity
  8
1
100
AcDbCircle
 10
-583.6216835479076
 20
1089.172050886904
 30
0.0000000000648806
 40
2.0
100
AcDbArc
 50
270.0
 51
0.0
  0
LINE
  5
4A46
330
19
100
AcDbEntity
  8
1
100
AcDbLine
 10
-581.6216835479149
 20
1108.172050886904
 30
0.000000000030952
 11
-581.6216835479076
 21
1089.172050886904
 31
0.0000000000309799
  0
ARC
  5
4A47
330
19
100
AcDbEntity
  8
1
100
AcDbCircle
 10
-583.6216835479149
 20
1108.172050886904
 30
0.0000000000648527
 40
2.0
100
AcDbArc
 50
0.0
 51
90.0
  0
LINE
  5
4A48
330
19
100
AcDbEntity
  8
1
100
AcDbLine
 10
-588.1216835479076
 20
1110.172050886904
 30
0.0000000000309467
 11
-583.6216835479149
 21
1110.172050886904
 31
0.0000000000309483
  0
LINE
  5
4A49
330
19
100
AcDbEntity
  8
1
100
AcDbLine
 10
-588.6216835479149
 20
1120.172050886904
 30
0.0000000000309318
 11
-588.6216835479076
 21
1110.672050886903
 31
0.0000000000309458
  0
LINE
  5
4A4A
330
19
100
AcDbEntity
  8
1
100
AcDbLine
 10
-584.6216835479076
 20
1089.172050886904
 30
0.0000000000309788
 11
-589.6216835479149
 21
1089.172050886897
 31
0.0000000000220706
  0
ARC
  5
4A4B
330
19
100
AcDbEntity
  8
1
100
AcDbCircle
 10
-584.6216835479076
 20
1090.172050886904
 30
0.0000000000648795
 40
1.0
100
AcDbArc
 50
270.0
 51
0.0
  0
LINE
  5
4A4C
330
19
100
AcDbEntity
  8
1
100
AcDbLine
 10
-583.6216835479076
 20
1107.172050886903
 30
0.0000000000309528
 11
-583.6216835479076
 21
1090.172050886904
 31
0.0000000000309777
  0
ARC
  5
4A4D
330
19
100
AcDbEntity
  8
1
100
AcDbCircle
 10
-584.6216835479076
 20
1107.172050886903
 30
0.0000000000648546
 40
1.0
100
AcDbArc
 50
0.0
 51
90.0
  0
LINE
  5
4A4E
330
19
100
AcDbEntity
  8
1
100
AcDbLine
 10
-589.6216835479292
 20
1108.172050886904
 30
0.0000000000309491
 11
-584.6216835479076
 21
1108.172050886904
 31
0.0000000000309509
  0
LINE
  5
4A4F
330
19
100
AcDbEntity
  8
1
100
AcDbLine
 10
-590.6216835479295
 20
1109.172050886904
 30
0.0000000000886168
 11
-590.6216835479295
 21
1120.172050886904
 31
0.0000000000907875
  0
HATCH
  5
4A50
330
19
100
AcDbEntity
  8
1
100
AcDbHatch
 10
0.0
 20
0.0
 30
0.0000000001602007
210
0.0
220
0.0
230
1.0
  2
ANSI32
 70
     0
 71
     0
 91
        1
 92
        7
 72
     1
 73
     1
 93
       10
 10
-595.6216835479002
 20
1108.172050886904
 42
0.4142135623730951
 10
-596.6216835479002
 20
1107.172050886903
 42
0.0
 10
-596.6216835479002
 20
1090.172050886904
 42
0.4142135623725624
 10
-595.6216835479076
 20
1089.172050886904
 42
0.0
 10
-589.6216835479149
 20
1089.172050886889
 42
0.0
 10
-584.6216835479076
 20
1089.172050886904
 42
0.4142135623720295
 10
-583.6216835479149
 20
1090.172050886904
 42
0.0
 10
-583.6216835479149
 20
1107.172050886903
 42
0.4142135623730951
 10
-584.6216835479149
 20
1108.172050886904
 42
0.0
 10
-589.6216835479292
 20
1108.172050886904
 42
0.0
 97
        0
 75
     0
 76
     1
 52
-0.0000000000001921
 41
0.4
 77
     0
 78
     2
 53
134.9999999999996
 43
-13593.8659084281
 44
-37625.87271051904
 45
2.694076836320764
 46
2.694076836320729
 79
     0
 53
134.9999999999996
 43
-13595.6619604281
 44
-37625.87271051904
 45
2.694076836320764
 46
2.694076836320729
 79
     0
 47
0.1536391804560862
 98
        1
 10
-591.0239205259945
 20
1102.755607889236
  0
LINE
  5
4A51
330
19
100
AcDbEntity
  8
1
100
AcDbLine
 10
-588.6216835479149
 20
1120.172050886911
 30
0.0000000000309318
 11
-596.6216835479293
 21
1120.172050886918
 31
0.0000000002652253
  0
LINE
  5
4A52
330
19
100
AcDbEntity
  8
1
100
AcDbLine
 10
-858.6216835479413
 20
1120.172050886911
 30
0.0
 11
-850.621683547861
 21
1120.172050886911
 31
0.0
  0
LINE
  5
4A53
330
19
100
AcDbEntity
  8
1
100
AcDbLine
 10
-856.6216835479266
 20
1109.172050886904
 30
0.000000000057685
 11
-856.6216835479266
 21
1120.172050886904
 31
0.0000000000598557
  0
LINE
  5
4A54
330
19
100
AcDbEntity
  8
1
100
AcDbLine
 10
-857.6216835479268
 20
1108.172050886904
 30
0.0000000000000173
 11
-862.6216835479484
 21
1108.172050886904
 31
0.0000000000000191
  0
ARC
  5
4A55
330
19
100
AcDbEntity
  8
1
100
AcDbCircle
 10
-862.6216835479484
 20
1107.172050886903
 30
0.0000000000000206
 40
1.0
100
AcDbArc
 50
90.0
 51
180.0
  0
LINE
  5
4A56
330
19
100
AcDbEntity
  8
1
100
AcDbLine
 10
-863.6216835479485
 20
1107.172050886903
 30
0.0000000000000209
 11
-863.6216835479485
 21
1090.172050886904
 31
0.0000000000000459
  0
ARC
  5
4A57
330
19
100
AcDbEntity
  8
1
100
AcDbCircle
 10
-862.6216835479484
 20
1090.172050886904
 30
0.0000000000000456
 40
1.0
100
AcDbArc
 50
180.0
 51
270.0
  0
LINE
  5
4A58
330
19
100
AcDbEntity
  8
1
100
AcDbLine
 10
-862.6216835479484
 20
1089.172050886904
 30
0.000000000000047
 11
-857.6216835479412
 21
1089.172050886897
 31
-0.0000000000088612
  0
LINE
  5
4A59
330
19
100
AcDbEntity
  8
1
100
AcDbLine
 10
-858.6216835479413
 20
1120.172050886904
 30
0.0
 11
-858.6216835479486
 21
1110.672050886903
 31
0.000000000000014
  0
LINE
  5
4A5A
330
19
100
AcDbEntity
  8
1
100
AcDbLine
 10
-859.1216835479484
 20
1110.172050886904
 30
0.0000000000000149
 11
-863.6216835479412
 21
1110.172050886904
 31
0.0000000000000165
  0
ARC
  5
4A5B
330
19
100
AcDbEntity
  8
1
100
AcDbCircle
 10
-863.6216835479412
 20
1108.172050886904
 30
0.0000000000000195
 40
2.0
100
AcDbArc
 50
90.0
 51
180.0
  0
LINE
  5
4A5C
330
19
100
AcDbEntity
  8
1
100
AcDbLine
 10
-865.6216835479412
 20
1108.172050886904
 30
0.0000000000000202
 11
-865.6216835479485
 21
1089.172050886904
 31
0.0000000000000481
  0
ARC
  5
4A5D
330
19
100
AcDbEntity
  8
1
100
AcDbCircle
 10
-863.6216835479485
 20
1089.172050886904
 30
0.0000000000000474
 40
2.0
100
AcDbArc
 50
180.0
 51
270.0
  0
LINE
  5
4A5E
330
19
100
AcDbEntity
  8
1
100
AcDbLine
 10
-863.6216835479485
 20
1087.172050886904
 30
0.0000000000000503
 11
-859.1216835479484
 21
1087.172050886904
 31
0.0000000000000487
  0
ARC
  5
4A5F
330
19
100
AcDbEntity
  8
1
100
AcDbCircle
 10
-857.6216835479412
 20
1088.172050886896
 30
0.0000000076838519
 40
1.0
210
-0.000000000008906
220
0.0000000000000012
230
1.0
100
AcDbArc
 50
0.0
 51
90.0
  0
ARC
  5
4A60
330
19
100
AcDbEntity
  8
1
100
AcDbCircle
 10
-859.1216835479484
 20
1110.672050886903
 30
0.0000000000000141
 40
0.5
100
AcDbArc
 50
270.0
 51
0.0
  0
ARC
  5
4A61
330
19
100
AcDbEntity
  8
1
100
AcDbCircle
 10
-859.1216835479484
 20
1086.672050886903
 30
0.0000000000000494
 40
0.5
100
AcDbArc
 50
0.0
 51
90.0
  0
ARC
  5
4A62
330
19
100
AcDbEntity
  8
1
100
AcDbCircle
 10
-851.6216835479559
 20
1107.172050886903
 30
-0.0000000002727419
 40
1.0
100
AcDbArc
 50
0.0
 51
90.0
  0
LINE
  5
4A63
330
19
100
AcDbEntity
  8
1
100
AcDbLine
 10
-850.6216835479559
 20
1107.172050886903
 30
-0.0000000003079869
 11
-850.6216835479559
 21
1090.172050886904
 31
-0.0000000003079619
  0
LINE
  5
4A64
330
19
100
AcDbEntity
  8
1
100
AcDbLine
 10
-857.6216835479268
 20
1108.172050886904
 30
0.0000000000000165
 11
-851.6216835479559
 21
1108.172050886904
 31
-0.0000000003079887
  0
ARC
  5
4A65
330
19
100
AcDbEntity
  8
1
100
AcDbCircle
 10
-851.6216835479559
 20
1090.172050886904
 30
-0.0000000002727169
 40
1.0
100
AcDbArc
 50
270.0
 51
0.0
  0
LINE
  5
4A66
330
19
100
AcDbEntity
  8
1
100
AcDbLine
 10
-851.6216835479559
 20
1089.172050886904
 30
-0.0000000003079608
 11
-857.6216835479412
 21
1089.172050886889
 31
-0.0000000000124245
  0
LINE
  5
4A67
330
19
100
AcDbEntity
  8
1
100
AcDbLine
 10
-856.6216835479194
 20
1120.172050886904
 30
0.0000000000585734
 11
-856.6216835479123
 21
1109.172050886904
 31
0.000000000058589
  0
HATCH
  5
4A68
330
19
100
AcDbEntity
  8
1
100
AcDbHatch
 10
0.0
 20
0.0
 30
0.0000000001292689
210
0.0
220
0.0
230
1.0
  2
ANSI32
 70
     0
 71
     0
 91
        1
 92
        7
 72
     1
 73
     1
 93
       10
 10
-863.6216835479485
 20
1090.172050886904
 42
0.4142135623726685
 10
-862.62168354795
 20
1089.172050886904
 42
0.0
 10
-857.6216835479412
 20
1089.172050886897
 42
0.0
 10
-851.6216835479546
 20
1089.172050886904
 42
0.4142135623727404
 10
-850.6216835479559
 20
1090.172050886904
 42
0.0
 10
-850.6216835479559
 20
1107.172050886903
 42
0.4142135623730951
 10
-851.6216835479559
 20
1108.172050886904
 42
0.0
 10
-857.6216835479268
 20
1108.172050886904
 42
0.0
 10
-862.6216835479484
 20
1108.172050886904
 42
0.4142135623730951
 10
-863.6216835479485
 20
1107.172050886903
 42
0.0
 97
        0
 75
     0
 76
     1
 52
-0.0000000000001921
 41
0.4
 77
     0
 78
     2
 53
45.0
 43
12146.62254133199
 44
-37625.87271051912
 45
-2.694076836320745
 46
2.694076836320745
 79
     0
 53
45.0
 43
12148.41859333199
 44
-37625.87271051912
 45
-2.694076836320745
 46
2.694076836320745
 79
     0
 47
0.1536391804560862
 98
        1
 10
-856.2194465698617
 20
1102.755607889236
  0
LINE
  5
4A69
330
19
100
AcDbEntity
  8
1
100
AcDbLine
 10
-596.6216835478768
 20
1064.315430231001
 30
-0.0000000008796988
 11
-848.6216835479062
 21
1064.315430231001
 31
-0.0000000008796988
  0
LINE
  5
4A75
330
19
100
AcDbEntity
  8
1
100
AcDbLine
 10
-598.6216835478699
 20
1178.96320755781
 30
-0.0000000005131511
 11
-598.62168354787
 21
1177.203128060945
 31
-0.0000000005196254
  0
LINE
  5
4A76
330
19
100
AcDbEntity
  8
1
100
AcDbLine
 10
-596.6216835478697
 20
1178.96320755781
 30
-0.0000000005131511
 11
-596.6216835478697
 21
1175.204386378544
 31
-0.0000000005269777
  0
LINE
  5
4A7A
330
19
100
AcDbEntity
  8
1
100
AcDbLine
 10
-848.6216835478989
 20
1178.96320755781
 30
-0.0000000005131511
 11
-848.6216835478989
 21
1177.203128060942
 31
-0.0000000005196254
  0
LINE
  5
4A7B
330
19
100
AcDbEntity
  8
1
100
AcDbLine
 10
-850.6216835478991
 20
1178.96320755781
 30
-0.0000000005131511
 11
-850.6216835478992
 21
1175.204386378544
 31
-0.0000000005269777
  0
LINE
  5
4AFF
330
19
100
AcDbEntity
  8
1
100
AcDbLine
 10
-800.1216835479207
 20
1064.315430231001
 30
-0.0000000008796988
 11
-850.6216835479062
 21
1064.315430231001
 31
-0.0000000008796988
  0
LINE
  5
4C08
330
19
100
AcDbEntity
  8
1
100
AcDbLine
 10
-850.6216835478989
 20
1184.203128060943
 30
-0.0000000005131511
 11
-890.6216835478989
 21
1184.203128060943
 31
-0.0000000005131511
  0
LINE
  5
4C09
330
19
100
AcDbEntity
  8
1
100
AcDbLine
 10
-890.6216835478989
 20
1181.203128060944
 30
-0.0000000005131511
 11
-850.6216835478989
 21
1181.203128060944
 31
-0.0000000005131511
  0
LINE
  5
4C0A
330
19
100
AcDbEntity
  8
1
100
AcDbLine
 10
-890.6216835478989
 20
1184.203128060943
 30
-0.0000000005131511
 11
-890.6216835478989
 21
1181.203128060944
 31
-0.0000000005131511
  0
LINE
  5
4C0B
330
19
100
AcDbEntity
  8
1
100
AcDbLine
 10
-848.6216835478989
 20
1187.203128060944
 30
-0.0000000005131511
 11
-848.6216835478989
 21
1177.203128060944
 31
-0.0000000005131511
  0
LINE
  5
4C0C
330
19
100
AcDbEntity
  8
1
100
AcDbLine
 10
-850.6216835478989
 20
1187.203128060944
 30
-0.0000000005131511
 11
-850.6216835478989
 21
1177.203128060944
 31
-0.0000000005131511
  0
LINE
  5
4C11
330
19
100
AcDbEntity
  8
1
100
AcDbLine
 10
-850.6216835478989
 20
1177.203128060944
 30
-0.0000000005131511
 11
-850.6216835478989
 21
1175.204386378544
 31
-0.0000000005131511
  0
LINE
  5
4C12
330
19
100
AcDbEntity
  8
1
100
AcDbLine
 10
-848.6926179333824
 20
1175.204386378544
 30
-0.0000000005131511
 11
-850.6216835478991
 21
1175.204386378544
 31
-0.0000000005131511
  0
LINE
  5
4C13
330
19
100
AcDbEntity
  8
1
100
AcDbLine
 10
-848.6926179333824
 20
1168.680136617215
 30
-0.0000000005131511
 11
-850.6216835478989
 21
1168.680136617215
 31
-0.0000000005131511
  0
ARC
  5
4C14
330
19
100
AcDbEntity
  8
1
100
AcDbCircle
 10
-848.8083891837732
 20
1171.942261497879
 30
-0.0000000005131511
 40
5.264178567337951
100
AcDbArc
 50
272.032546738044
 51
87.96745326195598
  0
ARC
  5
4C15
330
19
100
AcDbEntity
  8
1
100
AcDbCircle
 10
-848.8083891837732
 20
1171.942261497879
 30
-0.0000000005131511
 40
3.264178567337951
100
AcDbArc
 50
272.032546738044
 51
87.96745326195598
  0
LINE
  5
4CA4
330
19
100
AcDbEntity
  8
1
100
AcDbLine
 10
-848.6216835478989
 20
1187.203128060944
 30
-0.0000000005131511
 11
-850.6216835478989
 21
1187.203128060944
 31
-0.0000000005131511
  0
LINE
  5
4CB8
330
19
100
AcDbEntity
  8
1
100
AcDbLine
 10
-848.6216835478998
 20
1166.681394934816
 30
-0.0000000005583289
 11
-848.6216835479062
 21
1064.315430231001
 31
-0.0000000008796988
  0
LINE
  5
4CB9
330
19
100
AcDbEntity
  8
1
100
AcDbLine
 10
-850.6216835478996
 20
1168.680136617215
 30
-0.0000000005509767
 11
-850.6216835479062
 21
1064.315430231001
 31
-0.0000000008796988
  0
ARC
  5
4CBA
330
19
100
AcDbEntity
  8
1
100
AcDbCircle
 10
-598.4349779120681
 20
1171.942261497879
 30
-0.0000000005131511
 40
5.264178567337951
100
AcDbArc
 50
92.032546738044
 51
267.9674532619559
  0
ARC
  5
4CBB
330
19
100
AcDbEntity
  8
1
100
AcDbCircle
 10
-598.4349779120681
 20
1171.942261497879
 30
-0.0000000005131511
 40
3.264178567337951
100
AcDbArc
 50
92.032546738044
 51
267.9674532619559
  0
LINE
  5
4CBC
330
19
100
AcDbEntity
  8
1
100
AcDbLine
 10
-598.550749162459
 20
1168.680136617215
 30
-0.0000000005131511
 11
-596.6216835479425
 21
1168.680136617215
 31
-0.0000000005131511
  0
LINE
  5
4CBD
330
19
100
AcDbEntity
  8
1
100
AcDbLine
 10
-598.6216835479425
 20
1187.203128060944
 30
-0.0000000005131511
 11
-596.6216835479425
 21
1187.203128060944
 31
-0.0000000005131511
  0
LINE
  5
4CBE
330
19
100
AcDbEntity
  8
1
100
AcDbLine
 10
-598.550749162459
 20
1175.204386378544
 30
-0.0000000005131511
 11
-596.6216835479423
 21
1175.204386378544
 31
-0.0000000005131511
  0
LINE
  5
4CBF
330
19
100
AcDbEntity
  8
1
100
AcDbLine
 10
-596.6216835479425
 20
1187.203128060944
 30
-0.0000000005131511
 11
-596.6216835479425
 21
1177.203128060944
 31
-0.0000000005131511
  0
LINE
  5
4CC0
330
19
100
AcDbEntity
  8
1
100
AcDbLine
 10
-596.6216835479423
 20
1178.96320755781
 30
-0.0000000005131511
 11
-596.621683547942
 21
1175.204386378544
 31
-0.0000000005269777
  0
LINE
  5
4CC1
330
19
100
AcDbEntity
  8
1
100
AcDbLine
 10
-596.6216835479425
 20
1177.203128060944
 30
-0.0000000005131511
 11
-596.6216835479425
 21
1175.204386378544
 31
-0.0000000005131511
  0
LINE
  5
4CC2
330
19
100
AcDbEntity
  8
1
100
AcDbLine
 10
-598.6216835479425
 20
1187.203128060944
 30
-0.0000000005131511
 11
-598.6216835479425
 21
1177.203128060944
 31
-0.0000000005131511
  0
LINE
  5
4CC3
330
19
100
AcDbEntity
  8
1
100
AcDbLine
 10
-598.6216835479425
 20
1178.96320755781
 30
-0.0000000005131511
 11
-598.6216835479425
 21
1177.203128060942
 31
-0.0000000005196254
  0
LINE
  5
4CC4
330
19
100
AcDbEntity
  8
1
100
AcDbLine
 10
-598.6216835478707
 20
1166.681394934814
 30
-0.0000000005583289
 11
-598.6216835478773
 21
1064.315430231007
 31
-0.0000000008796988
  0
LINE
  5
4CC5
330
19
100
AcDbEntity
  8
1
100
AcDbLine
 10
-596.6216835478702
 20
1168.680136617215
 30
-0.0000000005509767
 11
-596.6216835478768
 21
1064.315430231001
 31
-0.0000000008796988
  0
LINE
  5
4CCF
330
19
100
AcDbEntity
  8
1
100
AcDbLine
 10
-598.6216835479425
 20
1187.203128060944
 30
-0.0000000005131511
 11
-848.6216835478989
 21
1187.203128060944
 31
-0.0000000005131511
  0
LINE
  5
4CD0
330
19
100
AcDbEntity
  8
1
100
AcDbLine
 10
-556.6216835479425
 20
1181.203128060944
 30
-0.0000000005131511
 11
-596.6216835479425
 21
1181.203128060944
 31
-0.0000000005131511
  0
LINE
  5
4CD1
330
19
100
AcDbEntity
  8
1
100
AcDbLine
 10
-596.6216835479425
 20
1184.203128060943
 30
-0.0000000005131511
 11
-556.6216835479425
 21
1184.203128060943
 31
-0.0000000005131511
  0
LINE
  5
4CD2
330
19
100
AcDbEntity
  8
1
100
AcDbLine
 10
-556.6216835479425
 20
1184.203128060943
 30
-0.0000000005131511
 11
-556.6216835479425
 21
1181.203128060944
 31
-0.0000000005131511
  0
LINE
  5
4CD3
330
19
100
AcDbEntity
  8
1
100
AcDbLine
 10
-598.6216835479425
 20
1177.203128060944
 30
-0.0000000005131511
 11
-848.6216835478989
 21
1177.203128060944
 31
-0.0000000005131511
  0
INSERT
  5
4D25
330
19
100
AcDbEntity
  8
1
100
AcDbBlockReference
  2
SLOTTED
 10
-4503.992079615395
 20
28.46399241394522
 30
0.0
  0
CIRCLE
  5
4D26
330
19
100
AcDbEntity
  8
1
  6
HIDDEN
100
AcDbCircle
 10
-303.8477624058621
 20
1034.276539309311
 30
0.0
 40
14.99999999999988
  0
CIRCLE
  5
4D27
330
19
100
AcDbEntity
  8
1
  6
HIDDEN
100
AcDbCircle
 10
-303.8477624058621
 20
1034.276539309311
 30
0.0
 40
54.99999999999989
  0
CIRCLE
  5
4D28
330
19
100
AcDbEntity
  8
1
100
AcDbCircle
 10
-303.8477624058621
 20
1034.276539309311
 30
0.0
 40
150.0
  0
CIRCLE
  5
4D29
330
19
100
AcDbEntity
  8
1
100
AcDbCircle
 10
-303.8477624058621
 20
1034.276539309311
 30
0.0
 40
108.0
  0
CIRCLE
  5
4D2A
330
19
100
AcDbEntity
  8
1
100
AcDbCircle
 10
-303.8477624058621
 20
1034.276539309311
 30
0.0
 40
110.0
  0
CIRCLE
  5
4D2B
330
19
100
AcDbEntity
  8
1
  6
HIDDEN
100
AcDbCircle
 10
-303.8477624058621
 20
1034.276539309311
 30
0.0
 40
77.9999999999999
  0
LEADER
  5
4D2E
330
19
100
AcDbEntity
  8
1
100
AcDbLeader
  3
STANDARD
 73
     0
 74
     0
 75
     1
 40
11.2251461988304
 41
106.4137426900584
 76
     3
 10
-578.8966341563416
 20
1179.17821990753
 30
0.0
 10
-559.3240416917694
 20
1148.726647729441
 30
0.0
 10
-547.8240416917694
 20
1148.726647729441
 30
0.0
340
4D2F
213
0.0
223
-5.174999999999998
233
0.0
1001
ACAD
1000
DSTYLE
1002
{
1070
     4
1000
mm
1070
    40
1040
50.0
1070
    41
1040
0.23
1070
    42
1040
0.12
1070
   140
1040
0.23
1070
   141
1040
0.0
1070
   171
1070
     0
1070
   271
1070
     0
1070
   272
1070
     0
1070
   274
1070
     0
1002
}
  0
MTEXT
  5
4D2F
102
{ACAD_REACTORS
330
4D2E
102
}
330
19
100
AcDbEntity
  8
1
100
AcDbMText
 10
-543.3240416917694
 20
1153.901647729441
 30
0.0
 40
11.0
 41
0.0
 71
     1
 72
     1
  1
VINYL FLANGE
 73
     1
 44
1.0
  0
LINE
  5
4D83
330
19
100
AcDbEntity
  8
1
100
AcDbLine
 10
-528.4076085479337
 20
1048.002174806226
 30
-0.0000000001997251
 11
-590.6216835479026
 21
1048.002174806226
 31
-0.0000000001997251
  0
LINE
  5
4D84
330
19
100
AcDbEntity
  8
1
100
AcDbLine
 10
-528.4076085479337
 20
1049.618124806227
 30
-0.0000000001997251
 11
-588.6216835479185
 21
1049.618124806226
 31
-0.0000000001997251
  0
LINE
  5
4D85
330
19
100
AcDbEntity
  8
1
100
AcDbLine
 10
-590.6216835479158
 20
952.0818973680682
 30
-0.0000000001997251
 11
-528.4076085479337
 21
952.0818973680682
 31
-0.0000000001997251
  0
LINE
  5
4D86
330
19
100
AcDbEntity
  8
1
100
AcDbLine
 10
-590.6216835479158
 20
953.6978473680683
 30
-0.0000000001997251
 11
-528.4076085479337
 21
953.6978473680683
 31
-0.0000000001997251
  0
LINE
  5
4D87
330
19
100
AcDbEntity
  8
1
100
AcDbLine
 10
-528.4076085479337
 20
952.0818973680682
 30
-0.0000000001997251
 11
-528.4076085479337
 21
1049.618124806227
 31
-0.0000000001997251
  0
DIMENSION
  5
4D88
330
19
100
AcDbEntity
  8
1
100
AcDbDimension
  2
*D18
 10
-488.1617063186445
 20
1049.618124806225
 30
0.0000000000701371
 11
-488.1617063186446
 21
1000.850011087146
 31
0.0000000000701371
 70
    32
  1
OUTLET
 71
     5
 42
97.53622743815766
  3
STANDARD
100
AcDbAlignedDimension
 13
-528.4076085479323
 23
952.0818973680682
 33
-0.0000000001997251
 14
-528.4076085479323
 24
1049.618124806226
 34
-0.0000000001997251
 50
90.0
100
AcDbRotatedDimension
1001
ACAD
1000
DSTYLE
1002
{
1070
     4
1000
mm
1070
    40
1040
45.0
1070
    41
1040
0.23
1070
    42
1040
0.12
1070
    77
1070
     1
1070
   140
1040
0.23
1070
   141
1040
0.0
1070
   171
1070
     0
1070
   271
1070
     0
1070
   272
1070
     0
1070
   274
1070
     0
1002
}
  0
LINE
  5
4D89
330
19
100
AcDbEntity
  8
1
100
AcDbLine
 10
-654.5611061538661
 20
1022.566128489368
 30
0.0000000002062002
 11
-654.5611061538661
 21
938.3941568087079
 31
0.0000000002062002
  0
LINE
  5
4D8A
330
19
100
AcDbEntity
  8
1
100
AcDbLine
 10
-656.177056153866
 20
1023.235476895485
 30
0.0000000002062002
 11
-656.177056153866
 21
938.3941568087079
 31
0.0000000002062002
  0
LINE
  5
4D8B
330
19
100
AcDbEntity
  8
1
100
AcDbLine
 10
-656.177056153866
 20
1023.235476895485
 30
0.0000000002062002
 11
-590.6216835479026
 21
1050.287473212343
 31
0.0000000002062002
  0
LINE
  5
4D8C
330
19
100
AcDbEntity
  8
1
100
AcDbLine
 10
-654.5611061538661
 20
1022.566128489368
 30
0.0000000002062002
 11
-590.6216835479026
 21
1048.002174806226
 31
0.0000000002062002
  0
LEADER
  5
4D8D
330
19
100
AcDbEntity
  8
1
100
AcDbLeader
  3
STANDARD
 73
     0
 75
     1
 40
9.276315789473684
 41
92.02631578947368
 76
     3
 10
-654.9187725849369
 20
962.5543698932339
 30
0.0000000002182708
 10
-691.7921188562514
 20
1000.051224202906
 30
0.0000000001918442
 10
-702.1421188562515
 20
1000.051224202906
 30
0.0000000001918442
340
4D8E
213
0.0
223
5.174999999999998
233
0.0
1001
ACAD
1000
DSTYLE
1002
{
1070
   147
1040
0.09
1070
     4
1000
mm
1070
    40
1040
45.0
1070
    41
1040
0.23
1070
    42
1040
0.12
1070
    77
1070
     0
1070
   140
1040
0.23
1070
   141
1040
0.0
1070
   171
1070
     0
1070
   271
1070
     0
1070
   272
1070
     0
1070
   274
1070
     0
1002
}
  0
MTEXT
  5
4D8E
102
{ACAD_REACTORS
330
4D8D
102
}
330
19
100
AcDbEntity
  8
1
100
AcDbMText
 10
-706.1921188562514
 20
994.876224202906
 30
0.0000000001918442
 40
9.0
 41
0.0
 71
     9
 72
     1
  1
FOUL AIR TRAP
 73
     1
 44
1.0
  0
LINE
  5
4DB0
330
19
100
AcDbEntity
  8
1
100
AcDbLine
 10
-588.6216835479305
 20
952.0818973680682
 30
-0.0000000002634094
 11
-588.6216835479354
 21
924.1826248062334
 31
-0.0000000003339983
  0
LINE
  5
4DB1
330
19
100
AcDbEntity
  8
1
100
AcDbLine
 10
-590.6216835479155
 20
953.6978473680683
 30
-0.0000000001975597
 11
-590.6216835479207
 21
924.1826248062183
 31
-0.0000000002487137
  0
VIEWPORT
  5
3E4E
330
3E47
100
AcDbEntity
 67
     1
  8
0
100
AcDbViewport
 10
5.678333072211798
 20
3.966666563289372
 30
0.0
 40
18.02443831169918
 41
8.746133096049151
 68
     1
 69
     1
 12
5.678333072211798
 22
3.966666563289372
 13
0.0
 23
0.0
 14
10.0
 24
10.0
 15
10.0
 25
10.0
 16
0.0
 26
0.0
 36
1.0
 17
0.0
 27
0.0
 37
0.0
 42
50.0
 43
0.0
 44
0.0
 45
8.746133096049151
 50
0.0
 51
0.0
 72
 20000
 90
    32800
  1

281
     0
 71
     1
 74
     0
110
0.0
120
0.0
130
0.0
111
1.0
121
0.0
131
0.0
112
0.0
122
1.0
132
0.0
 79
     0
146
0.0
  0
ENDSEC
  0
SECTION
  2
OBJECTS
  0
DICTIONARY
  5
C
330
0
100
AcDbDictionary
281
     1
  3
ACAD_GROUP
350
D
  3
ACAD_LAYOUT
350
37B7
  3
ACAD_MLINESTYLE
350
E
  3
ACAD_PLOTSETTINGS
350
37B8
  3
ACAD_PLOTSTYLENAME
350
37B5
  3
ACDBVARIABLEDICTIONARY
350
C69
  0
DICTIONARY
  5
391B
330
19
100
AcDbDictionary
280
     1
281
     1
  3
ACAD_LAYOUTSELFREF
360
3E35
  0
DICTIONARY
  5
D
102
{ACAD_REACTORS
330
C
102
}
330
C
100
AcDbDictionary
281
     1
  0
DICTIONARY
  5
37B7
102
{ACAD_REACTORS
330
C
102
}
330
C
100
AcDbDictionary
281
     1
  3
Layout1
350
3E48
  3
Model
350
37B9
  0
DICTIONARY
  5
E
102
{ACAD_REACTORS
330
C
102
}
330
C
100
AcDbDictionary
281
     1
  3
STANDARD
350
12
  0
DICTIONARY
  5
37B8
102
{ACAD_REACTORS
330
C
102
}
330
C
100
AcDbDictionary
281
     1
  0
ACDBDICTIONARYWDFLT
  5
37B5
102
{ACAD_REACTORS
330
C
102
}
330
C
100
AcDbDictionary
281
     1
  3
Normal
350
37B6
100
AcDbDictionaryWithDefault
340
37B6
  0
DICTIONARY
  5
C69
102
{ACAD_REACTORS
330
C
102
}
330
C
100
AcDbDictionary
281
     1
  3
DIMASSOC
350
3E51
  3
SORTENTS
350
C6A
  0
XRECORD
  5
3E35
102
{ACAD_REACTORS
330
391B
102
}
330
391B
100
AcDbXrecord
280
     1
340
19
  0
LAYOUT
  5
3E48
102
{ACAD_REACTORS
330
37B7
102
}
330
37B7
100
AcDbPlotSettings
  1

  2
HP LaserJet 1200
  4
A4
  6

 40
4.233333110809326
 41
4.233341693878172
 42
7.789321899414062
 43
4.23333740234375
 44
209.9733276367186
 45
296.9259948730469
 46
0.0
 47
0.0
 48
0.0
 49
0.0
140
0.0
141
0.0
142
1.0
143
1.0
 70
   688
 72
     0
 73
     1
 74
     5
  7

 75
    16
147
1.0
148
0.0
149
0.0
100
AcDbLayout
  1
Layout1
 70
     1
 71
     1
 10
-0.1666668268639272
 20
-0.166666657905879
 11
11.52333297128752
 21
8.099999784484621
 12
0.0
 22
0.0
 32
0.0
 14
1.135666597546552
 24
0.7793333567972259
 34
0.0
 15
10.22099937791898
 25
7.014000211175031
 35
0.0
146
0.0
 13
0.0
 23
0.0
 33
0.0
 16
1.0
 26
0.0
 36
0.0
 17
0.0
 27
1.0
 37
0.0
 76
     0
330
3E47
331
3E4E
  0
LAYOUT
  5
37B9
102
{ACAD_REACTORS
330
37B7
102
}
330
37B7
100
AcDbPlotSettings
  1

  2
none_device
  4
Letter_(8.50_x_11.00_Inches)
  6

 40
6.349999904632567
 41
6.349999904632567
 42
6.350006103515625
 43
6.350006103515625
 44
215.8999938964841
 45
279.3999938964843
 46
0.0
 47
0.0
 48
0.0
 49
0.0
140
0.0
141
0.0
142
1.0
143
1.0
 70
 11952
 72
     0
 73
     1
 74
     0
  7

 75
     0
147
1.0
148
22009.97398741658
149
-18121.5236927284
100
AcDbLayout
  1
Model
 70
     1
 71
     0
 10
0.0
 20
0.0
 11
12.0
 21
9.0
 12
0.0
 22
0.0
 32
0.0
 14
0.0
 24
0.0
 34
0.0
 15
0.0
 25
0.0
 35
0.0
146
0.0
 13
0.0
 23
0.0
 33
0.0
 16
1.0
 26
0.0
 36
0.0
 17
0.0
 27
1.0
 37
0.0
 76
     0
330
19
  0
MLINESTYLE
  5
12
102
{ACAD_REACTORS
330
E
102
}
330
E
100
AcDbMlineStyle
  2
STANDARD
 70
     0
  3

 62
     0
 51
90.0
 52
90.0
 71
     2
 49
0.5
 62
   256
  6
BYLAYER
 49
-0.5
 62
   256
  6
BYLAYER
  0
ACDBPLACEHOLDER
  5
37B6
102
{ACAD_REACTORS
330
37B5
102
}
330
37B5
  0
DICTIONARYVAR
  5
3E51
102
{ACAD_REACTORS
330
C69
102
}
330
C69
100
DictionaryVariables
280
     0
  1
1
  0
DICTIONARYVAR
  5
C6A
102
{ACAD_REACTORS
330
C69
102
}
330
C69
100
DictionaryVariables
280
     0
  1
96
  0
ENDSEC
  0
EOF
