  0
SECTION
  2
HEADER
  9
$ACADVER
  1
AC1015
  9
$ACADMAINTVER
 70
    13
  9
$DWGCODEPAGE
  3
ANSI_1252
  9
$INSBASE
 10
0.0
 20
0.0
 30
0.0
  9
$EXTMIN
 10
-868.3705705603431
 20
528.9506056433835
 30
-0.0015258207003583
  9
$EXTMAX
 10
-361.9600329192601
 20
767.6377331798296
 30
0.0000000349246037
  9
$LIMMIN
 10
-702.5638614136987
 20
157.8715568061255
  9
$LIMMAX
 10
-313.6316672333483
 20
442.5869997172253
  9
$ORTHOMODE
 70
     1
  9
$REGENMODE
 70
     1
  9
$FILLMODE
 70
     1
  9
$QTEXTMODE
 70
     0
  9
$MIRRTEXT
 70
     1
  9
$LTSCALE
 40
25.0
  9
$ATTMODE
 70
     1
  9
$TEXTSIZE
 40
4.009999999999998
  9
$TRACEWID
 40
0.05
  9
$TEXTSTYLE
  7
ROMANC
  9
$CLAYER
  8
1
  9
$CELTYPE
  6
BYLAYER
  9
$CECOLOR
 62
   256
  9
$CELTSCALE
 40
1.0
  9
$DISPSILH
 70
     0
  9
$DIMSCALE
 40
30.0
  9
$DIMASZ
 40
0.23
  9
$DIMEXO
 40
0.12
  9
$DIMDLI
 40
0.38
  9
$DIMRND
 40
0.0
  9
$DIMDLE
 40
0.0
  9
$DIMEXE
 40
0.18
  9
$DIMTP
 40
0.0
  9
$DIMTM
 40
0.0
  9
$DIMTXT
 40
0.23
  9
$DIMCEN
 40
0.0
  9
$DIMTSZ
 40
0.0
  9
$DIMTOL
 70
     0
  9
$DIMLIM
 70
     0
  9
$DIMTIH
 70
     1
  9
$DIMTOH
 70
     1
  9
$DIMSE1
 70
     0
  9
$DIMSE2
 70
     0
  9
$DIMTAD
 70
     1
  9
$DIMZIN
 70
     0
  9
$DIMBLK
  1

  9
$DIMASO
 70
     1
  9
$DIMSHO
 70
     0
  9
$DIMPOST
  1

  9
$DIMAPOST
  1
mm
  9
$DIMALT
 70
     0
  9
$DIMALTD
 70
     0
  9
$DIMALTF
 40
25.4
  9
$DIMLFAC
 40
1.0
  9
$DIMTOFL
 70
     0
  9
$DIMTVP
 40
0.0
  9
$DIMTIX
 70
     0
  9
$DIMSOXD
 70
     0
  9
$DIMSAH
 70
     0
  9
$DIMBLK1
  1

  9
$DIMBLK2
  1

  9
$DIMSTYLE
  2
STANDARD
  9
$DIMCLRD
 70
     0
  9
$DIMCLRE
 70
     0
  9
$DIMCLRT
 70
     0
  9
$DIMTFAC
 40
1.0
  9
$DIMGAP
 40
0.09
  9
$DIMJUST
 70
     0
  9
$DIMSD1
 70
     0
  9
$DIMSD2
 70
     0
  9
$DIMTOLJ
 70
     1
  9
$DIMTZIN
 70
     0
  9
$DIMALTZ
 70
     0
  9
$DIMALTTZ
 70
     0
  9
$DIMUPT
 70
     0
  9
$DIMDEC
 70
     0
  9
$DIMTDEC
 70
     0
  9
$DIMALTU
 70
     2
  9
$DIMALTTD
 70
     0
  9
$DIMTXSTY
  7
STANDARD
  9
$DIMAUNIT
 70
     0
  9
$DIMADEC
 70
     0
  9
$DIMALTRND
 40
0.0
  9
$DIMAZIN
 70
     0
  9
$DIMDSEP
 70
    46
  9
$DIMATFIT
 70
     3
  9
$DIMFRAC
 70
     0
  9
$DIMLDRBLK
  1

  9
$DIMLUNIT
 70
     2
  9
$DIMLWD
 70
    -2
  9
$DIMLWE
 70
    -2
  9
$DIMTMOVE
 70
     0
  9
$LUNITS
 70
     2
  9
$LUPREC
 70
     2
  9
$SKETCHINC
 40
0.0
  9
$FILLETRAD
 40
1.0
  9
$AUNITS
 70
     0
  9
$AUPREC
 70
     2
  9
$MENU
  1
acad
  9
$ELEVATION
 40
0.0
  9
$PELEVATION
 40
0.0
  9
$THICKNESS
 40
0.0
  9
$LIMCHECK
 70
     0
  9
$CHAMFERA
 40
0.0
  9
$CHAMFERB
 40
0.0
  9
$CHAMFERC
 40
0.0
  9
$CHAMFERD
 40
0.0
  9
$SKPOLY
 70
     0
  9
$TDCREATE
 40
2450224.417987847
  9
$TDUCREATE
 40
2450224.376321180
  9
$TDUPDATE
 40
2452410.485068287
  9
$TDUUPDATE
 40
2452410.443401620
  9
$TDINDWG
 40
0.6820782407
  9
$TDUSRTIMER
 40
0.6820776620
  9
$USRTIMER
 70
     1
  9
$ANGBASE
 50
0.0
  9
$ANGDIR
 70
     0
  9
$PDMODE
 70
    34
  9
$PDSIZE
 40
0.0
  9
$PLINEWID
 40
0.0
  9
$SPLFRAME
 70
     0
  9
$SPLINETYPE
 70
     6
  9
$SPLINESEGS
 70
     8
  9
$HANDSEED
  5
4BC5
  9
$SURFTAB1
 70
     6
  9
$SURFTAB2
 70
     6
  9
$SURFTYPE
 70
     6
  9
$SURFU
 70
     6
  9
$SURFV
 70
     6
  9
$UCSBASE
  2

  9
$UCSNAME
  2

  9
$UCSORG
 10
-881.3725378634428
 20
-169.8351068294423
 30
0.0
  9
$UCSXDIR
 10
1.0
 20
0.0
 30
0.0
  9
$UCSYDIR
 10
0.0
 20
1.0
 30
0.0
  9
$UCSORTHOREF
  2

  9
$UCSORTHOVIEW
 70
     0
  9
$UCSORGTOP
 10
0.0
 20
0.0
 30
0.0
  9
$UCSORGBOTTOM
 10
0.0
 20
0.0
 30
0.0
  9
$UCSORGLEFT
 10
0.0
 20
0.0
 30
0.0
  9
$UCSORGRIGHT
 10
0.0
 20
0.0
 30
0.0
  9
$UCSORGFRONT
 10
0.0
 20
0.0
 30
0.0
  9
$UCSORGBACK
 10
0.0
 20
0.0
 30
0.0
  9
$PUCSBASE
  2

  9
$PUCSNAME
  2

  9
$PUCSORG
 10
0.0
 20
0.0
 30
0.0
  9
$PUCSXDIR
 10
1.0
 20
0.0
 30
0.0
  9
$PUCSYDIR
 10
0.0
 20
1.0
 30
0.0
  9
$PUCSORTHOREF
  2

  9
$PUCSORTHOVIEW
 70
     0
  9
$PUCSORGTOP
 10
0.0
 20
0.0
 30
0.0
  9
$PUCSORGBOTTOM
 10
0.0
 20
0.0
 30
0.0
  9
$PUCSORGLEFT
 10
0.0
 20
0.0
 30
0.0
  9
$PUCSORGRIGHT
 10
0.0
 20
0.0
 30
0.0
  9
$PUCSORGFRONT
 10
0.0
 20
0.0
 30
0.0
  9
$PUCSORGBACK
 10
0.0
 20
0.0
 30
0.0
  9
$USERI1
 70
     0
  9
$USERI2
 70
     0
  9
$USERI3
 70
     0
  9
$USERI4
 70
     0
  9
$USERI5
 70
     0
  9
$USERR1
 40
0.0
  9
$USERR2
 40
0.0
  9
$USERR3
 40
0.0
  9
$USERR4
 40
0.0
  9
$USERR5
 40
0.0
  9
$WORLDVIEW
 70
     1
  9
$SHADEDGE
 70
     3
  9
$SHADEDIF
 70
    70
  9
$TILEMODE
 70
     1
  9
$MAXACTVP
 70
    16
  9
$PINSBASE
 10
0.0
 20
0.0
 30
0.0
  9
$PLIMCHECK
 70
     0
  9
$PEXTMIN
 10
1.135666597546552
 20
0.7793333567972259
 30
0.0
  9
$PEXTMAX
 10
10.22099937791898
 20
7.014000211175031
 30
0.0
  9
$PLIMMIN
 10
-0.1666668268639272
 20
-0.166666657905879
  9
$PLIMMAX
 10
11.52333297128752
 20
8.099999784484621
  9
$UNITMODE
 70
     0
  9
$VISRETAIN
 70
     0
  9
$PLINEGEN
 70
     0
  9
$PSLTSCALE
 70
     1
  9
$TREEDEPTH
 70
  3020
  9
$CMLSTYLE
  2
STANDARD
  9
$CMLJUST
 70
     0
  9
$CMLSCALE
 40
1.0
  9
$PROXYGRAPHICS
 70
     1
  9
$MEASUREMENT
 70
     0
  9
$CELWEIGHT
370
    -1
  9
$ENDCAPS
280
     0
  9
$JOINSTYLE
280
     0
  9
$LWDISPLAY
290
     0
  9
$INSUNITS
 70
     0
  9
$HYPERLINKBASE
  1

  9
$STYLESHEET
  1

  9
$XEDIT
290
     1
  9
$CEPSNTYPE
380
     0
  9
$PSTYLEMODE
290
     1
  9
$FINGERPRINTGUID
  2
{6C551284-AFF8-11D5-9ED5-00025574647A}
  9
$VERSIONGUID
  2
{98FB5E89-67F4-11D6-8FCF-0050DA4C4468}
  9
$EXTNAMES
290
     1
  9
$PSVPSCALE
 40
0.0
  9
$OLESTARTUP
290
     0
  0
ENDSEC
  0
SECTION
  2
CLASSES
  0
CLASS
  1
LWPOLYLINE
  2
AcDbPolyline
  3
AutoCAD 2000
 90
    32768
280
     0
281
     1
  0
CLASS
  1
DICTIONARYVAR
  2
AcDbDictionaryVar
  3
AutoCAD 2000
 90
        0
280
     0
281
     0
  0
CLASS
  1
HATCH
  2
AcDbHatch
  3
AutoCAD 2000
 90
    32768
280
     0
281
     1
  0
CLASS
  1
ACDBDICTIONARYWDFLT
  2
AcDbDictionaryWithDefault
  3
AutoCAD 2000
 90
        0
280
     0
281
     0
  0
CLASS
  1
ACDBPLACEHOLDER
  2
AcDbPlaceHolder
  3
AutoCAD 2000
 90
        0
280
     0
281
     0
  0
CLASS
  1
LAYOUT
  2
AcDbLayout
  3
AutoCAD 2000
 90
        0
280
     0
281
     0
  0
CLASS
  1
LONG_TRANSACTION
  2
AcDbLongTransaction
  3
AutoCAD 2000
 90
    32768
280
     0
281
     0
  0
CLASS
  1
LWPOLYLINE
  2
AcDbPolyline
  3
AutoCAD 2000
 90
    32768
280
     0
281
     1
  0
CLASS
  1
HATCH
  2
AcDbHatch
  3
AutoCAD 2000
 90
    32768
280
     0
281
     1
  0
CLASS
  1
XRECORD
  2
AcDbXrecord
  3
AutoCAD 2000
 90
    32768
280
     0
281
     0
  0
CLASS
  1
LONG_TRANSACTION
  2
AcDbLongTransaction
  3
AutoCAD 2000
 90
    32768
280
     0
281
     0
  0
CLASS
  1
LWPOLYLINE
  2
AcDbPolyline
  3
AutoCAD 2000
 90
    32768
280
     0
281
     1
  0
CLASS
  1
HATCH
  2
AcDbHatch
  3
AutoCAD 2000
 90
    32768
280
     0
281
     1
  0
CLASS
  1
XRECORD
  2
AcDbXrecord
  3
AutoCAD 2000
 90
    32768
280
     0
281
     0
  0
CLASS
  1
LONG_TRANSACTION
  2
AcDbLongTransaction
  3
AutoCAD 2000
 90
    32768
280
     0
281
     0
  0
CLASS
  1
LWPOLYLINE
  2
AcDbPolyline
  3
AutoCAD 2000
 90
    32768
280
     0
281
     1
  0
CLASS
  1
HATCH
  2
AcDbHatch
  3
AutoCAD 2000
 90
    32768
280
     0
281
     1
  0
CLASS
  1
XRECORD
  2
AcDbXrecord
  3
AutoCAD 2000
 90
    32768
280
     0
281
     0
  0
CLASS
  1
LONG_TRANSACTION
  2
AcDbLongTransaction
  3
AutoCAD 2000
 90
    32768
280
     0
281
     0
  0
CLASS
  1
LWPOLYLINE
  2
AcDbPolyline
  3
AutoCAD 2000
 90
    32768
280
     0
281
     1
  0
CLASS
  1
HATCH
  2
AcDbHatch
  3
AutoCAD 2000
 90
    32768
280
     0
281
     1
  0
CLASS
  1
XRECORD
  2
AcDbXrecord
  3
AutoCAD 2000
 90
    32768
280
     0
281
     0
  0
CLASS
  1
LONG_TRANSACTION
  2
AcDbLongTransaction
  3
AutoCAD 2000
 90
    32768
280
     0
281
     0
  0
CLASS
  1
LWPOLYLINE
  2
AcDbPolyline
  3
AutoCAD 2000
 90
    32768
280
     0
281
     1
  0
CLASS
  1
HATCH
  2
AcDbHatch
  3
AutoCAD 2000
 90
    32768
280
     0
281
     1
  0
CLASS
  1
XRECORD
  2
AcDbXrecord
  3
AutoCAD 2000
 90
    32768
280
     0
281
     0
  0
CLASS
  1
LONG_TRANSACTION
  2
AcDbLongTransaction
  3
AutoCAD 2000
 90
    32768
280
     0
281
     0
  0
CLASS
  1
LWPOLYLINE
  2
AcDbPolyline
  3
AutoCAD 2000
 90
    32768
280
     0
281
     1
  0
CLASS
  1
HATCH
  2
AcDbHatch
  3
AutoCAD 2000
 90
    32768
280
     0
281
     1
  0
CLASS
  1
XRECORD
  2
AcDbXrecord
  3
AutoCAD 2000
 90
    32768
280
     0
281
     0
  0
CLASS
  1
LONG_TRANSACTION
  2
AcDbLongTransaction
  3
AutoCAD 2000
 90
    32768
280
     0
281
     0
  0
CLASS
  1
LWPOLYLINE
  2
AcDbPolyline
  3
AutoCAD 2000
 90
    32768
280
     0
281
     1
  0
CLASS
  1
HATCH
  2
AcDbHatch
  3
AutoCAD 2000
 90
    32768
280
     0
281
     1
  0
CLASS
  1
XRECORD
  2
AcDbXrecord
  3
AutoCAD 2000
 90
    32768
280
     0
281
     0
  0
ENDSEC
  0
SECTION
  2
TABLES
  0
TABLE
  2
VPORT
  5
8
330
0
100
AcDbSymbolTable
 70
     2
  0
VPORT
  5
4BC4
330
8
100
AcDbSymbolTableRecord
100
AcDbViewportTableRecord
  2
*Active
 70
     0
 10
0.0
 20
0.0
 11
1.0
 21
1.0
 12
-615.1653017398016
 22
648.2941694116066
 13
0.0
 23
0.0
 14
20.0
 24
20.0
 15
10.0
 25
10.0
 16
0.0
 26
0.0
 36
1.0
 17
0.0
 27
0.0
 37
0.0
 40
247.6170337667792
 41
2.06084656084656
 42
50.0
 43
0.0
 44
0.0
 50
0.0
 51
0.0
 71
     0
 72
 20000
 73
     1
 74
     3
 75
     0
 76
     0
 77
     0
 78
     1
281
     0
 65
     1
110
-881.3725378634428
120
-169.8351068294423
130
0.0
111
1.0
121
0.0
131
0.0
112
0.0
122
1.0
132
0.0
 79
     0
146
0.0
  0
ENDTAB
  0
TABLE
  2
LTYPE
  5
5
330
0
100
AcDbSymbolTable
 70
     3
  0
LTYPE
  5
13
330
5
100
AcDbSymbolTableRecord
100
AcDbLinetypeTableRecord
  2
BYBLOCK
 70
     0
  3

 72
    65
 73
     0
 40
0.0
  0
LTYPE
  5
14
330
5
100
AcDbSymbolTableRecord
100
AcDbLinetypeTableRecord
  2
BYLAYER
 70
     0
  3

 72
    65
 73
     0
 40
0.0
  0
LTYPE
  5
15
330
5
100
AcDbSymbolTableRecord
100
AcDbLinetypeTableRecord
  2
CONTINUOUS
 70
     0
  3
Solid line
 72
    65
 73
     0
 40
0.0
  0
LTYPE
  5
2C
330
5
100
AcDbSymbolTableRecord
100
AcDbLinetypeTableRecord
  2
DASHED
 70
     0
  3
__ __ __ __ __ __ __ __ __ __ __ __ __ __ __
 72
    65
 73
     2
 40
0.75
 49
0.5
 74
     0
 49
-0.25
 74
     0
  0
LTYPE
  5
4204
330
5
100
AcDbSymbolTableRecord
100
AcDbLinetypeTableRecord
  2
HIDDEN
 70
     0
  3
_ _ _ _ _ _ _ _ _ _ _ _ _ _ _ _ _ _ _ _ _ _ _
 72
    65
 73
     2
 40
0.375
 49
0.25
 74
     0
 49
-0.125
 74
     0
  0
ENDTAB
  0
TABLE
  2
LAYER
  5
2
330
0
100
AcDbSymbolTable
 70
     4
  0
LAYER
  5
F
330
2
100
AcDbSymbolTableRecord
100
AcDbLayerTableRecord
  2
0
 70
     0
 62
    30
  6
CONTINUOUS
370
    -3
390
37B6
  0
LAYER
  5
30
330
2
100
AcDbSymbolTableRecord
100
AcDbLayerTableRecord
  2
1
 70
     0
 62
     7
  6
CONTINUOUS
370
    -3
390
37B6
  0
LAYER
  5
31
330
2
100
AcDbSymbolTableRecord
100
AcDbLayerTableRecord
  2
DEFPOINTS
 70
     0
 62
     6
  6
CONTINUOUS
290
     0
370
    -3
390
37B6
  0
LAYER
  5
F62
330
2
100
AcDbSymbolTableRecord
100
AcDbLayerTableRecord
  2
DIM
 70
     0
 62
     3
  6
CONTINUOUS
370
    -3
390
37B6
  0
ENDTAB
  0
TABLE
  2
STYLE
  5
3
330
0
100
AcDbSymbolTable
 70
     2
  0
STYLE
  5
10
330
3
100
AcDbSymbolTableRecord
100
AcDbTextStyleTableRecord
  2
STANDARD
 70
     0
 40
0.0
 41
1.0
 50
0.0
 71
     0
 42
19.71412580829619
  3
techl___.ttf
  4

1001
ACAD
1000
TechnicLite
1071
      514
  0
STYLE
  5
2B
330
3
100
AcDbSymbolTableRecord
100
AcDbTextStyleTableRecord
  2
ROMANC
 70
     0
 40
4.009999999999998
 41
1.0
 50
0.0
 71
     0
 42
4.009999999999998
  3
romanc
  4

  0
ENDTAB
  0
TABLE
  2
VIEW
  5
6
330
0
100
AcDbSymbolTable
 70
     1
  0
VIEW
  5
2B15
330
6
100
AcDbSymbolTableRecord
100
AcDbViewTableRecord
  2
P1
 70
     1
 40
195.7116207376954
 10
156.3078220645051
 20
105.1927068532014
 41
281.044737853693
 11
0.0
 21
0.0
 31
1.0
 12
0.0
 22
0.0
 32
0.0
 42
50.0
 43
0.0
 44
0.0
 50
0.0
 71
     0
281
     0
 72
     0
  0
ENDTAB
  0
TABLE
  2
UCS
  5
7
330
0
100
AcDbSymbolTable
 70
     0
  0
ENDTAB
  0
TABLE
  2
APPID
  5
9
330
0
100
AcDbSymbolTable
 70
     3
  0
APPID
  5
11
330
9
100
AcDbSymbolTableRecord
100
AcDbRegAppTableRecord
  2
ACAD
 70
     0
  0
APPID
  5
21B6
330
9
100
AcDbSymbolTableRecord
100
AcDbRegAppTableRecord
  2
CONTENTTABDATA
 70
     0
  0
APPID
  5
21B7
330
9
100
AcDbSymbolTableRecord
100
AcDbRegAppTableRecord
  2
CONTENTCURRENTTAB
 70
     0
  0
ENDTAB
  0
TABLE
  2
DIMSTYLE
  5
A
330
0
100
AcDbSymbolTable
 70
     1
100
AcDbDimStyleTable
 71
     1
340
AD6
  0
DIMSTYLE
105
AD6
102
{ACAD_REACTORS
330
3FF9
330
437F
330
4876
330
4B5D
102
}
330
A
100
AcDbSymbolTableRecord
100
AcDbDimStyleTableRecord
  2
STANDARD
 70
     0
340
10
  0
ENDTAB
  0
TABLE
  2
BLOCK_RECORD
  5
1
330
0
100
AcDbSymbolTable
 70
    18
  0
BLOCK_RECORD
  5
19
102
{ACAD_XDICTIONARY
360
391B
102
}
330
1
100
AcDbSymbolTableRecord
100
AcDbBlockTableRecord
  2
*MODEL_SPACE
340
37B9
  0
BLOCK_RECORD
  5
4A4F
330
1
100
AcDbSymbolTableRecord
100
AcDbBlockTableRecord
  2
*Paper_Space
340
4A50
  0
BLOCK_RECORD
  5
3E5F
330
1
100
AcDbSymbolTableRecord
100
AcDbBlockTableRecord
  2
*X0
340
0
102
{BLKREFS
331
3FB6
331
3FD6
102
}
  0
BLOCK_RECORD
  5
3F90
330
1
100
AcDbSymbolTableRecord
100
AcDbBlockTableRecord
  2
foul air trap
340
0
310
28000000200000002000000001000800000000000004000000000000000000000000000000000000000000004000000080000000FF000000002000004020000080200000FF200000004000004040000080400000FF400000006000004060000080600000FF600000008000004080000080800000FF80000000A0000040A000
310
0080A00000FFA0000000C0000040C0000080C00000FFC0000000FF000040FF000080FF0000FFFF0000000020004000200080002000FF002000002020004020200080202000FF202000004020004040200080402000FF402000006020004060200080602000FF602000008020004080200080802000FF80200000A0200040A0
310
200080A02000FFA0200000C0200040C0200080C02000FFC0200000FF200040FF200080FF2000FFFF2000000040004000400080004000FF004000002040004020400080204000FF204000004040004040400080404000FF404000006040004060400080604000FF604000008040004080400080804000FF80400000A0400040
310
A0400080A04000FFA0400000C0400040C0400080C04000FFC0400000FF400040FF400080FF4000FFFF4000000060004000600080006000FF006000002060004020600080206000FF206000004060004040600080406000FF406000006060004060600080606000FF606000008060004080600080806000FF80600000A06000
310
40A0600080A06000FFA0600000C0600040C0600080C06000FFC0600000FF600040FF600080FF6000FFFF6000000080004000800080008000FF008000002080004020800080208000FF208000004080004040800080408000FF408000006080004060800080608000FF608000008080004080800080808000FF80800000A080
310
0040A0800080A08000FFA0800000C0800040C0800080C08000FFC0800000FF800040FF800080FF8000FFFF80000000A0004000A0008000A000FF00A0000020A0004020A0008020A000FF20A0000040A0004040A0008040A000FF40A0000060A0004060A0008060A000FF60A0000080A0004080A0008080A000FF80A00000A0
310
A00040A0A00080A0A000FFA0A00000C0A00040C0A00080C0A000FFC0A00000FFA00040FFA00080FFA000FFFFA0000000C0004000C0008000C000FF00C0000020C0004020C0008020C000FF20C0000040C0004040C0008040C000FF40C0000060C0004060C0008060C000FF60C0000080C0004080C0008080C000FF80C00000
310
A0C00040A0C00080A0C000FFA0C00000C0C00040C0C00080C0C000FFC0C00000FFC00040FFC00080FFC000FFFFC0000000FF004000FF008000FF00FF00FF000020FF004020FF008020FF00FF20FF000040FF004040FF008040FF00FF40FF000060FF004060FF008060FF00FF60FF000080FF004080FF008080FF00FF80FF00
310
00A0FF0040A0FF0080A0FF00FFA0FF0000C0FF0040C0FF0080C0FF00FFC0FF0000FFFF0040FFFF0080FFFF00FFFFFF00FFFFFFFFFFFFFFFFFFFFFFFFFFFFFFFFFFFFFFFFFFFFFFFFFFFFFFFFFFFFFFFFFFFFFFFFFFFFFFFFFFFFFFFFFFFFFFFFFFFFFFFFFFFFFFFFFFFFFFFFFFFFFFFFFFFFFFFFFFFFFFFF0000FFFFFFFFFF
310
FFFFFFFFFFFF0000FFFFFFFFFFFFFFFFFFFFFFFFFFFFFFFF00FFFF0000FFFFFFFFFFFFFF0000FFFF00FFFFFFFFFFFFFFFFFFFFFFFFFFFF00FFFFFFFFFF00000000000000FFFFFFFFFF00FFFFFFFFFFFFFFFFFFFFFFFF00FFFFFFFFFFFFFFFFFFFFFFFFFFFFFFFFFFFF0000FFFFFFFFFFFFFFFFFFFF00FFFFFFFFFFFFFFFFFF
310
FFFFFFFFFFFFFFFFFFFFFF000000FFFFFFFFFFFFFFFF00FFFFFFFF00000000000000000000000000FFFFFFFF0000FFFFFFFFFFFFFFFF00FFFFFFFF0000FFFFFFFFFFFFFFFFFFFF00FFFFFFFF0000FFFFFFFFFFFFFFFF00FFFFFFFF0000FFFFFFFFFFFFFFFFFFFF00FFFFFFFF0000FFFFFFFFFFFFFFFF00FFFFFFFF0000FFFF
310
FFFFFFFFFFFFFFFF00FFFFFFFF0000FFFFFFFFFFFFFFFF00FFFFFFFF0000FFFFFFFFFFFFFFFFFFFF00FFFFFFFF0000FFFFFFFFFFFFFFFF00FFFFFFFF0000FFFFFFFFFFFFFFFFFFFF00FFFFFFFF0000FFFFFFFFFFFFFFFF00FFFFFFFF0000FFFFFFFFFFFFFFFFFFFF00FFFFFFFF0000FFFFFFFFFFFFFFFF00FFFFFFFF0000FF
310
FFFFFFFFFFFFFFFFFF00FFFFFFFF0000FFFFFFFFFFFFFFFF00FFFFFFFF0000FFFFFFFFFFFFFFFFFFFF00FFFFFFFF0000FFFFFFFFFFFFFFFF00FFFFFFFF0000FFFFFFFFFFFFFFFFFFFF00FFFFFFFF0000FFFFFFFFFFFFFFFF00FFFFFFFF0000FFFFFFFFFFFFFFFFFFFF00FFFFFFFF0000FFFFFFFFFFFFFF0000FFFFFFFF0000
310
FFFFFFFFFFFFFFFFFFFF00FFFFFFFF000000FFFFFFFFFF000000000000000000FFFFFFFFFFFFFFFFFFFF0000000000000000FFFFFFFFFFFFFFFFFFFFFFFF0000FFFFFFFFFFFFFFFFFFFF00FFFFFFFFFFFFFFFFFFFFFFFFFFFFFFFFFFFFFF0000FFFFFFFFFFFFFFFFFFFF00FFFFFFFFFFFFFFFFFFFFFFFFFFFFFFFFFFFFFF00
310
00FFFFFFFFFFFFFFFFFFFF00FFFFFFFFFFFFFFFFFFFFFFFFFFFFFFFFFFFFFF0000000000000000000000000000FFFFFFFFFFFFFFFFFFFFFFFFFFFFFFFF0000FFFFFFFFFFFFFFFFFFFFFFFFFF000000FFFFFFFFFFFFFFFFFFFFFFFF0000FFFFFFFFFFFFFFFFFFFFFFFFFFFFFFFFFFFF0000FFFFFFFFFFFFFFFFFFFF00FFFFFF
310
FFFFFFFFFFFFFFFFFFFFFFFFFFFFFFFFFFFF00FFFFFFFFFFFFFFFF00FFFFFFFFFFFFFFFFFFFFFFFFFFFFFFFFFFFFFFFFFFFF00FFFFFFFFFFFFFF0000000000000000000000000000000000000000000000000000FFFFFFFF000000000000000000000000000000000000000000000000000000000000FFFFFFFFFFFFFFFFFF
310
FFFFFFFFFFFFFFFFFFFFFFFFFFFFFFFFFFFFFFFFFFFFFFFFFFFFFFFFFFFFFFFFFFFFFFFFFFFFFFFFFFFFFFFFFFFFFFFFFFFFFFFFFFFFFFFF
102
{BLKREFS
331
3FF5
331
4790
331
487B
102
}
  0
BLOCK_RECORD
  5
3FFA
330
1
100
AcDbSymbolTableRecord
100
AcDbBlockTableRecord
  2
*D2
340
0
  0
BLOCK_RECORD
  5
4127
330
1
100
AcDbSymbolTableRecord
100
AcDbBlockTableRecord
  2
*X3
340
0
102
{BLKREFS
331
415B
331
4179
331
4AEE
331
4B0C
331
4B36
331
4B65
102
}
  0
BLOCK_RECORD
  5
4141
330
1
100
AcDbSymbolTableRecord
100
AcDbBlockTableRecord
  2
BODY
340
0
310
28000000200000002000000001000800000000000004000000000000000000000000000000000000000000004000000080000000FF000000002000004020000080200000FF200000004000004040000080400000FF400000006000004060000080600000FF600000008000004080000080800000FF80000000A0000040A000
310
0080A00000FFA0000000C0000040C0000080C00000FFC0000000FF000040FF000080FF0000FFFF0000000020004000200080002000FF002000002020004020200080202000FF202000004020004040200080402000FF402000006020004060200080602000FF602000008020004080200080802000FF80200000A0200040A0
310
200080A02000FFA0200000C0200040C0200080C02000FFC0200000FF200040FF200080FF2000FFFF2000000040004000400080004000FF004000002040004020400080204000FF204000004040004040400080404000FF404000006040004060400080604000FF604000008040004080400080804000FF80400000A0400040
310
A0400080A04000FFA0400000C0400040C0400080C04000FFC0400000FF400040FF400080FF4000FFFF4000000060004000600080006000FF006000002060004020600080206000FF206000004060004040600080406000FF406000006060004060600080606000FF606000008060004080600080806000FF80600000A06000
310
40A0600080A06000FFA0600000C0600040C0600080C06000FFC0600000FF600040FF600080FF6000FFFF6000000080004000800080008000FF008000002080004020800080208000FF208000004080004040800080408000FF408000006080004060800080608000FF608000008080004080800080808000FF80800000A080
310
0040A0800080A08000FFA0800000C0800040C0800080C08000FFC0800000FF800040FF800080FF8000FFFF80000000A0004000A0008000A000FF00A0000020A0004020A0008020A000FF20A0000040A0004040A0008040A000FF40A0000060A0004060A0008060A000FF60A0000080A0004080A0008080A000FF80A00000A0
310
A00040A0A00080A0A000FFA0A00000C0A00040C0A00080C0A000FFC0A00000FFA00040FFA00080FFA000FFFFA0000000C0004000C0008000C000FF00C0000020C0004020C0008020C000FF20C0000040C0004040C0008040C000FF40C0000060C0004060C0008060C000FF60C0000080C0004080C0008080C000FF80C00000
310
A0C00040A0C00080A0C000FFA0C00000C0C00040C0C00080C0C000FFC0C00000FFC00040FFC00080FFC000FFFFC0000000FF004000FF008000FF00FF00FF000020FF004020FF008020FF00FF20FF000040FF004040FF008040FF00FF40FF000060FF004060FF008060FF00FF60FF000080FF004080FF008080FF00FF80FF00
310
00A0FF0040A0FF0080A0FF00FFA0FF0000C0FF0040C0FF0080C0FF00FFC0FF0000FFFF0040FFFF0080FFFF00FFFFFF00FFFFFFFFFFFFFFFFFFFFFFFFFFFFFFFFFFFFFFFFFFFFFFFFFFFFFFFFFFFFFFFFFFFFFFFFFFFFFF000000000000000000000000000000000000FFFFFFFFFFFFFFFFFFFFFFFFFFFF00FFFFFFFFFFFFFF
310
FFFFFFFFFFFFFFFFFF00FFFFFFFFFFFFFFFFFFFFFFFFFFFF00FFFFFFFFFFFFFFFFFFFFFFFFFFFFFFFF00FFFFFFFFFFFFFFFFFFFFFFFFFFFF00FFFFFFFFFFFFFFFFFFFFFFFFFFFFFFFF00FFFFFFFFFFFFFFFFFFFFFFFFFFFF00FFFFFFFFFFFFFFFFFFFFFFFFFFFFFFFF00FFFFFFFFFFFFFFFFFFFFFFFFFFFF00FFFFFFFFFFFF
310
FFFFFFFFFFFFFFFFFFFF00FFFFFFFFFFFFFFFFFFFFFFFFFFFF00FFFFFFFFFFFFFFFFFFFFFFFFFFFFFFFF00FFFFFFFFFFFFFFFFFFFFFFFFFFFF00FFFFFFFFFFFFFFFFFFFFFFFFFFFFFFFF00FFFFFFFFFFFFFFFFFFFFFFFFFFFF00FFFFFFFFFFFFFFFFFFFFFFFFFFFFFFFF00FFFFFFFFFFFFFFFFFFFFFFFFFFFF00FFFFFFFFFF
310
FFFFFFFFFFFFFFFFFFFFFF00FFFFFFFFFFFFFFFFFFFFFFFFFFFF00FFFFFFFFFFFFFFFFFFFFFFFFFFFFFFFF00FFFFFFFFFFFFFFFFFFFFFFFFFFFF00FFFFFFFFFFFFFFFFFFFFFFFFFFFFFFFF00FFFFFFFFFFFFFFFFFFFFFFFFFFFF00FFFFFFFFFFFFFFFFFFFFFFFFFFFFFFFF00FFFFFFFFFFFFFFFFFFFFFFFFFF0000FFFFFFFF
310
FFFFFFFFFFFFFFFFFFFFFFFF0000FFFFFFFFFFFFFFFFFFFF0000FFFFFFFFFFFFFFFFFFFFFFFFFFFFFFFFFFFFFFFF0000FFFFFFFFFFFFFFFF00FFFFFFFFFFFFFFFFFFFFFFFFFFFFFFFFFFFFFFFFFFFF00FFFFFFFFFFFFFFFF00FFFFFFFFFFFFFFFFFFFFFFFFFFFFFFFFFFFFFFFFFFFF00FFFFFFFFFFFFFFFF00FFFFFFFFFFFF
310
FFFFFFFFFFFFFFFFFFFFFFFFFFFFFFFF00FFFFFFFFFFFFFFFF00FFFFFFFFFFFFFFFFFFFFFFFFFFFFFFFFFFFFFFFFFFFF00FFFFFFFFFFFFFFFF00FFFFFFFFFFFFFFFFFFFFFFFFFFFFFFFFFFFFFFFFFFFF00FFFFFFFFFFFFFFFF00FFFFFFFFFFFFFFFFFFFFFFFFFFFFFFFFFFFFFFFFFFFF00FFFFFFFFFFFFFFFF00FFFFFFFFFF
310
FFFFFFFFFFFFFFFFFFFFFFFFFFFFFFFFFF00FFFFFFFFFFFFFFFF00FFFFFFFFFFFFFFFFFFFFFFFFFFFFFFFFFFFFFFFFFFFF00FFFFFFFFFFFFFFFF00FFFFFFFFFFFFFFFFFFFFFFFFFFFFFFFFFFFFFFFFFFFF00FFFFFFFFFFFFFFFF00FFFFFFFFFFFFFFFFFFFFFFFFFFFFFFFFFFFFFFFFFFFF00FFFFFFFFFFFFFFFF00FFFFFFFF
310
FFFFFFFFFFFFFFFFFFFFFFFFFFFFFFFFFFFF00FFFFFFFFFFFFFFFF00000000FFFFFFFFFFFFFFFFFFFFFFFFFFFFFFFF00000000FFFFFFFFFFFFFFFF00000000FFFFFFFFFFFFFFFFFFFFFFFFFFFFFFFF00000000FFFFFFFFFFFFFFFF00000000FFFFFFFFFFFFFFFFFFFFFFFFFFFFFFFF00000000FFFFFFFFFFFFFFFF00000000
310
FFFFFFFFFFFFFFFFFFFFFFFFFFFFFFFF00000000FFFFFFFFFFFFFFFFFFFFFFFFFFFFFFFFFFFFFFFFFFFFFFFFFFFFFFFFFFFFFFFFFFFFFFFF
102
{BLKREFS
331
419A
331
478F
331
487A
102
}
  0
BLOCK_RECORD
  5
419F
330
1
100
AcDbSymbolTableRecord
100
AcDbBlockTableRecord
  2
*D5
340
0
  0
BLOCK_RECORD
  5
41C1
330
1
100
AcDbSymbolTableRecord
100
AcDbBlockTableRecord
  2
*D6
340
0
  0
BLOCK_RECORD
  5
41E7
330
1
100
AcDbSymbolTableRecord
100
AcDbBlockTableRecord
  2
*X7
340
0
102
{BLKREFS
331
42EE
331
4318
102
}
  0
BLOCK_RECORD
  5
41F4
330
1
100
AcDbSymbolTableRecord
100
AcDbBlockTableRecord
  2
*X8
340
0
102
{BLKREFS
331
42B4
331
42EC
331
431A
331
4320
102
}
  0
BLOCK_RECORD
  5
4380
330
1
100
AcDbSymbolTableRecord
100
AcDbBlockTableRecord
  2
*D9
340
0
  0
BLOCK_RECORD
  5
4748
330
1
100
AcDbSymbolTableRecord
100
AcDbBlockTableRecord
  2
Slotted Flathead Screw - 10 x 20 mm side
340
0
310
280000002000000020000000010004000000000000020000000000000000000000000000000000000000000000008000008000000080800080000000800080008080000080808000C0C0C0000000FF0000FF000000FFFF00FF000000FF00FF00FFFF0000FFFFFF00FFFFFFFFFFFFFFFFFFFFFFFFFFFFFFFF0FFFFFFFFFFFFF
310
FFFFFFFFFFFFFFFFFF00FFFFFFFFFFFFFFFFFFFFFFFFFFFFFF0F0FFFFFFFFFFFFFFFFFFFFFFFFFFFFF0FF0FFFFFFFFFFFFFFFFFFFFFFFFFFFF0FFF0FFFFFFFFFFFFFFFFFFFFFFFFFFF0FFFF0FFFFFFFFFFFFFFFFFFFFFFFFFF0FFFFF0FFFFFFFFFFFFFFFFFFFFFFFFF0FFFFFF0FFFFFFFFFFFFFFFFFFFFFFFF0FFFFFFFF000
310
00000000000000000FFF0FFFFFFF0FFF0FFFFFFFFFFFFFFF000F0FFFFFFF0FFF0000F00000F000000FF00FFFFFFF0FFF0FFFFFFFFFFFFFFF0FF00FFFFFFF0FFF0FFFFFFFFFFFFFFF0FF00000FFFF0FFF0FFFFFFFFFFFFFFF0FF0FFFF0FFF0FFF0FFFFFFFFFFFFFFF0FF0FFFF0FFF0FFF0FFFFFFFFFFFFFFF0FF0FFFF0FFF0F
310
FF0FFFFFFFFFFFFFFF0FF0FFFF0FFF0FFF0FFFFFFFFFFFFFFF0FF000000FFF0FFF0FFFFFFFFFFFFFFF0FF00FFFFFFF0FFF0FFFFFFFFFFFFFFF0FF00FFFFFFF0FFF0FFFFFFFFFFFFFFF0FF00FFFFFFF0FFF0000F00000F000000FF00FFFFFFF0FFF0FFFFFFFFFFFFFFF000F0FFFFFFF000000000000000000000FFF0FFFFFF0
310
FFFFFFFFFFFFFFFFFFFFFFFF0FFFFF0FFFFFFFFFFFFFFFFFFFFFFFFF0FFFF0FFFFFFFFFFFFFFFFFFFFFFFFFF0FFF0FFFFFFFFFFFFFFFFFFFFFFFFFFF0FF0FFFFFFFFFFFFFFFFFFFFFFFFFFFF0F0FFFFFFFFFFFFFFFFFFFFFFFFFFFFF00FFFFFFFFFFFFFFFFFFFFFFFFFFFFFF
102
{BLKREFS
331
47E3
331
4847
331
48CE
331
4932
102
}
1001
ACAD
1000
DesignCenter Data
1002
{
1070
     1
1070
     4
1002
}
  0
BLOCK_RECORD
  5
4768
330
1
100
AcDbSymbolTableRecord
100
AcDbBlockTableRecord
  2
*X11
340
0
102
{BLKREFS
331
4808
331
47D5
331
48C0
331
48F3
102
}
  0
BLOCK_RECORD
  5
4775
330
1
100
AcDbSymbolTableRecord
100
AcDbBlockTableRecord
  2
*X12
340
0
102
{BLKREFS
331
4824
331
4826
331
47B9
331
47C8
331
48A4
331
48B3
331
490F
331
4911
102
}
  0
BLOCK_RECORD
  5
4959
330
1
100
AcDbSymbolTableRecord
100
AcDbBlockTableRecord
  2
*D13
340
0
  0
BLOCK_RECORD
  5
4965
330
1
100
AcDbSymbolTableRecord
100
AcDbBlockTableRecord
  2
*D14
340
0
  0
BLOCK_RECORD
  5
4971
330
1
100
AcDbSymbolTableRecord
100
AcDbBlockTableRecord
  2
*D15
340
0
  0
BLOCK_RECORD
  5
497E
330
1
100
AcDbSymbolTableRecord
100
AcDbBlockTableRecord
  2
*D16
340
0
  0
BLOCK_RECORD
  5
4B7D
330
1
100
AcDbSymbolTableRecord
100
AcDbBlockTableRecord
  2
*D17
340
0
  0
ENDTAB
  0
ENDSEC
  0
SECTION
  2
BLOCKS
  0
BLOCK
  5
35
330
19
100
AcDbEntity
  8
0
100
AcDbBlockBegin
  2
*MODEL_SPACE
 70
     0
 10
0.0
 20
0.0
 30
0.0
  3
*MODEL_SPACE
  1

  0
ENDBLK
  5
36
330
19
100
AcDbEntity
  8
0
100
AcDbBlockEnd
  0
BLOCK
  5
4A51
330
4A4F
100
AcDbEntity
 67
     1
  8
0
100
AcDbBlockBegin
  2
*Paper_Space
 70
     0
 10
0.0
 20
0.0
 30
0.0
  3
*Paper_Space
  1

  0
ENDBLK
  5
4A52
330
4A4F
100
AcDbEntity
 67
     1
  8
0
100
AcDbBlockEnd
  0
BLOCK
  5
3EC6
330
3E5F
100
AcDbEntity
  8
0
100
AcDbBlockBegin
  2
*X0
 70
     1
 10
0.0
 20
0.0
 30
0.0
  3
*X0
  1

  0
LINE
  5
3E60
330
3E5F
100
AcDbEntity
  8
0
 62
     0
100
AcDbLine
 10
-405.75
 20
360.7368135792118
 30
0.0
 11
-405.75
 21
361.8370122704502
 31
0.0
  0
LINE
  5
3E61
330
3E5F
100
AcDbEntity
  8
0
 62
     0
100
AcDbLine
 10
-406.0
 20
360.933384413112
 30
0.0
 11
-406.0
 21
361.8370122704502
 31
0.0
  0
LINE
  5
3E62
330
3E5F
100
AcDbEntity
  8
0
 62
     0
100
AcDbLine
 10
-406.25
 20
361.1395398149058
 30
0.0
 11
-406.25
 21
361.8370122704502
 31
0.0
  0
LINE
  5
3E63
330
3E5F
100
AcDbEntity
  8
0
 62
     0
100
AcDbLine
 10
-406.5
 20
361.2469848382478
 30
0.0
 11
-406.5
 21
361.8370122704502
 31
0.0
  0
LINE
  5
3E64
330
3E5F
100
AcDbEntity
  8
0
 62
     0
100
AcDbLine
 10
-406.7499999999998
 20
361.389534041392
 30
0.0
 11
-406.7499999999998
 21
361.8370122704502
 31
0.0
  0
LINE
  5
3E65
330
3E5F
100
AcDbEntity
  8
0
 62
     0
100
AcDbLine
 10
-407.0
 20
361.6300486768183
 30
0.0
 11
-407.0
 21
361.8370122704502
 31
0.0
  0
LINE
  5
3E66
330
3E5F
100
AcDbEntity
  8
0
 62
     0
100
AcDbLine
 10
-407.2499999999998
 20
361.7419786282082
 30
0.0
 11
-407.2499999999998
 21
361.8370122704502
 31
0.0
  0
LINE
  5
3E67
330
3E5F
100
AcDbEntity
  8
0
 62
     0
100
AcDbLine
 10
-407.5
 20
361.8321716164932
 30
0.0
 11
-407.5
 21
361.8370122704502
 31
0.0
  0
LINE
  5
3E68
330
3E5F
100
AcDbEntity
  8
0
 62
     0
100
AcDbLine
 10
-405.4999999999997
 20
360.5564276026421
 30
0.0
 11
-405.4999999999997
 21
361.8370122704502
 31
0.0
  0
LINE
  5
3E69
330
3E5F
100
AcDbEntity
  8
0
 62
     0
100
AcDbLine
 10
-405.25
 20
360.274289276432
 30
0.0
 11
-405.25
 21
361.8370122704502
 31
0.0
  0
LINE
  5
3E6A
330
3E5F
100
AcDbEntity
  8
0
 62
     0
100
AcDbLine
 10
-404.9999999999998
 20
359.9991459799346
 30
0.0
 11
-405.0
 21
361.8370122704502
 31
0.0
  0
LINE
  5
3E6B
330
3E5F
100
AcDbEntity
  8
0
 62
     0
100
AcDbLine
 10
-404.7499999999998
 20
359.6570949230565
 30
0.0
 11
-404.75
 21
361.8370122704502
 31
0.0
  0
LINE
  5
3E6C
330
3E5F
100
AcDbEntity
  8
0
 62
     0
100
AcDbLine
 10
-404.4999999999998
 20
358.6790058066241
 30
0.0
 11
-404.4999999999998
 21
361.8370122704502
 31
0.0
  0
LINE
  5
3E6D
330
3E5F
100
AcDbEntity
  8
0
 62
     0
100
AcDbLine
 10
-404.25
 20
358.3305332124405
 30
0.0
 11
-404.25
 21
361.8370122704502
 31
0.0
  0
LINE
  5
3E6E
330
3E5F
100
AcDbEntity
  8
0
 62
     0
100
AcDbLine
 10
-404.0
 20
358.1759166610952
 30
0.0
 11
-404.0
 21
361.8370122704502
 31
0.0
  0
LINE
  5
3E6F
330
3E5F
100
AcDbEntity
  8
0
 62
     0
100
AcDbLine
 10
-405.8749999999998
 20
360.8303067122148
 30
0.0
 11
-405.8749999999998
 21
360.875
 31
0.0
  0
LINE
  5
3E70
330
3E5F
100
AcDbEntity
  8
0
 62
     0
100
AcDbLine
 10
-405.8749999999998
 20
361.0
 30
0.0
 11
-405.8749999999998
 21
361.125
 31
0.0
  0
LINE
  5
3E71
330
3E5F
100
AcDbEntity
  8
0
 62
     0
100
AcDbLine
 10
-405.8749999999998
 20
361.25
 30
0.0
 11
-405.8749999999998
 21
361.375
 31
0.0
  0
LINE
  5
3E72
330
3E5F
100
AcDbEntity
  8
0
 62
     0
100
AcDbLine
 10
-405.8749999999998
 20
361.5
 30
0.0
 11
-405.8749999999998
 21
361.6249999999998
 31
0.0
  0
LINE
  5
3E73
330
3E5F
100
AcDbEntity
  8
0
 62
     0
100
AcDbLine
 10
-405.8749999999998
 20
361.75
 30
0.0
 11
-405.8749999999998
 21
361.8370122704502
 31
0.0
  0
LINE
  5
3E74
330
3E5F
100
AcDbEntity
  8
0
 62
     0
100
AcDbLine
 10
-406.125
 20
361.036462114009
 30
0.0
 11
-406.125
 21
361.125
 31
0.0
  0
LINE
  5
3E75
330
3E5F
100
AcDbEntity
  8
0
 62
     0
100
AcDbLine
 10
-406.125
 20
361.25
 30
0.0
 11
-406.125
 21
361.375
 31
0.0
  0
LINE
  5
3E76
330
3E5F
100
AcDbEntity
  8
0
 62
     0
100
AcDbLine
 10
-406.125
 20
361.5
 30
0.0
 11
-406.125
 21
361.6249999999998
 31
0.0
  0
LINE
  5
3E77
330
3E5F
100
AcDbEntity
  8
0
 62
     0
100
AcDbLine
 10
-406.125
 20
361.75
 30
0.0
 11
-406.125
 21
361.8370122704502
 31
0.0
  0
LINE
  5
3E78
330
3E5F
100
AcDbEntity
  8
0
 62
     0
100
AcDbLine
 10
-406.3749999999997
 20
361.25
 30
0.0
 11
-406.3749999999997
 21
361.375
 31
0.0
  0
LINE
  5
3E79
330
3E5F
100
AcDbEntity
  8
0
 62
     0
100
AcDbLine
 10
-406.3749999999997
 20
361.5
 30
0.0
 11
-406.3749999999997
 21
361.6249999999998
 31
0.0
  0
LINE
  5
3E7A
330
3E5F
100
AcDbEntity
  8
0
 62
     0
100
AcDbLine
 10
-406.3749999999997
 20
361.75
 30
0.0
 11
-406.3749999999997
 21
361.8370122704502
 31
0.0
  0
LINE
  5
3E7B
330
3E5F
100
AcDbEntity
  8
0
 62
     0
100
AcDbLine
 10
-406.625
 20
361.2985236886962
 30
0.0
 11
-406.625
 21
361.375
 31
0.0
  0
LINE
  5
3E7C
330
3E5F
100
AcDbEntity
  8
0
 62
     0
100
AcDbLine
 10
-406.625
 20
361.5
 30
0.0
 11
-406.625
 21
361.6249999999998
 31
0.0
  0
LINE
  5
3E7D
330
3E5F
100
AcDbEntity
  8
0
 62
     0
100
AcDbLine
 10
-406.625
 20
361.75
 30
0.0
 11
-406.625
 21
361.8370122704502
 31
0.0
  0
LINE
  5
3E7E
330
3E5F
100
AcDbEntity
  8
0
 62
     0
100
AcDbLine
 10
-406.8749999999998
 20
361.5097913591051
 30
0.0
 11
-406.8749999999998
 21
361.6249999999998
 31
0.0
  0
LINE
  5
3E7F
330
3E5F
100
AcDbEntity
  8
0
 62
     0
100
AcDbLine
 10
-406.8749999999998
 20
361.75
 30
0.0
 11
-406.8749999999998
 21
361.8370122704502
 31
0.0
  0
LINE
  5
3E80
330
3E5F
100
AcDbEntity
  8
0
 62
     0
100
AcDbLine
 10
-407.125
 20
361.75
 30
0.0
 11
-407.125
 21
361.8370122704502
 31
0.0
  0
LINE
  5
3E81
330
3E5F
100
AcDbEntity
  8
0
 62
     0
100
AcDbLine
 10
-407.375
 20
361.7870751223508
 30
0.0
 11
-407.375
 21
361.8370122704502
 31
0.0
  0
LINE
  5
3E82
330
3E5F
100
AcDbEntity
  8
0
 62
     0
100
AcDbLine
 10
-405.625
 20
360.7499999999998
 30
0.0
 11
-405.625
 21
360.875
 31
0.0
  0
LINE
  5
3E83
330
3E5F
100
AcDbEntity
  8
0
 62
     0
100
AcDbLine
 10
-405.625
 20
361.0
 30
0.0
 11
-405.625
 21
361.125
 31
0.0
  0
LINE
  5
3E84
330
3E5F
100
AcDbEntity
  8
0
 62
     0
100
AcDbLine
 10
-405.625
 20
361.25
 30
0.0
 11
-405.625
 21
361.375
 31
0.0
  0
LINE
  5
3E85
330
3E5F
100
AcDbEntity
  8
0
 62
     0
100
AcDbLine
 10
-405.625
 20
361.5
 30
0.0
 11
-405.625
 21
361.6249999999998
 31
0.0
  0
LINE
  5
3E86
330
3E5F
100
AcDbEntity
  8
0
 62
     0
100
AcDbLine
 10
-405.625
 20
361.75
 30
0.0
 11
-405.625
 21
361.8370122704502
 31
0.0
  0
LINE
  5
3E87
330
3E5F
100
AcDbEntity
  8
0
 62
     0
100
AcDbLine
 10
-405.3749999999998
 20
360.4999999999998
 30
0.0
 11
-405.3749999999998
 21
360.625
 31
0.0
  0
LINE
  5
3E88
330
3E5F
100
AcDbEntity
  8
0
 62
     0
100
AcDbLine
 10
-405.3749999999998
 20
360.7499999999998
 30
0.0
 11
-405.3749999999998
 21
360.875
 31
0.0
  0
LINE
  5
3E89
330
3E5F
100
AcDbEntity
  8
0
 62
     0
100
AcDbLine
 10
-405.3749999999998
 20
361.0
 30
0.0
 11
-405.3749999999998
 21
361.125
 31
0.0
  0
LINE
  5
3E8A
330
3E5F
100
AcDbEntity
  8
0
 62
     0
100
AcDbLine
 10
-405.3749999999998
 20
361.25
 30
0.0
 11
-405.3749999999998
 21
361.375
 31
0.0
  0
LINE
  5
3E8B
330
3E5F
100
AcDbEntity
  8
0
 62
     0
100
AcDbLine
 10
-405.3749999999998
 20
361.5
 30
0.0
 11
-405.3749999999998
 21
361.6249999999998
 31
0.0
  0
LINE
  5
3E8C
330
3E5F
100
AcDbEntity
  8
0
 62
     0
100
AcDbLine
 10
-405.3749999999998
 20
361.75
 30
0.0
 11
-405.3749999999998
 21
361.8370122704502
 31
0.0
  0
LINE
  5
3E8D
330
3E5F
100
AcDbEntity
  8
0
 62
     0
100
AcDbLine
 10
-405.1249999999998
 20
360.25
 30
0.0
 11
-405.1249999999998
 21
360.375
 31
0.0
  0
LINE
  5
3E8E
330
3E5F
100
AcDbEntity
  8
0
 62
     0
100
AcDbLine
 10
-405.1249999999998
 20
360.4999999999998
 30
0.0
 11
-405.1249999999998
 21
360.625
 31
0.0
  0
LINE
  5
3E8F
330
3E5F
100
AcDbEntity
  8
0
 62
     0
100
AcDbLine
 10
-405.1249999999998
 20
360.7499999999998
 30
0.0
 11
-405.1249999999998
 21
360.875
 31
0.0
  0
LINE
  5
3E90
330
3E5F
100
AcDbEntity
  8
0
 62
     0
100
AcDbLine
 10
-405.1249999999998
 20
361.0
 30
0.0
 11
-405.1249999999998
 21
361.125
 31
0.0
  0
LINE
  5
3E91
330
3E5F
100
AcDbEntity
  8
0
 62
     0
100
AcDbLine
 10
-405.1249999999998
 20
361.25
 30
0.0
 11
-405.1249999999998
 21
361.375
 31
0.0
  0
LINE
  5
3E92
330
3E5F
100
AcDbEntity
  8
0
 62
     0
100
AcDbLine
 10
-405.1249999999998
 20
361.5
 30
0.0
 11
-405.1249999999998
 21
361.6249999999998
 31
0.0
  0
LINE
  5
3E93
330
3E5F
100
AcDbEntity
  8
0
 62
     0
100
AcDbLine
 10
-405.1249999999998
 20
361.75
 30
0.0
 11
-405.1249999999998
 21
361.8370122704502
 31
0.0
  0
LINE
  5
3E94
330
3E5F
100
AcDbEntity
  8
0
 62
     0
100
AcDbLine
 10
-404.8749999999998
 20
359.8374808996261
 30
0.0
 11
-404.8749999999998
 21
359.8749999999998
 31
0.0
  0
LINE
  5
3E95
330
3E5F
100
AcDbEntity
  8
0
 62
     0
100
AcDbLine
 10
-404.8749999999998
 20
360.0
 30
0.0
 11
-404.8749999999998
 21
360.125
 31
0.0
  0
LINE
  5
3E96
330
3E5F
100
AcDbEntity
  8
0
 62
     0
100
AcDbLine
 10
-404.8749999999998
 20
360.25
 30
0.0
 11
-404.8749999999998
 21
360.375
 31
0.0
  0
LINE
  5
3E97
330
3E5F
100
AcDbEntity
  8
0
 62
     0
100
AcDbLine
 10
-404.8749999999998
 20
360.4999999999998
 30
0.0
 11
-404.8749999999998
 21
360.625
 31
0.0
  0
LINE
  5
3E98
330
3E5F
100
AcDbEntity
  8
0
 62
     0
100
AcDbLine
 10
-404.8749999999998
 20
360.7499999999998
 30
0.0
 11
-404.8749999999998
 21
360.875
 31
0.0
  0
LINE
  5
3E99
330
3E5F
100
AcDbEntity
  8
0
 62
     0
100
AcDbLine
 10
-404.8749999999998
 20
361.0
 30
0.0
 11
-404.8749999999998
 21
361.125
 31
0.0
  0
LINE
  5
3E9A
330
3E5F
100
AcDbEntity
  8
0
 62
     0
100
AcDbLine
 10
-404.8749999999998
 20
361.25
 30
0.0
 11
-404.8749999999998
 21
361.375
 31
0.0
  0
LINE
  5
3E9B
330
3E5F
100
AcDbEntity
  8
0
 62
     0
100
AcDbLine
 10
-404.8749999999998
 20
361.5
 30
0.0
 11
-404.8749999999998
 21
361.6249999999998
 31
0.0
  0
LINE
  5
3E9C
330
3E5F
100
AcDbEntity
  8
0
 62
     0
100
AcDbLine
 10
-404.8749999999998
 20
361.75
 30
0.0
 11
-404.8749999999998
 21
361.8370122704502
 31
0.0
  0
LINE
  5
3E9D
330
3E5F
100
AcDbEntity
  8
0
 62
     0
100
AcDbLine
 10
-404.6249999999998
 20
359.0
 30
0.0
 11
-404.6249999999998
 21
359.125
 31
0.0
  0
LINE
  5
3E9E
330
3E5F
100
AcDbEntity
  8
0
 62
     0
100
AcDbLine
 10
-404.6249999999998
 20
359.25
 30
0.0
 11
-404.6249999999998
 21
359.375
 31
0.0
  0
LINE
  5
3E9F
330
3E5F
100
AcDbEntity
  8
0
 62
     0
100
AcDbLine
 10
-404.6249999999998
 20
359.5
 30
0.0
 11
-404.6249999999998
 21
359.6249999999998
 31
0.0
  0
LINE
  5
3EA0
330
3E5F
100
AcDbEntity
  8
0
 62
     0
100
AcDbLine
 10
-404.6249999999998
 20
359.75
 30
0.0
 11
-404.6249999999998
 21
359.8749999999998
 31
0.0
  0
LINE
  5
3EA1
330
3E5F
100
AcDbEntity
  8
0
 62
     0
100
AcDbLine
 10
-404.6249999999998
 20
360.0
 30
0.0
 11
-404.6249999999998
 21
360.125
 31
0.0
  0
LINE
  5
3EA2
330
3E5F
100
AcDbEntity
  8
0
 62
     0
100
AcDbLine
 10
-404.6249999999998
 20
360.25
 30
0.0
 11
-404.6249999999998
 21
360.375
 31
0.0
  0
LINE
  5
3EA3
330
3E5F
100
AcDbEntity
  8
0
 62
     0
100
AcDbLine
 10
-404.6249999999998
 20
360.4999999999998
 30
0.0
 11
-404.6249999999998
 21
360.625
 31
0.0
  0
LINE
  5
3EA4
330
3E5F
100
AcDbEntity
  8
0
 62
     0
100
AcDbLine
 10
-404.6249999999998
 20
360.7499999999998
 30
0.0
 11
-404.6249999999998
 21
360.875
 31
0.0
  0
LINE
  5
3EA5
330
3E5F
100
AcDbEntity
  8
0
 62
     0
100
AcDbLine
 10
-404.6249999999998
 20
361.0
 30
0.0
 11
-404.6249999999998
 21
361.125
 31
0.0
  0
LINE
  5
3EA6
330
3E5F
100
AcDbEntity
  8
0
 62
     0
100
AcDbLine
 10
-404.6249999999998
 20
361.25
 30
0.0
 11
-404.6249999999998
 21
361.375
 31
0.0
  0
LINE
  5
3EA7
330
3E5F
100
AcDbEntity
  8
0
 62
     0
100
AcDbLine
 10
-404.6249999999998
 20
361.5
 30
0.0
 11
-404.6249999999998
 21
361.6249999999998
 31
0.0
  0
LINE
  5
3EA8
330
3E5F
100
AcDbEntity
  8
0
 62
     0
100
AcDbLine
 10
-404.6249999999998
 20
361.75
 30
0.0
 11
-404.6249999999998
 21
361.8370122704502
 31
0.0
  0
LINE
  5
3EA9
330
3E5F
100
AcDbEntity
  8
0
 62
     0
100
AcDbLine
 10
-404.3749999999998
 20
358.4999999999998
 30
0.0
 11
-404.3749999999998
 21
358.625
 31
0.0
  0
LINE
  5
3EAA
330
3E5F
100
AcDbEntity
  8
0
 62
     0
100
AcDbLine
 10
-404.3749999999998
 20
358.7499999999998
 30
0.0
 11
-404.3749999999998
 21
358.875
 31
0.0
  0
LINE
  5
3EAB
330
3E5F
100
AcDbEntity
  8
0
 62
     0
100
AcDbLine
 10
-404.3749999999998
 20
359.0
 30
0.0
 11
-404.3749999999998
 21
359.125
 31
0.0
  0
LINE
  5
3EAC
330
3E5F
100
AcDbEntity
  8
0
 62
     0
100
AcDbLine
 10
-404.3749999999998
 20
359.25
 30
0.0
 11
-404.3749999999998
 21
359.375
 31
0.0
  0
LINE
  5
3EAD
330
3E5F
100
AcDbEntity
  8
0
 62
     0
100
AcDbLine
 10
-404.3749999999998
 20
359.5
 30
0.0
 11
-404.3749999999998
 21
359.6249999999998
 31
0.0
  0
LINE
  5
3EAE
330
3E5F
100
AcDbEntity
  8
0
 62
     0
100
AcDbLine
 10
-404.3749999999998
 20
359.75
 30
0.0
 11
-404.3749999999998
 21
359.8749999999998
 31
0.0
  0
LINE
  5
3EAF
330
3E5F
100
AcDbEntity
  8
0
 62
     0
100
AcDbLine
 10
-404.3749999999998
 20
360.0
 30
0.0
 11
-404.3749999999998
 21
360.125
 31
0.0
  0
LINE
  5
3EB0
330
3E5F
100
AcDbEntity
  8
0
 62
     0
100
AcDbLine
 10
-404.3749999999998
 20
360.25
 30
0.0
 11
-404.3749999999998
 21
360.375
 31
0.0
  0
LINE
  5
3EB1
330
3E5F
100
AcDbEntity
  8
0
 62
     0
100
AcDbLine
 10
-404.3749999999998
 20
360.4999999999998
 30
0.0
 11
-404.3749999999998
 21
360.625
 31
0.0
  0
LINE
  5
3EB2
330
3E5F
100
AcDbEntity
  8
0
 62
     0
100
AcDbLine
 10
-404.3749999999998
 20
360.7499999999998
 30
0.0
 11
-404.3749999999998
 21
360.875
 31
0.0
  0
LINE
  5
3EB3
330
3E5F
100
AcDbEntity
  8
0
 62
     0
100
AcDbLine
 10
-404.3749999999998
 20
361.0
 30
0.0
 11
-404.3749999999998
 21
361.125
 31
0.0
  0
LINE
  5
3EB4
330
3E5F
100
AcDbEntity
  8
0
 62
     0
100
AcDbLine
 10
-404.3749999999998
 20
361.25
 30
0.0
 11
-404.3749999999998
 21
361.375
 31
0.0
  0
LINE
  5
3EB5
330
3E5F
100
AcDbEntity
  8
0
 62
     0
100
AcDbLine
 10
-404.3749999999998
 20
361.5
 30
0.0
 11
-404.3749999999998
 21
361.6249999999998
 31
0.0
  0
LINE
  5
3EB6
330
3E5F
100
AcDbEntity
  8
0
 62
     0
100
AcDbLine
 10
-404.3749999999998
 20
361.75
 30
0.0
 11
-404.3749999999998
 21
361.8370122704502
 31
0.0
  0
LINE
  5
3EB7
330
3E5F
100
AcDbEntity
  8
0
 62
     0
100
AcDbLine
 10
-404.1249999999998
 20
358.2532249367679
 30
0.0
 11
-404.1249999999998
 21
358.375
 31
0.0
  0
LINE
  5
3EB8
330
3E5F
100
AcDbEntity
  8
0
 62
     0
100
AcDbLine
 10
-404.1249999999998
 20
358.4999999999998
 30
0.0
 11
-404.1249999999998
 21
358.625
 31
0.0
  0
LINE
  5
3EB9
330
3E5F
100
AcDbEntity
  8
0
 62
     0
100
AcDbLine
 10
-404.1249999999998
 20
358.7499999999998
 30
0.0
 11
-404.1249999999998
 21
358.875
 31
0.0
  0
LINE
  5
3EBA
330
3E5F
100
AcDbEntity
  8
0
 62
     0
100
AcDbLine
 10
-404.1249999999998
 20
359.0
 30
0.0
 11
-404.1249999999998
 21
359.125
 31
0.0
  0
LINE
  5
3EBB
330
3E5F
100
AcDbEntity
  8
0
 62
     0
100
AcDbLine
 10
-404.1249999999998
 20
359.25
 30
0.0
 11
-404.1249999999998
 21
359.375
 31
0.0
  0
LINE
  5
3EBC
330
3E5F
100
AcDbEntity
  8
0
 62
     0
100
AcDbLine
 10
-404.1249999999998
 20
359.5
 30
0.0
 11
-404.1249999999998
 21
359.6249999999998
 31
0.0
  0
LINE
  5
3EBD
330
3E5F
100
AcDbEntity
  8
0
 62
     0
100
AcDbLine
 10
-404.1249999999998
 20
359.75
 30
0.0
 11
-404.1249999999998
 21
359.8749999999998
 31
0.0
  0
LINE
  5
3EBE
330
3E5F
100
AcDbEntity
  8
0
 62
     0
100
AcDbLine
 10
-404.1249999999998
 20
360.0
 30
0.0
 11
-404.1249999999998
 21
360.125
 31
0.0
  0
LINE
  5
3EBF
330
3E5F
100
AcDbEntity
  8
0
 62
     0
100
AcDbLine
 10
-404.1249999999998
 20
360.25
 30
0.0
 11
-404.1249999999998
 21
360.375
 31
0.0
  0
LINE
  5
3EC0
330
3E5F
100
AcDbEntity
  8
0
 62
     0
100
AcDbLine
 10
-404.1249999999998
 20
360.4999999999998
 30
0.0
 11
-404.1249999999998
 21
360.625
 31
0.0
  0
LINE
  5
3EC1
330
3E5F
100
AcDbEntity
  8
0
 62
     0
100
AcDbLine
 10
-404.1249999999998
 20
360.7499999999998
 30
0.0
 11
-404.1249999999998
 21
360.875
 31
0.0
  0
LINE
  5
3EC2
330
3E5F
100
AcDbEntity
  8
0
 62
     0
100
AcDbLine
 10
-404.1249999999998
 20
361.0
 30
0.0
 11
-404.1249999999998
 21
361.125
 31
0.0
  0
LINE
  5
3EC3
330
3E5F
100
AcDbEntity
  8
0
 62
     0
100
AcDbLine
 10
-404.1249999999998
 20
361.25
 30
0.0
 11
-404.1249999999998
 21
361.375
 31
0.0
  0
LINE
  5
3EC4
330
3E5F
100
AcDbEntity
  8
0
 62
     0
100
AcDbLine
 10
-404.1249999999998
 20
361.5
 30
0.0
 11
-404.1249999999998
 21
361.6249999999998
 31
0.0
  0
LINE
  5
3EC5
330
3E5F
100
AcDbEntity
  8
0
 62
     0
100
AcDbLine
 10
-404.1249999999998
 20
361.75
 30
0.0
 11
-404.1249999999998
 21
361.8370122704502
 31
0.0
  0
ENDBLK
  5
3EC7
330
3E5F
100
AcDbEntity
  8
0
100
AcDbBlockEnd
  0
BLOCK
  5
3F91
330
3F90
100
AcDbEntity
  8
0
100
AcDbBlockBegin
  2
foul air trap
 70
     0
 10
0.0
 20
0.0
 30
0.0
  3
foul air trap
  1

  0
LINE
  5
3F93
330
3F90
100
AcDbEntity
  8
1
100
AcDbLine
 10
1208.491325910673
 20
1107.075306674516
 30
0.0
 11
1295.12942308226
 21
1107.075306674516
 31
0.0
  0
LINE
  5
3F94
330
3F90
100
AcDbEntity
  8
1
100
AcDbLine
 10
1201.090813605436
 20
1111.395306674515
 30
0.0
 11
1301.071511657789
 21
1111.395306674515
 31
0.0
  0
LINE
  5
3F95
330
3F90
100
AcDbEntity
  8
1
100
AcDbLine
 10
1232.045984437966
 20
1090.084261559292
 30
0.0
 11
1269.990977729441
 21
1090.084261559292
 31
0.0
  0
LINE
  5
3F96
330
3F90
100
AcDbEntity
  8
1
100
AcDbLine
 10
1232.045984437966
 20
1087.456409429085
 30
0.0
 11
1269.625868436242
 21
1087.456409429085
 31
0.0
  0
LINE
  5
3F97
330
3F90
100
AcDbEntity
  8
1
100
AcDbLine
 10
1228.335926437104
 20
1028.132369218754
 30
0.0
 11
1273.335926437104
 21
1028.132369218754
 31
0.0
  0
ARC
  5
3F98
330
3F90
100
AcDbEntity
  8
1
100
AcDbCircle
 10
1253.036451608067
 20
985.8193351931156
 30
0.0
 40
32.96637336539447
100
AcDbArc
 50
51.66227832045802
 51
81.30584230748334
  0
ARC
  5
3F99
330
3F90
100
AcDbEntity
  8
1
100
AcDbCircle
 10
1253.036451608067
 20
985.8193351931156
 30
0.0
 40
33.93862821539446
100
AcDbArc
 50
51.73541606254531
 51
81.43151591761862
  0
LINE
  5
3F9A
330
3F90
100
AcDbEntity
  8
1
100
AcDbLine
 10
1232.045984437966
 20
1087.456409429085
 30
0.0
 11
1232.045984437966
 21
1089.871131139661
 31
0.0
  0
LINE
  5
3F9B
330
3F90
100
AcDbEntity
  8
1
100
AcDbLine
 10
1230.245984437967
 20
1087.456409429085
 30
0.0
 11
1230.245984437967
 21
1089.389543793718
 31
0.0
  0
LINE
  5
3F9C
330
3F90
100
AcDbEntity
  8
1
100
AcDbLine
 10
1228.335926437104
 20
1028.132369218754
 30
0.0
 11
1228.335926437104
 21
1090.708360225801
 31
0.0
  0
ARC
  5
3F9D
330
3F90
100
AcDbEntity
  8
1
100
AcDbCircle
 10
1226.008606951122
 20
1028.129450528705
 30
0.0
 40
17.5005873
100
AcDbArc
 50
183.2361150823935
 51
268.054434265495
  0
LINE
  5
3F9E
330
3F90
100
AcDbEntity
  8
1
100
AcDbLine
 10
1209.435926437103
 20
1026.447911591658
 30
0.0
 11
1209.435926437103
 21
1074.862554575739
 31
0.0
  0
ARC
  5
3F9F
330
3F90
100
AcDbEntity
  8
1
100
AcDbCircle
 10
1225.878499240073
 20
1028.129450528705
 30
0.0
 40
16.52833245
100
AcDbArc
 50
185.8391894377785
 51
266.0563377827114
  0
ARC
  5
3FA0
330
3F90
100
AcDbEntity
  8
1
100
AcDbCircle
 10
1248.565759644177
 20
985.8193351931156
 30
0.0
 40
33.93862821539446
100
AcDbArc
 50
98.56848408238136
 51
128.2645839374547
  0
ARC
  5
3FA1
330
3F90
100
AcDbEntity
  8
1
100
AcDbCircle
 10
1248.565759644177
 20
985.8193351931156
 30
0.0
 40
32.96637336539447
100
AcDbArc
 50
98.69415769251663
 51
128.337721679542
  0
ARC
  5
3FA2
330
3F90
100
AcDbEntity
  8
1
100
AcDbCircle
 10
1225.139331173716
 20
1015.520065373245
 30
0.0
 40
3.889019399999998
100
AcDbArc
 50
266.0563377827114
 51
308.2645839374547
  0
ARC
  5
3FA3
330
3F90
100
AcDbEntity
  8
1
100
AcDbCircle
 10
1225.10143745401
 20
1015.490137478705
 30
0.0
 40
4.86127425
100
AcDbArc
 50
273.6919127553225
 51
308.3377216795419
  0
LINE
  5
3FA4
330
3F90
100
AcDbEntity
  8
1
100
AcDbLine
 10
1243.509194251122
 20
1019.379156878705
 30
0.0
 11
1258.093017001121
 21
1019.379156878705
 31
0.0
  0
LINE
  5
3FA5
330
3F90
100
AcDbEntity
  8
1
100
AcDbLine
 10
1243.509194251122
 20
1018.406902028704
 30
0.0
 11
1258.093017001121
 21
1018.406902028704
 31
0.0
  0
LINE
  5
3FA6
330
3F90
100
AcDbEntity
  8
1
100
AcDbLine
 10
1211.235926437104
 20
1074.862554575739
 30
0.0
 11
1228.335926437104
 21
1074.862554575739
 31
0.0
  0
LINE
  5
3FA7
330
3F90
100
AcDbEntity
  8
1
100
AcDbLine
 10
1206.432278019232
 20
1075.762554575738
 30
0.0
 11
1226.535926437104
 21
1075.762554575738
 31
0.0
  0
LINE
  5
3FA8
330
3F90
100
AcDbEntity
  8
1
100
AcDbLine
 10
1208.535926437104
 20
1027.141527707833
 30
0.0
 11
1208.535926437104
 21
1073.962554575738
 31
0.0
  0
LINE
  5
3FA9
330
3F90
100
AcDbEntity
  8
1
100
AcDbLine
 10
1210.335926437104
 20
1066.762554575737
 30
0.0
 11
1210.335926437104
 21
1073.962554575738
 31
0.0
  0
LINE
  5
3FAA
330
3F90
100
AcDbEntity
  8
1
100
AcDbLine
 10
1204.750938375634
 20
1073.526543741794
 30
0.0
 11
1208.509843233555
 21
1066.738838687578
 31
0.0
  0
LINE
  5
3FAB
330
3F90
100
AcDbEntity
  8
1
100
AcDbLine
 10
1203.135926437104
 20
1074.585126446083
 30
0.0
 11
1208.535926437104
 21
1064.83398650554
 31
0.0
  0
LINE
  5
3FAC
330
3F90
100
AcDbEntity
  8
1
100
AcDbLine
 10
1209.435926437103
 20
1066.762554575737
 30
0.0
 11
1210.335926437104
 21
1066.762554575737
 31
0.0
  0
LINE
  5
3FAD
330
3F90
100
AcDbEntity
  8
1
100
AcDbLine
 10
1206.432278019232
 20
1074.862554575739
 30
0.0
 11
1207.635926437104
 21
1074.862554575739
 31
0.0
  0
ARC
  5
3FAE
330
3F90
100
AcDbEntity
  8
1
100
AcDbCircle
 10
1208.535926437104
 20
1074.862554575739
 30
0.0
 40
0.9
100
AcDbArc
 50
0.0
 51
90.0
  0
ARC
  5
3FAF
330
3F90
100
AcDbEntity
  8
1
100
AcDbCircle
 10
1204.035926437104
 20
1074.862554575739
 30
0.0
 40
0.9
100
AcDbArc
 50
90.0
 51
180.0
  0
LINE
  5
3FB0
330
3F90
100
AcDbEntity
  8
1
100
AcDbLine
 10
1204.035926437104
 20
1075.762554575738
 30
0.0
 11
1208.535926437104
 21
1075.762554575738
 31
0.0
  0
LINE
  5
3FB1
330
3F90
100
AcDbEntity
  8
1
100
AcDbLine
 10
1205.538272201075
 20
1074.862554575739
 30
0.0
 11
1207.635926437104
 21
1074.862554575739
 31
0.0
  0
ARC
  5
3FB2
330
3F90
100
AcDbEntity
  8
1
100
AcDbCircle
 10
1205.538272201075
 20
1073.962554575738
 30
0.0
 40
0.9
100
AcDbArc
 50
90.0
 51
208.9768687366412
  0
ARC
  5
3FB3
330
3F90
100
AcDbEntity
  8
1
100
AcDbCircle
 10
1211.235926437104
 20
1073.962554575738
 30
0.0
 40
0.9
100
AcDbArc
 50
90.0
 51
180.0
  0
ARC
  5
3FB4
330
3F90
100
AcDbEntity
  8
1
100
AcDbCircle
 10
1207.635926437104
 20
1073.962554575738
 30
0.0
 40
0.9
100
AcDbArc
 50
0.0
 51
90.0
  0
LINE
  5
3FB5
330
3F90
100
AcDbEntity
  8
1
100
AcDbLine
 10
1230.135926437104
 20
1028.132369218754
 30
0.0
 11
1230.135926437104
 21
1076.303742262229
 31
0.0
  0
INSERT
  5
3FB6
330
3F90
100
AcDbEntity
  8
1
100
AcDbBlockReference
  2
*X0
 10
1591.922371740148
 20
749.2103183711956
 30
0.0
 41
0.899999999999977
 42
0.9000000000000909
 43
0.9
  0
LINE
  5
3FB7
330
3F90
100
AcDbEntity
  8
1
100
AcDbLine
 10
1230.245984437967
 20
1087.456409429085
 30
0.0
 11
1232.045984437966
 21
1087.456409429085
 31
0.0
  0
LINE
  5
3FB8
330
3F90
100
AcDbEntity
  8
1
100
AcDbLine
 10
1227.435926437103
 20
1076.662554575739
 30
0.0
 11
1227.435926437103
 21
1084.762554575739
 31
0.0
  0
ARC
  5
3FB9
330
3F90
100
AcDbEntity
  8
1
100
AcDbCircle
 10
1226.535926437104
 20
1076.662554575739
 30
0.0
 40
0.9
100
AcDbArc
 50
270.0
 51
0.0
  0
LINE
  5
3FBA
330
3F90
100
AcDbEntity
  8
1
100
AcDbLine
 10
1227.435926437103
 20
1084.762554575739
 30
0.0
 11
1228.335926437104
 21
1084.762554575739
 31
0.0
  0
LINE
  5
3FBB
330
3F90
100
AcDbEntity
  8
1
100
AcDbLine
 10
1230.135926437104
 20
1077.03883416508
 30
0.0
 11
1230.135926437104
 21
1087.388767686755
 31
0.0
  0
LINE
  5
3FBC
330
3F90
100
AcDbEntity
  8
1
100
AcDbLine
 10
1212.626944424235
 20
1097.475223166107
 30
0.0
 11
1231.450062716213
 21
1090.718206343347
 31
0.0
  0
LINE
  5
3FBD
330
3F90
100
AcDbEntity
  8
1
100
AcDbLine
 10
1212.268326666004
 20
1096.476216553888
 30
0.0
 11
1229.650062716213
 21
1090.236618997403
 31
0.0
  0
LINE
  5
3FBE
330
3F90
100
AcDbEntity
  8
1
100
AcDbLine
 10
1208.41010697363
 20
1103.966163008732
 30
0.0
 11
1208.41010697363
 21
1103.469262839418
 31
0.0
  0
LINE
  5
3FBF
330
3F90
100
AcDbEntity
  8
1
100
AcDbLine
 10
1207.34868297363
 20
1103.966163008732
 30
0.0
 11
1207.34868297363
 21
1103.469262839418
 31
0.0
  0
ARC
  5
3FC0
330
3F90
100
AcDbEntity
  8
1
100
AcDbCircle
 10
1214.77865097363
 20
1103.469262839418
 30
0.0
 40
6.368543999999999
100
AcDbArc
 50
180.0
 51
250.2531633945703
  0
ARC
  5
3FC1
330
3F90
100
AcDbEntity
  8
1
100
AcDbCircle
 10
1214.77865097363
 20
1103.469262839418
 30
0.0
 40
7.429967999999997
100
AcDbArc
 50
180.0
 51
250.2531633945703
  0
LINE
  5
3FC2
330
3F90
100
AcDbEntity
  8
1
100
AcDbLine
 10
1199.268556683942
 20
1111.396131008732
 30
0.0
 11
1200.98013897363
 21
1111.396131008732
 31
0.0
  0
LINE
  5
3FC3
330
3F90
100
AcDbEntity
  8
1
100
AcDbLine
 10
1199.268556683942
 20
1110.334707008732
 30
0.0
 11
1200.98013897363
 21
1110.334707008732
 31
0.0
  0
LINE
  5
3FC4
330
3F90
100
AcDbEntity
  8
1
100
AcDbLine
 10
1199.268556683942
 20
1111.396131008732
 30
0.0
 11
1199.268556683942
 21
1110.334707008732
 31
0.0
  0
ARC
  5
3FC5
330
3F90
100
AcDbEntity
  8
1
100
AcDbCircle
 10
1200.98013897363
 20
1103.966163008732
 30
0.0
 40
6.368543999999999
100
AcDbArc
 50
0.0
 51
90.0
  0
ARC
  5
3FC6
330
3F90
100
AcDbEntity
  8
1
100
AcDbCircle
 10
1200.98013897363
 20
1103.966163008732
 30
0.0
 40
7.429967999999997
100
AcDbArc
 50
0.0
 51
90.0
  0
ARC
  5
3FC7
330
3F90
100
AcDbEntity
  8
1
100
AcDbCircle
 10
1201.743166891606
 20
1103.966163008732
 30
0.0
 40
7.429967999999997
100
AcDbArc
 50
24.73739265893866
 51
90.0
  0
ARC
  5
3FC8
330
3F90
100
AcDbEntity
  8
1
100
AcDbCircle
 10
1231.145984437967
 20
1089.871131139661
 30
0.0
 40
0.9
100
AcDbArc
 50
0.0
 51
70.25316339457774
  0
ARC
  5
3FC9
330
3F90
100
AcDbEntity
  8
1
100
AcDbCircle
 10
1229.345984437967
 20
1089.389543793718
 30
0.0
 40
0.9
100
AcDbArc
 50
0.0
 51
70.25316339457049
  0
LINE
  5
3FCA
330
3F90
100
AcDbEntity
  8
1
100
AcDbLine
 10
1269.625868436242
 20
1087.456409429085
 30
0.0
 11
1269.625868436242
 21
1089.147327345961
 31
0.0
  0
LINE
  5
3FCB
330
3F90
100
AcDbEntity
  8
1
100
AcDbLine
 10
1271.425868436242
 20
1087.456409429085
 30
0.0
 11
1271.425868436242
 21
1088.665740000018
 31
0.0
  0
LINE
  5
3FCC
330
3F90
100
AcDbEntity
  8
1
100
AcDbLine
 10
1271.535926437104
 20
1028.132369218754
 30
0.0
 11
1271.535926437104
 21
1089.097007478506
 31
0.0
  0
LINE
  5
3FCD
330
3F90
100
AcDbEntity
  8
1
100
AcDbLine
 10
1273.335926437104
 20
1028.132369218754
 30
0.0
 11
1273.335926437104
 21
1089.984556432101
 31
0.0
  0
ARC
  5
3FCE
330
3F90
100
AcDbEntity
  8
1
100
AcDbCircle
 10
1275.72371201217
 20
1028.129450528705
 30
0.0
 40
16.52833245
100
AcDbArc
 50
273.9436622172885
 51
0.0
  0
ARC
  5
3FCF
330
3F90
100
AcDbEntity
  8
1
100
AcDbCircle
 10
1275.593604301122
 20
1028.129450528705
 30
0.0
 40
17.5005873
100
AcDbArc
 50
271.9455657345049
 51
0.0
  0
LINE
  5
3FD0
330
3F90
100
AcDbEntity
  8
1
100
AcDbLine
 10
1293.060256799416
 20
1027.040135905333
 30
0.0
 11
1293.060256799416
 21
1074.142329839042
 31
0.0
  0
ARC
  5
3FD1
330
3F90
100
AcDbEntity
  8
1
100
AcDbCircle
 10
1276.462880078527
 20
1015.520065373245
 30
0.0
 40
3.889019399999998
100
AcDbArc
 50
231.7354160625453
 51
273.9436622172885
  0
ARC
  5
3FD2
330
3F90
100
AcDbEntity
  8
1
100
AcDbCircle
 10
1276.500773798233
 20
1015.490137478705
 30
0.0
 40
4.86127425
100
AcDbArc
 50
231.6622783204579
 51
266.3080872446775
  0
LINE
  5
3FD3
330
3F90
100
AcDbEntity
  8
1
100
AcDbLine
 10
1292.235926437104
 20
1027.39969141589
 30
0.0
 11
1292.235926437104
 21
1074.862554575739
 31
0.0
  0
LINE
  5
3FD4
330
3F90
100
AcDbEntity
  8
1
100
AcDbLine
 10
1275.135926437104
 20
1075.762554575738
 30
0.0
 11
1296.242513997039
 21
1075.762554575738
 31
0.0
  0
LINE
  5
3FD5
330
3F90
100
AcDbEntity
  8
1
100
AcDbLine
 10
1273.335926437104
 20
1074.862554575739
 30
0.0
 11
1290.435926437104
 21
1074.862554575739
 31
0.0
  0
INSERT
  5
3FD6
330
3F90
100
AcDbEntity
  8
1
100
AcDbBlockReference
  2
*X0
 10
909.7362896308206
 20
749.2103183711956
 30
0.0
 41
-0.899999999999977
 42
0.9000000000000909
 43
0.9
  0
LINE
  5
3FD7
330
3F90
100
AcDbEntity
  8
1
100
AcDbLine
 10
1271.425868436242
 20
1087.456409429085
 30
0.0
 11
1269.625868436242
 21
1087.456409429085
 31
0.0
  0
LINE
  5
3FD8
330
3F90
100
AcDbEntity
  8
1
100
AcDbLine
 10
1274.235926437104
 20
1076.662554575739
 30
0.0
 11
1274.235926437104
 21
1084.762554575739
 31
0.0
  0
ARC
  5
3FD9
330
3F90
100
AcDbEntity
  8
1
100
AcDbCircle
 10
1275.135926437104
 20
1076.662554575739
 30
0.0
 40
0.9
100
AcDbArc
 50
180.0
 51
270.0
  0
LINE
  5
3FDA
330
3F90
100
AcDbEntity
  8
1
100
AcDbLine
 10
1273.335926437104
 20
1084.762554575739
 30
0.0
 11
1274.235926437104
 21
1084.762554575739
 31
0.0
  0
LINE
  5
3FDB
330
3F90
100
AcDbEntity
  8
1
100
AcDbLine
 10
1296.950070173883
 20
1073.526543741794
 30
0.0
 11
1293.060256799416
 21
1066.502448453459
 31
0.0
  0
LINE
  5
3FDC
330
3F90
100
AcDbEntity
  8
1
100
AcDbLine
 10
1291.335926437104
 20
1066.762554575737
 30
0.0
 11
1291.335926437104
 21
1073.962554575738
 31
0.0
  0
LINE
  5
3FDD
330
3F90
100
AcDbEntity
  8
1
100
AcDbLine
 10
1298.565082112412
 20
1074.585126446083
 30
0.0
 11
1293.060256799416
 21
1064.644696450665
 31
0.0
  0
LINE
  5
3FDE
330
3F90
100
AcDbEntity
  8
1
100
AcDbLine
 10
1291.335926437104
 20
1066.762554575737
 30
0.0
 11
1292.235926437104
 21
1066.762554575737
 31
0.0
  0
LINE
  5
3FDF
330
3F90
100
AcDbEntity
  8
1
100
AcDbLine
 10
1297.665082112413
 20
1075.762554575738
 30
0.0
 11
1293.165082112413
 21
1075.762554575738
 31
0.0
  0
ARC
  5
3FE0
330
3F90
100
AcDbEntity
  8
1
100
AcDbCircle
 10
1293.165082112413
 20
1074.862554575739
 30
0.0
 40
0.9
100
AcDbArc
 50
90.0
 51
180.0
  0
LINE
  5
3FE1
330
3F90
100
AcDbEntity
  8
1
100
AcDbLine
 10
1296.162736348442
 20
1074.862554575739
 30
0.0
 11
1294.065082112412
 21
1074.862554575739
 31
0.0
  0
ARC
  5
3FE2
330
3F90
100
AcDbEntity
  8
1
100
AcDbCircle
 10
1297.665082112413
 20
1074.862554575739
 30
0.0
 40
0.9
100
AcDbArc
 50
0.0
 51
90.0
  0
LINE
  5
3FE3
330
3F90
100
AcDbEntity
  8
1
100
AcDbLine
 10
1298.565082112412
 20
1074.585126446083
 30
0.0
 11
1298.565082112412
 21
1074.862554575739
 31
0.0
  0
ARC
  5
3FE4
330
3F90
100
AcDbEntity
  8
1
100
AcDbCircle
 10
1296.162736348442
 20
1073.962554575738
 30
0.0
 40
0.9
100
AcDbArc
 50
331.0231312633586
 51
90.0
  0
ARC
  5
3FE5
330
3F90
100
AcDbEntity
  8
1
100
AcDbCircle
 10
1293.942118951171
 20
1073.962554575738
 30
0.0
 40
0.9
100
AcDbArc
 50
83.52634024789486
 51
180.0
  0
ARC
  5
3FE6
330
3F90
100
AcDbEntity
  8
1
100
AcDbCircle
 10
1290.435926437104
 20
1073.962554575738
 30
0.0
 40
0.9
100
AcDbArc
 50
0.0
 51
90.0
  0
LINE
  5
3FE7
330
3F90
100
AcDbEntity
  8
1
100
AcDbLine
 10
1290.595634252651
 20
1097.308090173368
 30
0.0
 11
1270.221790157995
 21
1089.994402549645
 31
0.0
  0
LINE
  5
3FE8
330
3F90
100
AcDbEntity
  8
1
100
AcDbLine
 10
1290.954252010884
 20
1096.30908356115
 30
0.0
 11
1272.021790157995
 21
1089.512815203703
 31
0.0
  0
ARC
  5
3FE9
330
3F90
100
AcDbEntity
  8
1
100
AcDbCircle
 10
1270.525868436242
 20
1089.147327345961
 30
0.0
 40
0.9
100
AcDbArc
 50
109.7468366054294
 51
180.0
  0
ARC
  5
3FEA
330
3F90
100
AcDbEntity
  8
1
100
AcDbCircle
 10
1272.325868436242
 20
1088.665740000018
 30
0.0
 40
0.9
100
AcDbArc
 50
109.7468366054294
 51
180.0
  0
LINE
  5
3FEB
330
3F90
100
AcDbEntity
  8
1
100
AcDbLine
 10
1295.873895703258
 20
1103.799030015994
 30
0.0
 11
1295.873895703256
 21
1103.30212984668
 31
0.0
  0
LINE
  5
3FEC
330
3F90
100
AcDbEntity
  8
1
100
AcDbLine
 10
1294.812471703258
 20
1103.799030015994
 30
0.0
 11
1294.812471703258
 21
1103.30212984668
 31
0.0
  0
ARC
  5
3FED
330
3F90
100
AcDbEntity
  8
1
100
AcDbCircle
 10
1288.443927703257
 20
1103.30212984668
 30
0.0
 40
7.429967999999997
100
AcDbArc
 50
289.7468366054294
 51
0.0
  0
ARC
  5
3FEE
330
3F90
100
AcDbEntity
  8
1
100
AcDbCircle
 10
1288.443927703258
 20
1103.30212984668
 30
0.0
 40
6.368543999999999
100
AcDbArc
 50
289.7468366054294
 51
0.0
  0
ARC
  5
3FEF
330
3F90
100
AcDbEntity
  8
1
100
AcDbCircle
 10
1302.174743641883
 20
1103.8275830409
 30
0.0
 40
6.300912633968848
100
AcDbArc
 50
87.89156686214006
 51
180.2596407082099
  0
LINE
  5
3FF0
330
3F90
100
AcDbEntity
  8
1
100
AcDbLine
 10
1304.466416769479
 20
1111.184829556717
 30
0.0
 11
1301.433496179113
 21
1111.184829556717
 31
0.0
  0
ARC
  5
3FF1
330
3F90
100
AcDbEntity
  8
1
100
AcDbCircle
 10
1302.242439703257
 20
1103.799030015994
 30
0.0
 40
7.429967999999997
100
AcDbArc
 50
96.25051298958091
 51
180.0
  0
ARC
  5
3FF2
330
3F90
100
AcDbEntity
  8
1
100
AcDbCircle
 10
1301.898277976136
 20
1104.01148097669
 30
0.0
 40
7.429967999999997
100
AcDbArc
 50
96.25051298958091
 51
155.6467925743058
  0
LINE
  5
3FF3
330
3F90
100
AcDbEntity
  8
1
100
AcDbLine
 10
1304.466416769479
 20
1110.124229890933
 30
0.0
 11
1302.423286532922
 21
1110.124229890933
 31
0.0
  0
LINE
  5
3FF4
330
3F90
100
AcDbEntity
  8
1
100
AcDbLine
 10
1304.466416769479
 20
1111.185653890933
 30
0.0
 11
1304.466416769479
 21
1110.124229890933
 31
0.0
  0
ENDBLK
  5
3F92
330
3F90
100
AcDbEntity
  8
0
100
AcDbBlockEnd
  0
BLOCK
  5
4004
330
3FFA
100
AcDbEntity
  8
0
100
AcDbBlockBegin
  2
*D2
 70
     1
 10
0.0
 20
0.0
 30
0.0
  3
*D2
  1

  0
LINE
  5
4BA8
330
3FFA
100
AcDbEntity
  8
1
 62
     0
370
    -2
100
AcDbLine
 10
-863.3477368757059
 20
745.6867711889826
 30
0.0
 11
-863.3477368757059
 21
759.4880801461737
 31
0.0
  0
LINE
  5
4BA9
330
3FFA
100
AcDbEntity
  8
1
 62
     0
370
    -2
100
AcDbLine
 10
-701.347736875706
 20
745.6867711889826
 30
0.0
 11
-701.347736875706
 21
759.4880801461737
 31
0.0
  0
LINE
  5
4BAA
330
3FFA
100
AcDbEntity
  8
1
 62
     0
370
    -2
100
AcDbLine
 10
-856.4477368757058
 20
754.0880801461737
 30
0.0
 11
-708.247736875706
 21
754.0880801461737
 31
0.0
  0
SOLID
  5
4BAB
330
3FFA
100
AcDbEntity
  8
1
 62
     0
100
AcDbTrace
 10
-856.4477368757058
 20
755.2380801461737
 30
0.0
 11
-856.4477368757058
 21
752.9380801461737
 31
0.0
 12
-863.3477368757059
 22
754.0880801461737
 32
0.0
 13
-863.3477368757059
 23
754.0880801461737
 33
0.0
  0
SOLID
  5
4BAC
330
3FFA
100
AcDbEntity
  8
1
 62
     0
100
AcDbTrace
 10
-708.247736875706
 20
755.2380801461737
 30
0.0
 11
-708.247736875706
 21
752.9380801461737
 31
0.0
 12
-701.347736875706
 22
754.0880801461737
 32
0.0
 13
-701.347736875706
 23
754.0880801461737
 33
0.0
  0
MTEXT
  5
4BAD
330
3FFA
100
AcDbEntity
  8
1
 62
     0
100
AcDbMText
 10
-782.347736875706
 20
760.3086941812614
 30
0.0
 40
6.9
 41
0.0
 71
     5
 72
     1
  1
\A1;162 sq.
 73
     1
 44
1.0
  0
POINT
  5
4BAE
330
3FFA
100
AcDbEntity
  8
DEFPOINTS
 62
     0
100
AcDbPoint
 10
-863.3477368757059
 20
742.0867711889825
 30
0.0
  0
POINT
  5
4BAF
330
3FFA
100
AcDbEntity
  8
DEFPOINTS
 62
     0
100
AcDbPoint
 10
-701.347736875706
 20
742.0867711889825
 30
0.0
  0
POINT
  5
4BB0
330
3FFA
100
AcDbEntity
  8
DEFPOINTS
 62
     0
100
AcDbPoint
 10
-701.347736875706
 20
754.0880801461737
 30
0.0
  0
ENDBLK
  5
4005
330
3FFA
100
AcDbEntity
  8
0
100
AcDbBlockEnd
  0
BLOCK
  5
413F
330
4127
100
AcDbEntity
  8
0
100
AcDbBlockBegin
  2
*X3
 70
     1
 10
0.0
 20
0.0
 30
0.0
  3
*X3
  1

  0
LINE
  5
4128
330
4127
100
AcDbEntity
  8
0
 62
     0
100
AcDbLine
 10
-623.9302995495727
 20
381.5755432976976
 30
0.0
 11
-614.5617905610541
 21
390.9440522862162
 31
0.0
  0
LINE
  5
4129
330
4127
100
AcDbEntity
  8
0
 62
     0
100
AcDbLine
 10
-613.8056723237488
 20
391.7001705235218
 30
0.0
 11
-612.8808332083372
 21
392.6250096389334
 31
0.0
  0
LINE
  5
412A
330
4127
100
AcDbEntity
  8
0
 62
     0
100
AcDbLine
 10
-628.4449997445888
 20
383.4248041333606
 30
0.0
 11
-615.4235554359719
 21
396.4462484419773
 31
0.0
  0
LINE
  5
412B
330
4127
100
AcDbEntity
  8
0
 62
     0
100
AcDbLine
 10
-629.5370516436562
 20
388.6967132649721
 30
0.0
 11
-621.7875164666508
 21
396.4462484419773
 31
0.0
  0
LINE
  5
412C
330
4127
100
AcDbEntity
  8
0
 62
     0
100
AcDbLine
 10
-628.4449997445888
 20
396.1527261947184
 30
0.0
 11
-628.1514774973299
 21
396.4462484419773
 31
0.0
  0
LINE
  5
412D
330
4127
100
AcDbEntity
  8
0
 62
     0
100
AcDbLine
 10
-617.5663385188937
 20
381.5755432976978
 30
0.0
 11
-615.0268103541512
 21
384.1150714624403
 31
0.0
  0
LINE
  5
412E
330
4127
100
AcDbEntity
  8
0
 62
     0
100
AcDbLine
 10
-622.8696393795727
 20
381.5755432976978
 30
0.0
 11
-614.8545140772687
 21
389.5906686000015
 31
0.0
  0
LINE
  5
412F
330
4127
100
AcDbEntity
  8
0
 62
     0
100
AcDbLine
 10
-614.1429190600057
 20
390.3022636172646
 30
0.0
 11
-612.5160076678881
 21
391.9291750093825
 31
0.0
  0
LINE
  5
4130
330
4127
100
AcDbEntity
  8
0
 62
     0
100
AcDbLine
 10
-628.4449997445888
 20
382.3641439633606
 30
0.0
 11
-614.6206702372349
 21
396.1884734707142
 31
0.0
  0
LINE
  5
4131
330
4127
100
AcDbEntity
  8
0
 62
     0
100
AcDbLine
 10
-629.5370516436562
 20
387.6360530949721
 30
0.0
 11
-620.7268562966508
 21
396.4462484419773
 31
0.0
  0
LINE
  5
4132
330
4127
100
AcDbEntity
  8
0
 62
     0
100
AcDbLine
 10
-628.4449997445888
 20
395.0920660247184
 30
0.0
 11
-627.0908173273299
 21
396.4462484419773
 31
0.0
  0
LINE
  5
4133
330
4127
100
AcDbEntity
  8
0
 62
     0
100
AcDbLine
 10
-616.5056783488937
 20
381.5755432976978
 30
0.0
 11
-615.265230655631
 21
382.8159909909604
 31
0.0
  0
LINE
  5
4134
330
4127
100
AcDbEntity
  8
0
 62
     0
100
AcDbLine
 10
-628.1729402342517
 20
381.5755432976976
 30
0.0
 11
-614.4213801978792
 21
395.3271033340702
 31
0.0
  0
LINE
  5
4135
330
4127
100
AcDbEntity
  8
0
 62
     0
100
AcDbLine
 10
-628.6793799970197
 20
387.4330645656086
 30
0.0
 11
-619.6661961206507
 21
396.4462484419773
 31
0.0
  0
LINE
  5
4136
330
4127
100
AcDbEntity
  8
0
 62
     0
100
AcDbLine
 10
-628.4449997445888
 20
394.0314058487183
 30
0.0
 11
-626.0301571513297
 21
396.4462484419773
 31
0.0
  0
LINE
  5
4137
330
4127
100
AcDbEntity
  8
0
 62
     0
100
AcDbLine
 10
-621.8089792035727
 20
381.5755432976978
 30
0.0
 11
-615.0348342961567
 21
388.3496882051137
 31
0.0
  0
LINE
  5
4138
330
4127
100
AcDbEntity
  8
0
 62
     0
100
AcDbLine
 10
-614.480165798171
 20
388.9043567030995
 30
0.0
 11
-612.8532407135801
 21
390.5312817876902
 31
0.0
  0
LINE
  5
4139
330
4127
100
AcDbEntity
  8
0
 62
     0
100
AcDbLine
 10
-615.4450181728937
 20
381.5755432976978
 30
0.0
 11
-615.1101886743478
 21
381.9103727962438
 31
0.0
  0
LINE
  5
413A
330
4127
100
AcDbEntity
  8
0
 62
     0
100
AcDbLine
 10
-627.1122800642517
 20
381.5755432976976
 30
0.0
 11
-614.2220901596507
 21
394.4657332022986
 31
0.0
  0
LINE
  5
413B
330
4127
100
AcDbEntity
  8
0
 62
     0
100
AcDbLine
 10
-628.4449997445888
 20
386.6067846480396
 30
0.0
 11
-618.6055359506507
 21
396.4462484419773
 31
0.0
  0
LINE
  5
413C
330
4127
100
AcDbEntity
  8
0
 62
     0
100
AcDbLine
 10
-628.4449997445888
 20
392.9707456787186
 30
0.0
 11
-624.9694969813297
 21
396.4462484419773
 31
0.0
  0
LINE
  5
413D
330
4127
100
AcDbEntity
  8
0
 62
     0
100
AcDbLine
 10
-620.7483190335728
 20
381.5755432976978
 30
0.0
 11
-614.9847325819527
 21
387.3391297493178
 31
0.0
  0
LINE
  5
413E
330
4127
100
AcDbEntity
  8
0
 62
     0
100
AcDbLine
 10
-614.817412534428
 20
387.5064497968425
 30
0.0
 11
-613.1904874498372
 21
389.133374881433
 31
0.0
  0
ENDBLK
  5
4140
330
4127
100
AcDbEntity
  8
0
100
AcDbBlockEnd
  0
BLOCK
  5
4193
330
4141
100
AcDbEntity
  8
0
100
AcDbBlockBegin
  2
BODY
 70
     0
 10
0.0
 20
0.0
 30
0.0
  3
BODY
  1

  0
LINE
  5
4142
330
4141
100
AcDbEntity
  8
1
100
AcDbLine
 10
2879.449670451817
 20
1037.376563944991
 30
0.0
 11
2879.449670451819
 21
963.461743449452
 31
0.0
  0
LINE
  5
4143
330
4141
100
AcDbEntity
  8
1
100
AcDbLine
 10
2880.949670451817
 20
1037.376563944991
 30
0.0
 11
2880.949670451819
 21
963.4617434494513
 31
0.0
  0
LINE
  5
4144
330
4141
100
AcDbEntity
  8
1
100
AcDbLine
 10
2988.949670451818
 20
1037.376563944991
 30
0.0
 11
2988.949670451816
 21
963.3957679859951
 31
0.0
  0
LINE
  5
4145
330
4141
100
AcDbEntity
  8
1
100
AcDbLine
 10
2990.449670451818
 20
1037.376563944991
 30
0.0
 11
2990.449670451815
 21
963.3957679859951
 31
0.0
  0
LINE
  5
4146
330
4141
100
AcDbEntity
  8
1
100
AcDbLine
 10
2881.90156175463
 20
956.4581037357163
 30
0.0
 11
2988.020876377255
 21
956.4581037357163
 31
0.0
  0
LINE
  5
4147
330
4141
100
AcDbEntity
  8
1
100
AcDbLine
 10
2880.949670451819
 20
963.461743449452
 30
0.0
 11
2883.40156175463
 21
956.4581037357163
 31
0.0
  0
LINE
  5
4148
330
4141
100
AcDbEntity
  8
1
100
AcDbLine
 10
2879.449670451819
 20
963.461743449452
 30
0.0
 11
2881.90156175463
 21
956.4581037357163
 31
0.0
  0
LINE
  5
4149
330
4141
100
AcDbEntity
  8
1
100
AcDbLine
 10
2988.961219065941
 20
963.4287557177232
 30
0.0
 11
2986.520876377255
 21
956.4581037357163
 31
0.0
  0
LINE
  5
414A
330
4141
100
AcDbEntity
  8
1
100
AcDbLine
 10
2990.449670451815
 20
963.3957679859951
 30
0.0
 11
2988.020876377255
 21
956.4581037357163
 31
0.0
  0
LINE
  5
414B
330
4141
100
AcDbEntity
  8
1
100
AcDbLine
 10
2859.949670451817
 20
1140.87656394499
 30
0.0
 11
2859.949670451817
 21
1046.876563944991
 31
0.0
  0
LINE
  5
414C
330
4141
100
AcDbEntity
  8
1
100
AcDbLine
 10
2860.949670451818
 20
1140.87656394499
 30
0.0
 11
2860.949670451818
 21
1047.521747808954
 31
0.0
  0
LINE
  5
414D
330
4141
100
AcDbEntity
  8
1
100
AcDbLine
 10
2860.949670451818
 20
1047.521747808954
 30
0.0
 11
2881.949670451818
 21
1038.021747808953
 31
0.0
  0
LINE
  5
414E
330
4141
100
AcDbEntity
  8
1
100
AcDbLine
 10
2859.949670451817
 20
1046.876563944991
 30
0.0
 11
2880.949670451817
 21
1037.376563944991
 31
0.0
  0
LINE
  5
414F
330
4141
100
AcDbEntity
  8
1
100
AcDbLine
 10
2881.949670451818
 20
1038.021747808953
 30
0.0
 11
2881.949670451818
 21
1029.87656394499
 31
0.0
  0
LINE
  5
4150
330
4141
100
AcDbEntity
  8
1
100
AcDbLine
 10
2880.949670451817
 20
1037.376563944991
 30
0.0
 11
2879.449670451817
 21
1037.376563944991
 31
0.0
  0
LINE
  5
4151
330
4141
100
AcDbEntity
  8
1
100
AcDbLine
 10
3008.949670451817
 20
1140.87656394499
 30
0.0
 11
3008.949670451817
 21
1047.521747808954
 31
0.0
  0
LINE
  5
4152
330
4141
100
AcDbEntity
  8
1
100
AcDbLine
 10
3009.949670451817
 20
1140.87656394499
 30
0.0
 11
3009.949670451817
 21
1046.876563944991
 31
0.0
  0
LINE
  5
4153
330
4141
100
AcDbEntity
  8
1
100
AcDbLine
 10
3009.949670451817
 20
1046.876563944991
 30
0.0
 11
2988.949670451818
 21
1037.376563944991
 31
0.0
  0
LINE
  5
4154
330
4141
100
AcDbEntity
  8
1
100
AcDbLine
 10
3008.949670451817
 20
1047.521747808954
 30
0.0
 11
2987.949670451818
 21
1038.021747808953
 31
0.0
  0
LINE
  5
4155
330
4141
100
AcDbEntity
  8
1
100
AcDbLine
 10
2988.949670451818
 20
1037.376563944991
 30
0.0
 11
2990.449670451818
 21
1037.376563944991
 31
0.0
  0
LINE
  5
4156
330
4141
100
AcDbEntity
  8
1
100
AcDbLine
 10
2987.949670451818
 20
1038.021747808953
 30
0.0
 11
2987.949670451818
 21
1029.87656394499
 31
0.0
  0
LWPOLYLINE
  5
4157
330
4141
100
AcDbEntity
  8
1
100
AcDbPolyline
 90
        5
 70
     0
 43
0.0
 10
2876.798522128624
 20
1128.495116010886
 10
2875.60113468058
 20
1126.770002547996
 10
2875.60113468058
 20
1125.973348407993
 10
2875.60113468058
 20
1125.375857802991
 10
2875.867325671747
 20
1124.573973951903
  0
LINE
  5
4158
330
4141
100
AcDbEntity
  8
1
100
AcDbLine
 10
2861.245195599236
 20
1124.200043446556
 30
0.0
 11
2861.245195599236
 21
1130.200043446556
 31
0.0
  0
LINE
  5
4159
330
4141
100
AcDbEntity
  8
1
100
AcDbLine
 10
2862.131361557112
 20
1124.700043446556
 30
0.0
 11
2862.131361557112
 21
1130.200043446556
 31
0.0
  0
LINE
  5
415A
330
4141
100
AcDbEntity
  8
1
100
AcDbLine
 10
2862.421365591623
 20
1124.573973951903
 30
0.0
 11
2862.421365591623
 21
1130.431495219814
 31
0.0
  0
INSERT
  5
415B
330
4141
100
AcDbEntity
  8
1
100
AcDbBlockReference
  2
*X3
 10
3490.866365336211
 20
742.9984306542053
 30
0.0
  0
LINE
  5
415C
330
4141
100
AcDbEntity
  8
1
100
AcDbLine
 10
2877.972065105573
 20
1123.200043446556
 30
0.0
 11
2862.245195599236
 21
1123.200043446556
 31
0.0
  0
LINE
  5
415D
330
4141
100
AcDbEntity
  8
1
100
AcDbLine
 10
2877.972065105573
 20
1124.200043446556
 30
0.0
 11
2862.631361557111
 21
1124.200043446556
 31
0.0
  0
LINE
  5
415E
330
4141
100
AcDbEntity
  8
1
100
AcDbLine
 10
2862.421365591623
 20
1124.573973951903
 30
0.0
 11
2875.867325671747
 21
1124.573973951903
 31
0.0
  0
ARC
  5
415F
330
4141
100
AcDbEntity
  8
1
100
AcDbCircle
 10
2862.631361557111
 20
1124.700043446556
 30
0.0
 40
0.5
100
AcDbArc
 50
180.0
 51
270.0
  0
ARC
  5
4160
330
4141
100
AcDbEntity
  8
1
100
AcDbCircle
 10
2862.245195599236
 20
1124.200043446556
 30
0.0
 40
1.0
100
AcDbArc
 50
180.0
 51
270.0
  0
LINE
  5
4161
330
4141
100
AcDbEntity
  8
1
100
AcDbLine
 10
2877.972065105573
 20
1124.200043446556
 30
0.0
 11
2877.972065105573
 21
1123.200043446556
 31
0.0
  0
LINE
  5
4162
330
4141
100
AcDbEntity
  8
1
100
AcDbLine
 10
2862.421365591623
 20
1139.444679096183
 30
0.0
 11
2876.186055250807
 21
1139.444679096183
 31
0.0
  0
LINE
  5
4163
330
4141
100
AcDbEntity
  8
1
100
AcDbLine
 10
2877.972065105572
 20
1139.849975431699
 30
0.0
 11
2862.631361557111
 21
1139.849975431699
 31
0.0
  0
LINE
  5
4164
330
4141
100
AcDbEntity
  8
1
100
AcDbLine
 10
2877.972065105572
 20
1140.849975431698
 30
0.0
 11
2862.245195599236
 21
1140.849975431698
 31
0.0
  0
LINE
  5
4165
330
4141
100
AcDbEntity
  8
1
100
AcDbLine
 10
2859.949670451817
 20
1140.87656394499
 30
0.0
 11
2860.949670451818
 21
1140.87656394499
 31
0.0
  0
LINE
  5
4166
330
4141
100
AcDbEntity
  8
1
100
AcDbLine
 10
2862.421365591623
 20
1139.444679096183
 30
0.0
 11
2862.421365591623
 21
1133.624189639103
 31
0.0
  0
LINE
  5
4167
330
4141
100
AcDbEntity
  8
1
100
AcDbLine
 10
2861.245195599236
 20
1139.849975431699
 30
0.0
 11
2861.245195599236
 21
1133.849975431699
 31
0.0
  0
LINE
  5
4168
330
4141
100
AcDbEntity
  8
1
100
AcDbLine
 10
2862.131361557112
 20
1139.349975431698
 30
0.0
 11
2862.131361557112
 21
1133.849975431699
 31
0.0
  0
LINE
  5
4169
330
4141
100
AcDbEntity
  8
1
100
AcDbLine
 10
2862.421365591623
 20
1133.624189639103
 30
0.0
 11
2861.329313692555
 21
1133.624189639103
 31
0.0
  0
LINE
  5
416A
330
4141
100
AcDbEntity
  8
1
100
AcDbLine
 10
2862.131361557112
 20
1133.849975431699
 30
0.0
 11
2861.245195599236
 21
1133.849975431699
 31
0.0
  0
ARC
  5
416B
330
4141
100
AcDbEntity
  8
1
100
AcDbCircle
 10
2862.631361557111
 20
1139.349975431698
 30
0.0
 40
0.5
100
AcDbArc
 50
90.0
 51
180.0
  0
LINE
  5
416C
330
4141
100
AcDbEntity
  8
1
100
AcDbLine
 10
2862.131361557112
 20
1130.200043446556
 30
0.0
 11
2861.245195599236
 21
1130.200043446556
 31
0.0
  0
LINE
  5
416D
330
4141
100
AcDbEntity
  8
1
100
AcDbLine
 10
2862.421365591623
 20
1130.431495219814
 30
0.0
 11
2861.329313692555
 21
1130.431495219814
 31
0.0
  0
LINE
  5
416E
330
4141
100
AcDbEntity
  8
1
100
AcDbLine
 10
2861.329313692555
 20
1133.624189639103
 30
0.0
 11
2861.329313692555
 21
1130.431495219814
 31
0.0
  0
ARC
  5
416F
330
4141
100
AcDbEntity
  8
1
100
AcDbCircle
 10
2862.245195599236
 20
1139.849975431699
 30
0.0
 40
1.0
100
AcDbArc
 50
90.0
 51
180.0
  0
ARC
  5
4170
330
4141
100
AcDbEntity
  8
1
100
AcDbCircle
 10
2877.766284690739
 20
1135.064932852368
 30
0.0
 40
0.5999999999999909
100
AcDbArc
 50
346.43650119414
 51
166.4365011941463
  0
LWPOLYLINE
  5
4171
330
4141
100
AcDbEntity
  8
1
100
AcDbPolyline
 90
        7
 70
     0
 43
0.0
 10
2876.186055250807
 20
1139.444679096183
 10
2876.660957934162
 20
1137.392057748035
 10
2876.753116477951
 20
1135.533198088028
 10
2876.154085943319
 20
1133.408787048019
 10
2875.831531040054
 20
1131.549927388014
 10
2875.831531040054
 20
1130.55410971301
 10
2875.943781744325
 20
1130.068940435167
  0
LINE
  5
4172
330
4141
100
AcDbEntity
  8
1
100
AcDbLine
 10
2875.943781744325
 20
1130.068940435167
 30
0.0
 11
2877.18301832811
 21
1135.205646569629
 31
0.0
  0
LINE
  5
4173
330
4141
100
AcDbEntity
  8
1
100
AcDbLine
 10
2876.798522128624
 20
1128.495116010886
 30
0.0
 11
2878.349551053368
 21
1134.924219135106
 31
0.0
  0
LINE
  5
4174
330
4141
100
AcDbEntity
  8
1
100
AcDbLine
 10
2877.972065105572
 20
1140.849975431698
 30
0.0
 11
2877.972065105572
 21
1139.849975431699
 31
0.0
  0
LINE
  5
4175
330
4141
100
AcDbEntity
  8
1
100
AcDbLine
 10
3007.477975312011
 20
1124.573973951903
 30
0.0
 11
3007.477975312011
 21
1130.431495219814
 31
0.0
  0
LINE
  5
4176
330
4141
100
AcDbEntity
  8
1
100
AcDbLine
 10
3008.654145304399
 20
1124.200043446556
 30
0.0
 11
3008.654145304399
 21
1130.200043446556
 31
0.0
  0
LINE
  5
4177
330
4141
100
AcDbEntity
  8
1
100
AcDbLine
 10
3007.767979346522
 20
1124.700043446556
 30
0.0
 11
3007.767979346522
 21
1130.200043446556
 31
0.0
  0
LWPOLYLINE
  5
4178
330
4141
100
AcDbEntity
  8
1
100
AcDbPolyline
 90
        5
 70
     0
 43
0.0
 10
2993.10081877501
 20
1128.495116010886
 10
2994.298206223054
 20
1126.770002547996
 10
2994.298206223054
 20
1125.973348407993
 10
2994.298206223054
 20
1125.375857802991
 10
2994.032015231887
 20
1124.573973951903
  0
INSERT
  5
4179
330
4141
100
AcDbEntity
  8
1
100
AcDbBlockReference
  2
*X3
 10
2379.032975567422
 20
742.9984306542053
 30
0.0
 41
-1.0
  0
ARC
  5
417A
330
4141
100
AcDbEntity
  8
1
100
AcDbCircle
 10
3007.267979346522
 20
1124.700043446556
 30
0.0
 40
0.5
100
AcDbArc
 50
270.0
 51
0.0
  0
LINE
  5
417B
330
4141
100
AcDbEntity
  8
1
100
AcDbLine
 10
2991.927275798062
 20
1124.200043446556
 30
0.0
 11
2991.927275798062
 21
1123.200043446556
 31
0.0
  0
LINE
  5
417C
330
4141
100
AcDbEntity
  8
1
100
AcDbLine
 10
3007.477975312011
 20
1124.573973951903
 30
0.0
 11
2994.032015231887
 21
1124.573973951903
 31
0.0
  0
LINE
  5
417D
330
4141
100
AcDbEntity
  8
1
100
AcDbLine
 10
2991.927275798062
 20
1123.200043446556
 30
0.0
 11
3007.654145304398
 21
1123.200043446556
 31
0.0
  0
LINE
  5
417E
330
4141
100
AcDbEntity
  8
1
100
AcDbLine
 10
2991.927275798062
 20
1124.200043446556
 30
0.0
 11
3007.267979346522
 21
1124.200043446556
 31
0.0
  0
ARC
  5
417F
330
4141
100
AcDbEntity
  8
1
100
AcDbCircle
 10
3007.654145304398
 20
1124.200043446556
 30
0.0
 40
1.0
100
AcDbArc
 50
270.0
 51
0.0
  0
LINE
  5
4180
330
4141
100
AcDbEntity
  8
1
100
AcDbLine
 10
3009.949670451817
 20
1140.87656394499
 30
0.0
 11
3008.949670451817
 21
1140.87656394499
 31
0.0
  0
LINE
  5
4181
330
4141
100
AcDbEntity
  8
1
100
AcDbLine
 10
2991.927275798062
 20
1140.849975431698
 30
0.0
 11
3007.654145304398
 21
1140.849975431698
 31
0.0
  0
LINE
  5
4182
330
4141
100
AcDbEntity
  8
1
100
AcDbLine
 10
3007.477975312011
 20
1139.444679096183
 30
0.0
 11
3007.477975312011
 21
1133.624189639103
 31
0.0
  0
LINE
  5
4183
330
4141
100
AcDbEntity
  8
1
100
AcDbLine
 10
3007.767979346522
 20
1139.349975431698
 30
0.0
 11
3007.767979346522
 21
1133.849975431699
 31
0.0
  0
LINE
  5
4184
330
4141
100
AcDbEntity
  8
1
100
AcDbLine
 10
3008.654145304399
 20
1139.849975431699
 30
0.0
 11
3008.654145304399
 21
1133.849975431699
 31
0.0
  0
LINE
  5
4185
330
4141
100
AcDbEntity
  8
1
100
AcDbLine
 10
3007.477975312011
 20
1133.624189639103
 30
0.0
 11
3008.57002721108
 21
1133.624189639103
 31
0.0
  0
LINE
  5
4186
330
4141
100
AcDbEntity
  8
1
100
AcDbLine
 10
3007.767979346522
 20
1133.849975431699
 30
0.0
 11
3008.654145304399
 21
1133.849975431699
 31
0.0
  0
ARC
  5
4187
330
4141
100
AcDbEntity
  8
1
100
AcDbCircle
 10
3007.267979346522
 20
1139.349975431698
 30
0.0
 40
0.5
100
AcDbArc
 50
0.0
 51
90.0
  0
LINE
  5
4188
330
4141
100
AcDbEntity
  8
1
100
AcDbLine
 10
3007.477975312011
 20
1130.431495219814
 30
0.0
 11
3008.57002721108
 21
1130.431495219814
 31
0.0
  0
LINE
  5
4189
330
4141
100
AcDbEntity
  8
1
100
AcDbLine
 10
3007.767979346522
 20
1130.200043446556
 30
0.0
 11
3008.654145304399
 21
1130.200043446556
 31
0.0
  0
LINE
  5
418A
330
4141
100
AcDbEntity
  8
1
100
AcDbLine
 10
3008.57002721108
 20
1133.624189639103
 30
0.0
 11
3008.57002721108
 21
1130.431495219814
 31
0.0
  0
ARC
  5
418B
330
4141
100
AcDbEntity
  8
1
100
AcDbCircle
 10
2992.133056212896
 20
1135.064932852368
 30
0.0
 40
0.5999999999999909
100
AcDbArc
 50
13.56349880585365
 51
193.56349880586
  0
LWPOLYLINE
  5
418C
330
4141
100
AcDbEntity
  8
1
100
AcDbPolyline
 90
        7
 70
     0
 43
0.0
 10
2993.713285652829
 20
1139.444679096183
 10
2993.238382969473
 20
1137.392057748035
 10
2993.146224425683
 20
1135.533198088028
 10
2993.745254960316
 20
1133.408787048019
 10
2994.06780986358
 20
1131.549927388014
 10
2994.06780986358
 20
1130.55410971301
 10
2993.95555915931
 20
1130.068940435167
  0
LINE
  5
418D
330
4141
100
AcDbEntity
  8
1
100
AcDbLine
 10
2993.95555915931
 20
1130.068940435167
 30
0.0
 11
2992.716322575525
 21
1135.205646569629
 31
0.0
  0
LINE
  5
418E
330
4141
100
AcDbEntity
  8
1
100
AcDbLine
 10
2993.10081877501
 20
1128.495116010886
 30
0.0
 11
2991.549789850266
 21
1134.924219135106
 31
0.0
  0
LINE
  5
418F
330
4141
100
AcDbEntity
  8
1
100
AcDbLine
 10
3007.477975312011
 20
1139.444679096183
 30
0.0
 11
2993.713285652829
 21
1139.444679096183
 31
0.0
  0
LINE
  5
4190
330
4141
100
AcDbEntity
  8
1
100
AcDbLine
 10
2991.927275798062
 20
1139.849975431699
 30
0.0
 11
3007.267979346522
 21
1139.849975431699
 31
0.0
  0
LINE
  5
4191
330
4141
100
AcDbEntity
  8
1
100
AcDbLine
 10
2991.927275798062
 20
1140.849975431698
 30
0.0
 11
2991.927275798062
 21
1139.849975431699
 31
0.0
  0
ARC
  5
4192
330
4141
100
AcDbEntity
  8
1
100
AcDbCircle
 10
3007.654145304398
 20
1139.849975431699
 30
0.0
 40
1.0
100
AcDbArc
 50
0.0
 51
90.0
  0
ENDBLK
  5
4194
330
4141
100
AcDbEntity
  8
0
100
AcDbBlockEnd
  0
BLOCK
  5
41AA
330
419F
100
AcDbEntity
  8
0
100
AcDbBlockBegin
  2
*D5
 70
     1
 10
0.0
 20
0.0
 30
0.0
  3
*D5
  1

  0
LINE
  5
4A3A
330
419F
100
AcDbEntity
  8
1
 62
     0
370
    -2
100
AcDbLine
 10
-866.947736875706
 20
742.0867711889825
 30
0.0
 11
-940.0657736501944
 21
742.0867711889825
 31
0.0
  0
LINE
  5
4A3B
330
419F
100
AcDbEntity
  8
1
 62
     0
370
    -2
100
AcDbLine
 10
-838.9958455728937
 20
536.3884616803543
 30
0.0
 11
-940.0657736501944
 21
536.3884616803543
 31
0.0
  0
LINE
  5
4A3C
330
419F
100
AcDbEntity
  8
1
 62
     0
370
    -2
100
AcDbLine
 10
-934.6657736501944
 20
735.1867711889825
 30
0.0
 11
-934.6657736501944
 21
656.9632743294051
 31
0.0
  0
LINE
  5
4A3D
330
419F
100
AcDbEntity
  8
1
 62
     0
370
    -2
100
AcDbLine
 10
-934.6657736501944
 20
543.2884616803542
 30
0.0
 11
-934.6657736501944
 21
621.5119585399312
 31
0.0
  0
SOLID
  5
4A3E
330
419F
100
AcDbEntity
  8
1
 62
     0
100
AcDbTrace
 10
-935.8157736501944
 20
735.1867711889825
 30
0.0
 11
-933.5157736501944
 21
735.1867711889825
 31
0.0
 12
-934.6657736501944
 22
742.0867711889825
 32
0.0
 13
-934.6657736501944
 23
742.0867711889825
 33
0.0
  0
SOLID
  5
4A3F
330
419F
100
AcDbEntity
  8
1
 62
     0
100
AcDbTrace
 10
-935.8157736501944
 20
543.2884616803542
 30
0.0
 11
-933.5157736501944
 21
543.2884616803542
 31
0.0
 12
-934.6657736501944
 22
536.3884616803543
 32
0.0
 13
-934.6657736501944
 23
536.3884616803543
 33
0.0
  0
MTEXT
  5
4A40
330
419F
100
AcDbEntity
  8
1
 62
     0
100
AcDbMText
 10
-934.6657736501946
 20
639.2376164346683
 30
0.0
 40
6.899999999999997
 41
0.0
 71
     5
 72
     1
  1
\A1;200\PTO\P250
 73
     1
 44
1.0
  0
POINT
  5
4A41
330
419F
100
AcDbEntity
  8
DEFPOINTS
 62
     0
100
AcDbPoint
 10
-863.3477368757059
 20
742.0867711889825
 30
0.0
  0
POINT
  5
4A42
330
419F
100
AcDbEntity
  8
DEFPOINTS
 62
     0
100
AcDbPoint
 10
-835.3958455728937
 20
536.3884616803543
 30
0.0
  0
POINT
  5
4A43
330
419F
100
AcDbEntity
  8
DEFPOINTS
 62
     0
100
AcDbPoint
 10
-934.6657736501944
 20
536.3884616803543
 30
0.0
  0
ENDBLK
  5
41AB
330
419F
100
AcDbEntity
  8
0
100
AcDbBlockEnd
  0
BLOCK
  5
41CB
330
41C1
100
AcDbEntity
  8
0
100
AcDbBlockBegin
  2
*D6
 70
     1
 10
0.0
 20
0.0
 30
0.0
  3
*D6
  1

  0
LINE
  5
4AC2
330
41C1
100
AcDbEntity
  8
1
 62
     0
370
    -2
100
AcDbLine
 10
-837.8477368757042
 20
502.1992998461364
 30
0.0
 11
-837.8477368757042
 21
463.9937152252499
 31
0.0
  0
LINE
  5
4AC3
330
41C1
100
AcDbEntity
  8
1
 62
     0
370
    -2
100
AcDbLine
 10
-726.8477368757087
 20
502.1333243826795
 30
0.0
 11
-726.8477368757087
 21
463.9937152252499
 31
0.0
  0
LINE
  5
4AC4
330
41C1
100
AcDbEntity
  8
1
 62
     0
370
    -2
100
AcDbLine
 10
-830.9477368757042
 20
469.3937152252499
 30
0.0
 11
-733.7477368757086
 21
469.3937152252499
 31
0.0
  0
SOLID
  5
4AC5
330
41C1
100
AcDbEntity
  8
1
 62
     0
100
AcDbTrace
 10
-830.9477368757042
 20
470.5437152252499
 30
0.0
 11
-830.9477368757042
 21
468.2437152252499
 31
0.0
 12
-837.8477368757042
 22
469.3937152252499
 32
0.0
 13
-837.8477368757042
 23
469.3937152252499
 33
0.0
  0
SOLID
  5
4AC6
330
41C1
100
AcDbEntity
  8
1
 62
     0
100
AcDbTrace
 10
-733.7477368757086
 20
470.5437152252499
 30
0.0
 11
-733.7477368757086
 21
468.2437152252499
 31
0.0
 12
-726.8477368757087
 22
469.3937152252499
 32
0.0
 13
-726.8477368757087
 23
469.3937152252499
 33
0.0
  0
MTEXT
  5
4AC7
330
41C1
100
AcDbEntity
  8
1
 62
     0
100
AcDbMText
 10
-782.3477368757064
 20
475.8614783831446
 30
0.0
 40
6.9
 41
0.0
 71
     5
 72
     1
  1
\A1;%%C110
 73
     1
 44
1.0
  0
POINT
  5
4AC8
330
41C1
100
AcDbEntity
  8
DEFPOINTS
 62
     0
100
AcDbPoint
 10
-837.8477368757042
 20
505.7992998461364
 30
0.0
  0
POINT
  5
4AC9
330
41C1
100
AcDbEntity
  8
DEFPOINTS
 62
     0
100
AcDbPoint
 10
-726.8477368757087
 20
505.7333243826795
 30
0.0
  0
POINT
  5
4ACA
330
41C1
100
AcDbEntity
  8
DEFPOINTS
 62
     0
100
AcDbPoint
 10
-726.8477368757087
 20
469.3937152252499
 30
0.0
  0
ENDBLK
  5
41CC
330
41C1
100
AcDbEntity
  8
0
100
AcDbBlockEnd
  0
BLOCK
  5
41F2
330
41E7
100
AcDbEntity
  8
0
100
AcDbBlockBegin
  2
*X7
 70
     1
 10
0.0
 20
0.0
 30
0.0
  3
*X7
  1

  0
LINE
  5
41E8
330
41E7
100
AcDbEntity
  8
0
 62
     0
100
AcDbLine
 10
-650.153379952022
 20
437.4652378605365
 30
0.0
 11
-649.1647996537116
 21
438.4538181588468
 31
0.0
  0
LINE
  5
41E9
330
41E7
100
AcDbEntity
  8
0
 62
     0
100
AcDbLine
 10
-650.3922663497237
 20
437.6682932010764
 30
0.0
 11
-649.6067413919531
 21
438.4538181588468
 31
0.0
  0
LINE
  5
41EA
330
41E7
100
AcDbEntity
  8
0
 62
     0
100
AcDbLine
 10
-650.6311527474252
 20
437.8713485416162
 30
0.0
 11
-650.0486831301948
 21
438.4538181588468
 31
0.0
  0
LINE
  5
41EB
330
41E7
100
AcDbEntity
  8
0
 62
     0
100
AcDbLine
 10
-650.870039145127
 20
438.0744038821561
 30
0.0
 11
-650.4906248684362
 21
438.4538181588468
 31
0.0
  0
LINE
  5
41EC
330
41E7
100
AcDbEntity
  8
0
 62
     0
100
AcDbLine
 10
-651.1089255428287
 20
438.277459222696
 30
0.0
 11
-650.9325666066778
 21
438.4538181588468
 31
0.0
  0
LINE
  5
41ED
330
41E7
100
AcDbEntity
  8
0
 62
     0
100
AcDbLine
 10
-651.3745083449195
 20
438.4538181588468
 30
0.0
 11
-651.3478119405305
 21
438.4805145632356
 31
0.0
  0
LINE
  5
41EE
330
41E7
100
AcDbEntity
  8
0
 62
     0
100
AcDbLine
 10
-649.9144935543202
 20
437.2621825199963
 30
0.0
 11
-649.0848307404241
 21
438.0918453338925
 31
0.0
  0
LINE
  5
41EF
330
41E7
100
AcDbEntity
  8
0
 62
     0
100
AcDbLine
 10
-649.6756071566185
 20
437.0591271794567
 30
0.0
 11
-649.0848307404241
 21
437.6499035956511
 31
0.0
  0
LINE
  5
41F0
330
41E7
100
AcDbEntity
  8
0
 62
     0
100
AcDbLine
 10
-649.4367207589167
 20
436.8560718389169
 30
0.0
 11
-649.0848307404241
 21
437.2079618574096
 31
0.0
  0
LINE
  5
41F1
330
41E7
100
AcDbEntity
  8
0
 62
     0
100
AcDbLine
 10
-649.1978343612148
 20
436.6530164983768
 30
0.0
 11
-649.0848307404241
 21
436.766020119168
 31
0.0
  0
ENDBLK
  5
41F3
330
41E7
100
AcDbEntity
  8
0
100
AcDbBlockEnd
  0
BLOCK
  5
4202
330
41F4
100
AcDbEntity
  8
0
100
AcDbBlockBegin
  2
*X8
 70
     1
 10
0.0
 20
0.0
 30
0.0
  3
*X8
  1

  0
LINE
  5
41F5
330
41F4
100
AcDbEntity
  8
0
 62
     0
100
AcDbLine
 10
-674.5172693334621
 20
437.9384741682738
 30
0.0
 11
-674.0523376987631
 21
438.4034058029727
 31
0.0
  0
LINE
  5
41F6
330
41F4
100
AcDbEntity
  8
0
 62
     0
100
AcDbLine
 10
-674.6176990937306
 20
438.0148211033018
 30
0.0
 11
-674.2291143940597
 21
438.4034058029727
 31
0.0
  0
LINE
  5
41F7
330
41F4
100
AcDbEntity
  8
0
 62
     0
100
AcDbLine
 10
-674.718128853999
 20
438.0911680383301
 30
0.0
 11
-674.4058910893564
 21
438.4034058029727
 31
0.0
  0
LINE
  5
41F8
330
41F4
100
AcDbEntity
  8
0
 62
     0
100
AcDbLine
 10
-674.8185586142673
 20
438.1675149733584
 30
0.0
 11
-674.582667784653
 21
438.4034058029727
 31
0.0
  0
LINE
  5
41F9
330
41F4
100
AcDbEntity
  8
0
 62
     0
100
AcDbLine
 10
-674.9189883745359
 20
438.2438619083865
 30
0.0
 11
-674.7594444799497
 21
438.4034058029727
 31
0.0
  0
LINE
  5
41FA
330
41F4
100
AcDbEntity
  8
0
 62
     0
100
AcDbLine
 10
-675.0194181348042
 20
438.3202088434146
 30
0.0
 11
-674.9362211752464
 21
438.4034058029727
 31
0.0
  0
LINE
  5
41FB
330
41F4
100
AcDbEntity
  8
0
 62
     0
100
AcDbLine
 10
-675.1198478950727
 20
438.3965557784428
 30
0.0
 11
-675.1129978705429
 21
438.4034058029727
 31
0.0
  0
LINE
  5
41FC
330
41F4
100
AcDbEntity
  8
0
 62
     0
100
AcDbLine
 10
-674.4168395731938
 20
437.8621272332456
 30
0.0
 11
-673.9007159006065
 21
438.3782509058328
 31
0.0
  0
LINE
  5
41FD
330
41F4
100
AcDbEntity
  8
0
 62
     0
100
AcDbLine
 10
-674.3164098129252
 20
437.7857802982173
 30
0.0
 11
-673.9007159006065
 21
438.2014742105361
 31
0.0
  0
LINE
  5
41FE
330
41F4
100
AcDbEntity
  8
0
 62
     0
100
AcDbLine
 10
-674.2159800526567
 20
437.7094333631892
 30
0.0
 11
-673.9007159006065
 21
438.0246975152394
 31
0.0
  0
LINE
  5
41FF
330
41F4
100
AcDbEntity
  8
0
 62
     0
100
AcDbLine
 10
-674.1155502923882
 20
437.633086428161
 30
0.0
 11
-673.9007159006065
 21
437.8479208199427
 31
0.0
  0
LINE
  5
4200
330
41F4
100
AcDbEntity
  8
0
 62
     0
100
AcDbLine
 10
-674.0151205321199
 20
437.5567394931326
 30
0.0
 11
-673.9007159006065
 21
437.6711441246462
 31
0.0
  0
LINE
  5
4201
330
41F4
100
AcDbEntity
  8
0
 62
     0
100
AcDbLine
 10
-673.9146907718515
 20
437.4803925581046
 30
0.0
 11
-673.9007159006065
 21
437.4943674293496
 31
0.0
  0
ENDBLK
  5
4203
330
41F4
100
AcDbEntity
  8
0
100
AcDbBlockEnd
  0
BLOCK
  5
438B
330
4380
100
AcDbEntity
  8
0
100
AcDbBlockBegin
  2
*D9
 70
     1
 10
0.0
 20
0.0
 30
0.0
  3
*D9
  1

  0
LINE
  5
4ACB
330
4380
100
AcDbEntity
  8
1
 62
     0
370
    -2
100
AcDbLine
 10
-667.2599625158857
 20
600.1643150618669
 30
0.0
 11
-641.9282687269737
 21
600.1643150618669
 31
0.0
  0
LINE
  5
4ACC
330
4380
100
AcDbEntity
  8
1
 62
     0
370
    -2
100
AcDbLine
 10
-667.2599625158857
 20
654.1643150618668
 30
0.0
 11
-641.9282687269737
 21
654.1643150618668
 31
0.0
  0
LINE
  5
4ACD
330
4380
100
AcDbEntity
  8
1
 62
     0
370
    -2
100
AcDbLine
 10
-647.3282687269737
 20
607.0643150618669
 30
0.0
 11
-647.3282687269737
 21
621.6322638686182
 31
0.0
  0
LINE
  5
4ACE
330
4380
100
AcDbEntity
  8
1
 62
     0
370
    -2
100
AcDbLine
 10
-647.3282687269737
 20
647.2643150618668
 30
0.0
 11
-647.3282687269737
 21
634.1743691317762
 31
0.0
  0
SOLID
  5
4ACF
330
4380
100
AcDbEntity
  8
1
 62
     0
100
AcDbTrace
 10
-648.4782687269737
 20
607.0643150618669
 30
0.0
 11
-646.1782687269738
 21
607.0643150618669
 31
0.0
 12
-647.3282687269737
 22
600.1643150618669
 32
0.0
 13
-647.3282687269737
 23
600.1643150618669
 33
0.0
  0
SOLID
  5
4AD0
330
4380
100
AcDbEntity
  8
1
 62
     0
100
AcDbTrace
 10
-648.4782687269737
 20
647.2643150618668
 30
0.0
 11
-646.1782687269738
 21
647.2643150618668
 31
0.0
 12
-647.3282687269737
 22
654.1643150618668
 32
0.0
 13
-647.3282687269737
 23
654.1643150618668
 33
0.0
  0
MTEXT
  5
4AD1
330
4380
100
AcDbEntity
  8
1
 62
     0
100
AcDbMText
 10
-647.3282687269739
 20
627.9033165001971
 30
0.0
 40
6.9
 41
0.0
 71
     5
 72
     1
  1
\A1;1.5" BSP
 73
     1
 44
1.0
  0
POINT
  5
4AD2
330
4380
100
AcDbEntity
  8
DEFPOINTS
 62
     0
100
AcDbPoint
 10
-670.8599625158857
 20
600.1643150618669
 30
0.0
  0
POINT
  5
4AD3
330
4380
100
AcDbEntity
  8
DEFPOINTS
 62
     0
100
AcDbPoint
 10
-670.8599625158857
 20
654.1643150618668
 30
0.0
  0
POINT
  5
4AD4
330
4380
100
AcDbEntity
  8
DEFPOINTS
 62
     0
100
AcDbPoint
 10
-647.3282687269737
 20
654.1643150618668
 30
0.0
  0
ENDBLK
  5
438C
330
4380
100
AcDbEntity
  8
0
100
AcDbBlockEnd
  0
BLOCK
  5
475A
330
4748
100
AcDbEntity
  8
0
100
AcDbBlockBegin
  2
Slotted Flathead Screw - 10 x 20 mm side
 70
     2
 10
0.0
 20
0.0
 30
0.0
  3
Slotted Flathead Screw - 10 x 20 mm side
  1
FLAT_HEAD_10X20MM_SIDE
  4
DesignCenter Metric Fasteners example
  0
LINE
  5
4749
330
4748
100
AcDbEntity
  8
0
  6
Continuous
 62
     0
100
AcDbLine
 10
19.68499999999998
 20
-3.297237499999993
 30
0.0
 11
19.68499999999998
 21
3.297237500000008
 31
0.0
  0
LINE
  5
474A
330
4748
100
AcDbEntity
  8
0
  6
Continuous
 62
     0
100
AcDbLine
 10
18.0609875
 20
-4.921249999999998
 30
0.0
 11
18.0609875
 21
4.921250000000012
 31
0.0
  0
LINE
  5
474B
330
4748
100
AcDbEntity
  8
0
  6
Continuous
 62
     0
100
AcDbLine
 10
4.921249999999998
 20
4.921249999999998
 30
0.0
 11
4.921249999999998
 21
-4.921249999999998
 31
0.0
  0
LINE
  5
474C
330
4748
100
AcDbEntity
  8
0
  6
Continuous
 62
     0
100
AcDbLine
 10
7.873999999999998
 20
-4.921249999999992
 30
0.0
 11
7.873999999999998
 21
4.921249999999998
 31
0.0
  0
LINE
  5
474D
330
4748
100
AcDbEntity
  8
0
  6
Continuous
 62
     0
100
AcDbLine
 10
0.0
 20
9.842499999999999
 30
0.0
 11
0.0
 21
1.377950000000004
 31
0.0
  0
LINE
  5
474E
330
4748
100
AcDbEntity
  8
0
  6
Continuous
 62
     0
100
AcDbLine
 10
19.68499999999998
 20
-3.297237499999993
 30
0.0
 11
18.0609875
 21
-4.921249999999998
 31
0.0
  0
LINE
  5
474F
330
4748
100
AcDbEntity
  8
0
  6
Continuous
 62
     0
100
AcDbLine
 10
0.0
 20
-9.842499999999999
 30
0.0
 11
4.921249999999998
 21
-4.921249999999998
 31
0.0
  0
LINE
  5
4750
330
4748
100
AcDbEntity
  8
0
  6
Continuous
 62
     0
100
AcDbLine
 10
0.0
 20
-9.842499999999999
 30
0.0
 11
0.0
 21
-1.377950000000004
 31
0.0
  0
LINE
  5
4751
330
4748
100
AcDbEntity
  8
0
  6
DASHED
 62
     0
100
AcDbLine
 10
18.0609875
 20
-3.297237500000001
 30
0.0
 11
7.873999999999998
 21
-3.297237500000001
 31
0.0
  0
LINE
  5
4752
330
4748
100
AcDbEntity
  8
0
  6
Continuous
 62
     0
100
AcDbLine
 10
18.0609875
 20
-4.921249999999998
 30
0.0
 11
4.921249999999998
 21
-4.921249999999998
 31
0.0
  0
LINE
  5
4753
330
4748
100
AcDbEntity
  8
0
  6
Continuous
 62
     0
100
AcDbLine
 10
2.55905
 20
1.377950000000004
 30
0.0
 11
2.55905
 21
-1.377949999999991
 31
0.0
  0
LINE
  5
4754
330
4748
100
AcDbEntity
  8
0
  6
Continuous
 62
     0
100
AcDbLine
 10
0.0
 20
-1.377950000000004
 30
0.0
 11
2.55905
 21
-1.377949999999991
 31
0.0
  0
LINE
  5
4755
330
4748
100
AcDbEntity
  8
0
  6
Continuous
 62
     0
100
AcDbLine
 10
0.0
 20
1.377950000000004
 30
0.0
 11
2.55905
 21
1.377950000000004
 31
0.0
  0
LINE
  5
4756
330
4748
100
AcDbEntity
  8
0
  6
Continuous
 62
     0
100
AcDbLine
 10
19.68499999999998
 20
3.297237500000008
 30
0.0
 11
18.0609875
 21
4.921250000000012
 31
0.0
  0
LINE
  5
4757
330
4748
100
AcDbEntity
  8
0
  6
DASHED
 62
     0
100
AcDbLine
 10
18.0609875
 20
3.297237500000008
 30
0.0
 11
7.873999999999998
 21
3.297237500000008
 31
0.0
  0
LINE
  5
4758
330
4748
100
AcDbEntity
  8
0
  6
Continuous
 62
     0
100
AcDbLine
 10
18.0609875
 20
4.921250000000012
 30
0.0
 11
4.921249999999998
 21
4.921249999999998
 31
0.0
  0
LINE
  5
4759
330
4748
100
AcDbEntity
  8
0
  6
Continuous
 62
     0
100
AcDbLine
 10
0.0
 20
9.842499999999999
 30
0.0
 11
4.921249999999998
 21
4.921249999999998
 31
0.0
  0
ENDBLK
  5
475B
330
4748
100
AcDbEntity
  8
0
100
AcDbBlockEnd
  0
BLOCK
  5
4773
330
4768
100
AcDbEntity
  8
0
100
AcDbBlockBegin
  2
*X11
 70
     1
 10
0.0
 20
0.0
 30
0.0
  3
*X11
  1

  0
LINE
  5
4769
330
4768
100
AcDbEntity
  8
0
 62
     0
100
AcDbLine
 10
-650.153379952022
 20
437.4652378605365
 30
0.0
 11
-649.1647996537116
 21
438.4538181588468
 31
0.0
  0
LINE
  5
476A
330
4768
100
AcDbEntity
  8
0
 62
     0
100
AcDbLine
 10
-650.3922663497237
 20
437.6682932010764
 30
0.0
 11
-649.6067413919531
 21
438.4538181588468
 31
0.0
  0
LINE
  5
476B
330
4768
100
AcDbEntity
  8
0
 62
     0
100
AcDbLine
 10
-650.6311527474252
 20
437.8713485416162
 30
0.0
 11
-650.0486831301948
 21
438.4538181588468
 31
0.0
  0
LINE
  5
476C
330
4768
100
AcDbEntity
  8
0
 62
     0
100
AcDbLine
 10
-650.870039145127
 20
438.0744038821561
 30
0.0
 11
-650.4906248684362
 21
438.4538181588468
 31
0.0
  0
LINE
  5
476D
330
4768
100
AcDbEntity
  8
0
 62
     0
100
AcDbLine
 10
-651.1089255428287
 20
438.277459222696
 30
0.0
 11
-650.9325666066778
 21
438.4538181588468
 31
0.0
  0
LINE
  5
476E
330
4768
100
AcDbEntity
  8
0
 62
     0
100
AcDbLine
 10
-651.3745083449195
 20
438.4538181588468
 30
0.0
 11
-651.3478119405305
 21
438.4805145632356
 31
0.0
  0
LINE
  5
476F
330
4768
100
AcDbEntity
  8
0
 62
     0
100
AcDbLine
 10
-649.9144935543202
 20
437.2621825199963
 30
0.0
 11
-649.0848307404241
 21
438.0918453338925
 31
0.0
  0
LINE
  5
4770
330
4768
100
AcDbEntity
  8
0
 62
     0
100
AcDbLine
 10
-649.6756071566185
 20
437.0591271794567
 30
0.0
 11
-649.0848307404241
 21
437.6499035956511
 31
0.0
  0
LINE
  5
4771
330
4768
100
AcDbEntity
  8
0
 62
     0
100
AcDbLine
 10
-649.4367207589167
 20
436.8560718389169
 30
0.0
 11
-649.0848307404241
 21
437.2079618574096
 31
0.0
  0
LINE
  5
4772
330
4768
100
AcDbEntity
  8
0
 62
     0
100
AcDbLine
 10
-649.1978343612148
 20
436.6530164983768
 30
0.0
 11
-649.0848307404241
 21
436.766020119168
 31
0.0
  0
ENDBLK
  5
4774
330
4768
100
AcDbEntity
  8
0
100
AcDbBlockEnd
  0
BLOCK
  5
4783
330
4775
100
AcDbEntity
  8
0
100
AcDbBlockBegin
  2
*X12
 70
     1
 10
0.0
 20
0.0
 30
0.0
  3
*X12
  1

  0
LINE
  5
4776
330
4775
100
AcDbEntity
  8
0
 62
     0
100
AcDbLine
 10
-674.5172693334621
 20
437.9384741682738
 30
0.0
 11
-674.0523376987631
 21
438.4034058029727
 31
0.0
  0
LINE
  5
4777
330
4775
100
AcDbEntity
  8
0
 62
     0
100
AcDbLine
 10
-674.6176990937306
 20
438.0148211033018
 30
0.0
 11
-674.2291143940597
 21
438.4034058029727
 31
0.0
  0
LINE
  5
4778
330
4775
100
AcDbEntity
  8
0
 62
     0
100
AcDbLine
 10
-674.718128853999
 20
438.0911680383301
 30
0.0
 11
-674.4058910893564
 21
438.4034058029727
 31
0.0
  0
LINE
  5
4779
330
4775
100
AcDbEntity
  8
0
 62
     0
100
AcDbLine
 10
-674.8185586142673
 20
438.1675149733584
 30
0.0
 11
-674.582667784653
 21
438.4034058029727
 31
0.0
  0
LINE
  5
477A
330
4775
100
AcDbEntity
  8
0
 62
     0
100
AcDbLine
 10
-674.9189883745359
 20
438.2438619083865
 30
0.0
 11
-674.7594444799497
 21
438.4034058029727
 31
0.0
  0
LINE
  5
477B
330
4775
100
AcDbEntity
  8
0
 62
     0
100
AcDbLine
 10
-675.0194181348042
 20
438.3202088434146
 30
0.0
 11
-674.9362211752464
 21
438.4034058029727
 31
0.0
  0
LINE
  5
477C
330
4775
100
AcDbEntity
  8
0
 62
     0
100
AcDbLine
 10
-675.1198478950727
 20
438.3965557784428
 30
0.0
 11
-675.1129978705429
 21
438.4034058029727
 31
0.0
  0
LINE
  5
477D
330
4775
100
AcDbEntity
  8
0
 62
     0
100
AcDbLine
 10
-674.4168395731938
 20
437.8621272332456
 30
0.0
 11
-673.9007159006065
 21
438.3782509058328
 31
0.0
  0
LINE
  5
477E
330
4775
100
AcDbEntity
  8
0
 62
     0
100
AcDbLine
 10
-674.3164098129252
 20
437.7857802982173
 30
0.0
 11
-673.9007159006065
 21
438.2014742105361
 31
0.0
  0
LINE
  5
477F
330
4775
100
AcDbEntity
  8
0
 62
     0
100
AcDbLine
 10
-674.2159800526567
 20
437.7094333631892
 30
0.0
 11
-673.9007159006065
 21
438.0246975152394
 31
0.0
  0
LINE
  5
4780
330
4775
100
AcDbEntity
  8
0
 62
     0
100
AcDbLine
 10
-674.1155502923882
 20
437.633086428161
 30
0.0
 11
-673.9007159006065
 21
437.8479208199427
 31
0.0
  0
LINE
  5
4781
330
4775
100
AcDbEntity
  8
0
 62
     0
100
AcDbLine
 10
-674.0151205321199
 20
437.5567394931326
 30
0.0
 11
-673.9007159006065
 21
437.6711441246462
 31
0.0
  0
LINE
  5
4782
330
4775
100
AcDbEntity
  8
0
 62
     0
100
AcDbLine
 10
-673.9146907718515
 20
437.4803925581046
 30
0.0
 11
-673.9007159006065
 21
437.4943674293496
 31
0.0
  0
ENDBLK
  5
4784
330
4775
100
AcDbEntity
  8
0
100
AcDbBlockEnd
  0
BLOCK
  5
4963
330
4959
100
AcDbEntity
  8
0
100
AcDbBlockBegin
  2
*D13
 70
     1
 10
0.0
 20
0.0
 30
0.0
  3
*D13
  1

  0
LINE
  5
4BB1
330
4959
100
AcDbEntity
  8
1
 62
     0
370
    -2
100
AcDbLine
 10
-600.741915338966
 20
742.9878935650727
 30
0.0
 11
-600.741915338966
 21
761.6924365844353
 31
0.0
  0
LINE
  5
4BB2
330
4959
100
AcDbEntity
  8
1
 62
     0
370
    -2
100
AcDbLine
 10
-430.7419153389657
 20
742.9878935650727
 30
0.0
 11
-430.7419153389657
 21
761.6924365844353
 31
0.0
  0
LINE
  5
4BB3
330
4959
100
AcDbEntity
  8
1
 62
     0
370
    -2
100
AcDbLine
 10
-594.5319153389659
 20
756.8324365844353
 30
0.0
 11
-436.9519153389657
 21
756.8324365844353
 31
0.0
  0
SOLID
  5
4BB4
330
4959
100
AcDbEntity
  8
1
 62
     0
100
AcDbTrace
 10
-594.5319153389659
 20
757.8674365844352
 30
0.0
 11
-594.5319153389659
 21
755.7974365844353
 31
0.0
 12
-600.741915338966
 22
756.8324365844353
 32
0.0
 13
-600.741915338966
 23
756.8324365844353
 33
0.0
  0
SOLID
  5
4BB5
330
4959
100
AcDbEntity
  8
1
 62
     0
100
AcDbTrace
 10
-436.9519153389657
 20
757.8674365844352
 30
0.0
 11
-436.9519153389657
 21
755.7974365844353
 31
0.0
 12
-430.7419153389657
 22
756.8324365844353
 32
0.0
 13
-430.7419153389657
 23
756.8324365844353
 33
0.0
  0
MTEXT
  5
4BB6
330
4959
100
AcDbEntity
  8
1
 62
     0
100
AcDbMText
 10
-515.7419153389659
 20
762.4718444791721
 30
0.0
 40
6.209999999999999
 41
0.0
 71
     5
 72
     1
  1
\A1;170 SQ
 73
     1
 44
1.0
  0
POINT
  5
4BB7
330
4959
100
AcDbEntity
  8
DEFPOINTS
 62
     0
100
AcDbPoint
 10
-600.741915338966
 20
739.7478935650728
 30
0.0
  0
POINT
  5
4BB8
330
4959
100
AcDbEntity
  8
DEFPOINTS
 62
     0
100
AcDbPoint
 10
-430.7419153389657
 20
739.7478935650728
 30
0.0
  0
POINT
  5
4BB9
330
4959
100
AcDbEntity
  8
DEFPOINTS
 62
     0
100
AcDbPoint
 10
-430.7419153389657
 20
756.8324365844353
 30
0.0
  0
ENDBLK
  5
4964
330
4959
100
AcDbEntity
  8
0
100
AcDbBlockEnd
  0
BLOCK
  5
496F
330
4965
100
AcDbEntity
  8
0
100
AcDbBlockBegin
  2
*D14
 70
     1
 10
0.0
 20
0.0
 30
0.0
  3
*D14
  1

  0
LINE
  5
49FE
330
4965
100
AcDbEntity
  8
1
 62
     0
370
    -2
100
AcDbLine
 10
-484.1556683600862
 20
539.7921013940901
 30
0.0
 11
-484.1556683600862
 21
501.5865167732036
 31
0.0
  0
LINE
  5
49FF
330
4965
100
AcDbEntity
  8
1
 62
     0
370
    -2
100
AcDbLine
 10
-373.1556683600909
 20
539.7261259306334
 30
0.0
 11
-373.1556683600909
 21
501.5865167732036
 31
0.0
  0
LINE
  5
4A00
330
4965
100
AcDbEntity
  8
1
 62
     0
370
    -2
100
AcDbLine
 10
-477.2556683600861
 20
506.9865167732037
 30
0.0
 11
-380.0556683600908
 21
506.9865167732037
 31
0.0
  0
SOLID
  5
4A01
330
4965
100
AcDbEntity
  8
1
 62
     0
100
AcDbTrace
 10
-477.2556683600861
 20
508.1365167732037
 30
0.0
 11
-477.2556683600861
 21
505.8365167732036
 31
0.0
 12
-484.1556683600862
 22
506.9865167732037
 32
0.0
 13
-484.1556683600862
 23
506.9865167732037
 33
0.0
  0
SOLID
  5
4A02
330
4965
100
AcDbEntity
  8
1
 62
     0
100
AcDbTrace
 10
-380.0556683600908
 20
508.1365167732037
 30
0.0
 11
-380.0556683600908
 21
505.8365167732036
 31
0.0
 12
-373.1556683600909
 22
506.9865167732037
 32
0.0
 13
-373.1556683600909
 23
506.9865167732037
 33
0.0
  0
MTEXT
  5
4A03
330
4965
100
AcDbEntity
  8
1
 62
     0
100
AcDbMText
 10
-428.6556683600887
 20
513.4542799310984
 30
0.0
 40
6.899999999999997
 41
0.0
 71
     5
 72
     1
  1
\A1;%%C110
 73
     1
 44
1.0
  0
POINT
  5
4A04
330
4965
100
AcDbEntity
  8
DEFPOINTS
 62
     0
100
AcDbPoint
 10
-484.1556683600862
 20
543.3921013940902
 30
0.0
  0
POINT
  5
4A05
330
4965
100
AcDbEntity
  8
DEFPOINTS
 62
     0
100
AcDbPoint
 10
-373.1556683600909
 20
543.3261259306333
 30
0.0
  0
POINT
  5
4A06
330
4965
100
AcDbEntity
  8
DEFPOINTS
 62
     0
100
AcDbPoint
 10
-373.1556683600909
 20
506.9865167732037
 30
0.0
  0
ENDBLK
  5
4970
330
4965
100
AcDbEntity
  8
0
100
AcDbBlockEnd
  0
BLOCK
  5
497C
330
4971
100
AcDbEntity
  8
0
100
AcDbBlockBegin
  2
*D15
 70
     1
 10
0.0
 20
0.0
 30
0.0
  3
*D15
  1

  0
LINE
  5
4A10
330
4971
100
AcDbEntity
  8
1
 62
     0
370
    -2
100
AcDbLine
 10
-517.1678430641001
 20
739.7478935650728
 30
0.0
 11
-582.464574999919
 21
739.7478935650728
 31
0.0
  0
LINE
  5
4A11
330
4971
100
AcDbEntity
  8
1
 62
     0
370
    -2
100
AcDbLine
 10
-485.3037770572758
 20
536.3884616803543
 30
0.0
 11
-582.464574999919
 21
536.3884616803543
 31
0.0
  0
LINE
  5
4A12
330
4971
100
AcDbEntity
  8
1
 62
     0
370
    -2
100
AcDbLine
 10
-577.0645749999189
 20
732.8478935650728
 30
0.0
 11
-577.0645749999189
 21
656.9632743294051
 31
0.0
  0
LINE
  5
4A13
330
4971
100
AcDbEntity
  8
1
 62
     0
370
    -2
100
AcDbLine
 10
-577.0645749999189
 20
543.2884616803542
 30
0.0
 11
-577.0645749999189
 21
621.5119585399312
 31
0.0
  0
SOLID
  5
4A14
330
4971
100
AcDbEntity
  8
1
 62
     0
100
AcDbTrace
 10
-578.214574999919
 20
732.8478935650728
 30
0.0
 11
-575.914574999919
 21
732.8478935650728
 31
0.0
 12
-577.0645749999189
 22
739.7478935650728
 32
0.0
 13
-577.0645749999189
 23
739.7478935650728
 33
0.0
  0
SOLID
  5
4A15
330
4971
100
AcDbEntity
  8
1
 62
     0
100
AcDbTrace
 10
-578.214574999919
 20
543.2884616803542
 30
0.0
 11
-575.914574999919
 21
543.2884616803542
 31
0.0
 12
-577.0645749999189
 22
536.3884616803543
 32
0.0
 13
-577.0645749999189
 23
536.3884616803543
 33
0.0
  0
MTEXT
  5
4A16
330
4971
100
AcDbEntity
  8
1
 62
     0
100
AcDbMText
 10
-577.0645749999191
 20
639.2376164346683
 30
0.0
 40
6.899999999999997
 41
0.0
 71
     5
 72
     1
  1
\A1;200\PTO\P250
 73
     1
 44
1.0
  0
POINT
  5
4A17
330
4971
100
AcDbEntity
  8
DEFPOINTS
 62
     0
100
AcDbPoint
 10
-513.5678430641
 20
739.7478935650728
 30
0.0
  0
POINT
  5
4A18
330
4971
100
AcDbEntity
  8
DEFPOINTS
 62
     0
100
AcDbPoint
 10
-481.7037770572758
 20
536.3884616803543
 30
0.0
  0
POINT
  5
4A19
330
4971
100
AcDbEntity
  8
DEFPOINTS
 62
     0
100
AcDbPoint
 10
-577.0645749999189
 20
536.3884616803543
 30
0.0
  0
ENDBLK
  5
497D
330
4971
100
AcDbEntity
  8
0
100
AcDbBlockEnd
  0
BLOCK
  5
4989
330
497E
100
AcDbEntity
  8
0
100
AcDbBlockBegin
  2
*D16
 70
     1
 10
0.0
 20
0.0
 30
0.0
  3
*D16
  1

  0
LINE
  5
4A1A
330
497E
100
AcDbEntity
  8
1
 62
     0
370
    -2
100
AcDbLine
 10
-313.567894000268
 20
637.7571166098206
 30
0.0
 11
-288.2362002113558
 21
637.7571166098206
 31
0.0
  0
LINE
  5
4A1B
330
497E
100
AcDbEntity
  8
1
 62
     0
370
    -2
100
AcDbLine
 10
-313.567894000268
 20
691.7571166098205
 30
0.0
 11
-288.2362002113558
 21
691.7571166098205
 31
0.0
  0
LINE
  5
4A1C
330
497E
100
AcDbEntity
  8
1
 62
     0
370
    -2
100
AcDbLine
 10
-293.6362002113558
 20
644.6571166098205
 30
0.0
 11
-293.6362002113558
 21
659.2250654165717
 31
0.0
  0
LINE
  5
4A1D
330
497E
100
AcDbEntity
  8
1
 62
     0
370
    -2
100
AcDbLine
 10
-293.6362002113558
 20
684.8571166098206
 30
0.0
 11
-293.6362002113558
 21
671.7671706797298
 31
0.0
  0
SOLID
  5
4A1E
330
497E
100
AcDbEntity
  8
1
 62
     0
100
AcDbTrace
 10
-294.7862002113558
 20
644.6571166098205
 30
0.0
 11
-292.4862002113558
 21
644.6571166098205
 31
0.0
 12
-293.6362002113558
 22
637.7571166098206
 32
0.0
 13
-293.6362002113558
 23
637.7571166098206
 33
0.0
  0
SOLID
  5
4A1F
330
497E
100
AcDbEntity
  8
1
 62
     0
100
AcDbTrace
 10
-294.7862002113558
 20
684.8571166098206
 30
0.0
 11
-292.4862002113558
 21
684.8571166098206
 31
0.0
 12
-293.6362002113558
 22
691.7571166098205
 32
0.0
 13
-293.6362002113558
 23
691.7571166098205
 33
0.0
  0
MTEXT
  5
4A20
330
497E
100
AcDbEntity
  8
1
 62
     0
100
AcDbMText
 10
-293.636200211356
 20
665.4961180481508
 30
0.0
 40
6.899999999999997
 41
0.0
 71
     5
 72
     1
  1
\A1;1.5" BSP
 73
     1
 44
1.0
  0
POINT
  5
4A21
330
497E
100
AcDbEntity
  8
DEFPOINTS
 62
     0
100
AcDbPoint
 10
-317.167894000268
 20
637.7571166098206
 30
0.0
  0
POINT
  5
4A22
330
497E
100
AcDbEntity
  8
DEFPOINTS
 62
     0
100
AcDbPoint
 10
-317.167894000268
 20
691.7571166098205
 30
0.0
  0
POINT
  5
4A23
330
497E
100
AcDbEntity
  8
DEFPOINTS
 62
     0
100
AcDbPoint
 10
-293.6362002113558
 20
691.7571166098205
 30
0.0
  0
ENDBLK
  5
498A
330
497E
100
AcDbEntity
  8
0
100
AcDbBlockEnd
  0
BLOCK
  5
4B88
330
4B7D
100
AcDbEntity
  8
0
100
AcDbBlockBegin
  2
*D17
 70
     1
 10
0.0
 20
0.0
 30
0.0
  3
*D17
  1

  0
LINE
  5
4BBA
330
4B7D
100
AcDbEntity
  8
1
 62
     0
370
    -2
100
AcDbLine
 10
-400.7419662751336
 20
600.1643150618669
 30
0.0
 11
-375.4102724862216
 21
600.1643150618669
 31
0.0
  0
LINE
  5
4BBB
330
4B7D
100
AcDbEntity
  8
1
 62
     0
370
    -2
100
AcDbLine
 10
-400.7419662751336
 20
654.1643150618668
 30
0.0
 11
-375.4102724862216
 21
654.1643150618668
 31
0.0
  0
LINE
  5
4BBC
330
4B7D
100
AcDbEntity
  8
1
 62
     0
370
    -2
100
AcDbLine
 10
-380.8102724862216
 20
607.0643150618669
 30
0.0
 11
-380.8102724862216
 21
621.6322638686182
 31
0.0
  0
LINE
  5
4BBD
330
4B7D
100
AcDbEntity
  8
1
 62
     0
370
    -2
100
AcDbLine
 10
-380.8102724862216
 20
647.2643150618668
 30
0.0
 11
-380.8102724862216
 21
634.1743691317762
 31
0.0
  0
SOLID
  5
4BBE
330
4B7D
100
AcDbEntity
  8
1
 62
     0
100
AcDbTrace
 10
-381.9602724862216
 20
607.0643150618669
 30
0.0
 11
-379.6602724862216
 21
607.0643150618669
 31
0.0
 12
-380.8102724862216
 22
600.1643150618669
 32
0.0
 13
-380.8102724862216
 23
600.1643150618669
 33
0.0
  0
SOLID
  5
4BBF
330
4B7D
100
AcDbEntity
  8
1
 62
     0
100
AcDbTrace
 10
-381.9602724862215
 20
647.2643150618668
 30
0.0
 11
-379.6602724862216
 21
647.2643150618668
 31
0.0
 12
-380.8102724862216
 22
654.1643150618668
 32
0.0
 13
-380.8102724862216
 23
654.1643150618668
 33
0.0
  0
MTEXT
  5
4BC0
330
4B7D
100
AcDbEntity
  8
1
 62
     0
100
AcDbMText
 10
-380.8102724862217
 20
627.9033165001971
 30
0.0
 40
6.9
 41
0.0
 71
     5
 72
     1
  1
\A1;1.5" BSP
 73
     1
 44
1.0
  0
POINT
  5
4BC1
330
4B7D
100
AcDbEntity
  8
DEFPOINTS
 62
     0
100
AcDbPoint
 10
-404.3419662751335
 20
600.1643150618669
 30
0.0
  0
POINT
  5
4BC2
330
4B7D
100
AcDbEntity
  8
DEFPOINTS
 62
     0
100
AcDbPoint
 10
-404.3419662751335
 20
654.1643150618668
 30
0.0
  0
POINT
  5
4BC3
330
4B7D
100
AcDbEntity
  8
DEFPOINTS
 62
     0
100
AcDbPoint
 10
-380.8102724862216
 20
654.1643150618668
 30
0.0
  0
ENDBLK
  5
4B89
330
4B7D
100
AcDbEntity
  8
0
100
AcDbBlockEnd
  0
ENDSEC
  0
SECTION
  2
ENTITIES
  0
LINE
  5
1F9
330
19
100
AcDbEntity
  8
1
100
AcDbLine
 10
-868.347736875706
 20
732.0867711889825
 30
0.0
 11
-862.3477368757059
 21
732.0867711889825
 31
0.0
  0
LINE
  5
1FA
330
19
100
AcDbEntity
  8
1
100
AcDbLine
 10
-862.3477368757059
 20
732.0867711889825
 30
0.0
 11
-862.3477368757059
 21
741.0867711889825
 31
0.0
  0
LINE
  5
1FB
330
19
100
AcDbEntity
  8
1
100
AcDbLine
 10
-862.3477368757059
 20
741.0867711889825
 30
0.0
 11
-854.3477368757059
 21
741.0867711889825
 31
0.0
  0
LINE
  5
1FC
330
19
100
AcDbEntity
  8
1
100
AcDbLine
 10
-854.3477368757059
 20
741.0867711889825
 30
0.0
 11
-854.3477368757059
 21
737.5867711889825
 31
0.0
  0
LINE
  5
1FD
330
19
100
AcDbEntity
  8
1
100
AcDbLine
 10
-854.3477368757059
 20
737.5867711889825
 30
0.0
 11
-842.3442509930206
 21
737.5867711889825
 31
0.0
  0
LINE
  5
1FE
330
19
100
AcDbEntity
  8
1
100
AcDbLine
 10
-868.347736875706
 20
733.0867711889825
 30
0.0
 11
-863.3477368757059
 21
733.0867711889825
 31
0.0
  0
LINE
  5
1FF
330
19
100
AcDbEntity
  8
1
100
AcDbLine
 10
-863.3477368757059
 20
733.0867711889825
 30
0.0
 11
-863.3477368757059
 21
742.0867711889825
 31
0.0
  0
LINE
  5
200
330
19
100
AcDbEntity
  8
1
100
AcDbLine
 10
-863.3477368757059
 20
742.0867711889825
 30
0.0
 11
-853.3477368757059
 21
742.0867711889825
 31
0.0
  0
LINE
  5
201
330
19
100
AcDbEntity
  8
1
100
AcDbLine
 10
-853.3477368757059
 20
742.0867711889825
 30
0.0
 11
-853.3477368757059
 21
738.5867711889825
 31
0.0
  0
LINE
  5
202
330
19
100
AcDbEntity
  8
1
100
AcDbLine
 10
-853.3477368757059
 20
738.5867711889825
 30
0.0
 11
-841.9024454252506
 21
738.5867711889825
 31
0.0
  0
LINE
  5
203
330
19
100
AcDbEntity
  8
1
100
AcDbLine
 10
-868.347736875706
 20
733.0867711889825
 30
0.0
 11
-868.347736875706
 21
732.0867711889825
 31
0.0
  0
LINE
  5
204
330
19
100
AcDbEntity
  8
1
100
AcDbLine
 10
-836.347736875706
 20
732.4881696553596
 30
0.0
 11
-836.347736875706
 21
717.0867711889825
 31
0.0
  0
LINE
  5
208
330
19
100
AcDbEntity
  8
1
100
AcDbLine
 10
-837.3477368757059
 20
723.6827965910719
 30
0.0
 11
-837.3477368757059
 21
707.0867711889825
 31
0.0
  0
LINE
  5
209
330
19
100
AcDbEntity
  8
1
100
AcDbLine
 10
-852.347736875706
 20
740.8797846810196
 30
0.0
 11
-852.347736875706
 21
738.8797846810197
 31
0.0
  0
LINE
  5
20A
330
19
100
AcDbEntity
  8
1
100
AcDbLine
 10
-852.347736875706
 20
738.8797846810197
 30
0.0
 11
-834.9705281804517
 21
738.8797846810197
 31
0.0
  0
LINE
  5
20B
330
19
100
AcDbEntity
  8
1
100
AcDbLine
 10
-852.347736875706
 20
740.8797846810196
 30
0.0
 11
-834.722381916886
 21
740.8797846810196
 31
0.0
  0
LINE
  5
20C
330
19
100
AcDbEntity
  8
1
100
AcDbLine
 10
-828.4895831680026
 20
738.7228049349913
 30
0.0
 11
-782.347736875706
 21
738.7228049349913
 31
0.0
  0
LINE
  5
20D
330
19
100
AcDbEntity
  8
1
100
AcDbLine
 10
-828.7377294315685
 20
736.7228049349911
 30
0.0
 11
-782.347736875706
 21
736.7228049349913
 31
0.0
  0
LINE
  5
20E
330
19
100
AcDbEntity
  8
1
100
AcDbLine
 10
-838.847736875706
 20
725.2363680196435
 30
0.0
 11
-838.8477368757062
 21
707.0867711889825
 31
0.0
  0
LINE
  5
20F
330
19
100
AcDbEntity
  8
1
100
AcDbLine
 10
-836.347736875706
 20
732.4881696553596
 30
0.0
 11
-782.347736875706
 21
732.4881696553596
 31
0.0
  0
LINE
  5
211
330
19
100
AcDbEntity
  8
1
100
AcDbLine
 10
-834.7223819168863
 20
740.8797846810196
 30
0.0
 11
-828.4895831680028
 21
738.7228049349913
 31
0.0
  0
LINE
  5
212
330
19
100
AcDbEntity
  8
1
100
AcDbLine
 10
-834.9705281804517
 20
738.8797846810197
 30
0.0
 11
-828.7377294315685
 21
736.7228049349913
 31
0.0
  0
LINE
  5
213
330
19
100
AcDbEntity
  8
1
100
AcDbLine
 10
-786.594402748547
 20
736.7228049349913
 30
0.0
 11
-786.594402748547
 21
738.7228049349913
 31
0.0
  0
LINE
  5
214
330
19
100
AcDbEntity
  8
1
100
AcDbLine
 10
-794.2944027485472
 20
736.7228049349913
 30
0.0
 11
-794.2944027485472
 21
738.7228049349913
 31
0.0
  0
LINE
  5
215
330
19
100
AcDbEntity
  8
1
100
AcDbLine
 10
-802.4430560885273
 20
736.7228049349913
 30
0.0
 11
-802.4430560885273
 21
738.7228049349913
 31
0.0
  0
LINE
  5
216
330
19
100
AcDbEntity
  8
1
100
AcDbLine
 10
-810.1430560885273
 20
736.7228049349913
 30
0.0
 11
-810.1430560885273
 21
738.7228049349913
 31
0.0
  0
LINE
  5
217
330
19
100
AcDbEntity
  8
1
100
AcDbLine
 10
-818.1430560885273
 20
736.7228049349913
 30
0.0
 11
-818.1430560885273
 21
738.7228049349913
 31
0.0
  0
LINE
  5
218
330
19
100
AcDbEntity
  8
1
100
AcDbLine
 10
-825.8430560885274
 20
736.722804934991
 30
0.0
 11
-825.8430560885276
 21
738.7895623326287
 31
0.0
  0
LINE
  5
219
330
19
100
AcDbEntity
  8
1
100
AcDbLine
 10
-834.3925812720955
 20
738.6797750503819
 30
0.0
 11
-834.3925812720955
 21
740.7656508320537
 31
0.0
  0
LINE
  5
21A
330
19
100
AcDbEntity
  8
1
 62
     0
100
AcDbLine
 10
-849.3474382395682
 20
738.8797846810197
 30
0.0
 11
-848.8475875576371
 21
739.3796353629509
 31
0.0
  0
LINE
  5
21B
330
19
100
AcDbEntity
  8
1
 62
     0
100
AcDbLine
 10
-850.7616518019412
 20
738.8797846810197
 30
0.0
 11
-849.5546943388236
 21
740.0867421441374
 31
0.0
  0
LINE
  5
21C
330
19
100
AcDbEntity
  8
1
 62
     0
100
AcDbLine
 10
-852.1758653643143
 20
738.8797846810197
 30
0.0
 11
-850.1758653643143
 21
740.8797846810196
 31
0.0
  0
LINE
  5
21D
330
19
100
AcDbEntity
  8
1
 62
     0
100
AcDbLine
 10
-852.347736875706
 20
740.1221267320011
 30
0.0
 11
-851.5900789266876
 21
740.8797846810196
 31
0.0
  0
LINE
  5
21E
330
19
100
AcDbEntity
  8
1
 62
     0
100
AcDbLine
 10
-842.2763704277029
 20
738.8797846810197
 30
0.0
 11
-840.2763704277026
 21
740.8797846810196
 31
0.0
  0
LINE
  5
21F
330
19
100
AcDbEntity
  8
1
 62
     0
100
AcDbLine
 10
-840.8621568653298
 20
738.8797846810197
 30
0.0
 11
-838.8621568653293
 21
740.8797846810196
 31
0.0
  0
LINE
  5
220
330
19
100
AcDbEntity
  8
1
 62
     0
100
AcDbLine
 10
-839.4479433029566
 20
738.8797846810197
 30
0.0
 11
-837.4479433029566
 21
740.8797846810196
 31
0.0
  0
LINE
  5
221
330
19
100
AcDbEntity
  8
1
 62
     0
100
AcDbLine
 10
-838.0337297405834
 20
738.8797846810197
 30
0.0
 11
-836.0337297405836
 21
740.8797846810196
 31
0.0
  0
LINE
  5
222
330
19
100
AcDbEntity
  8
1
 62
     0
100
AcDbLine
 10
-804.8243686035235
 20
736.7228049349911
 30
0.0
 11
-802.8243686035235
 21
738.7228049349913
 31
0.0
  0
LINE
  5
223
330
19
100
AcDbEntity
  8
1
 62
     0
100
AcDbLine
 10
-806.2385821658963
 20
736.7228049349911
 30
0.0
 11
-804.2385821658966
 21
738.7228049349913
 31
0.0
  0
LINE
  5
224
330
19
100
AcDbEntity
  8
1
 62
     0
100
AcDbLine
 10
-807.6527957282696
 20
736.7228049349911
 30
0.0
 11
-805.6527957282696
 21
738.7228049349913
 31
0.0
  0
LINE
  5
225
330
19
100
AcDbEntity
  8
1
 62
     0
100
AcDbLine
 10
-809.0670092906426
 20
736.7228049349911
 30
0.0
 11
-807.0670092906425
 21
738.7228049349913
 31
0.0
  0
LINE
  5
226
330
19
100
AcDbEntity
  8
1
 62
     0
100
AcDbLine
 10
-810.4812228530159
 20
736.7228049349911
 30
0.0
 11
-808.4812228530156
 21
738.7228049349913
 31
0.0
  0
LINE
  5
227
330
19
100
AcDbEntity
  8
1
 62
     0
100
AcDbLine
 10
-810.1430560885273
 20
738.4751852618525
 30
0.0
 11
-809.8954364153888
 21
738.7228049349913
 31
0.0
  0
LINE
  5
228
330
19
100
AcDbEntity
  8
1
 62
     0
100
AcDbLine
 10
-818.9665042272546
 20
736.7228049349911
 30
0.0
 11
-818.1430560885273
 21
737.5462530737181
 31
0.0
  0
LINE
  5
229
330
19
100
AcDbEntity
  8
1
 62
     0
100
AcDbLine
 10
-820.3807177896276
 20
736.7228049349911
 30
0.0
 11
-818.3807177896273
 21
738.7228049349913
 31
0.0
  0
LINE
  5
22A
330
19
100
AcDbEntity
  8
1
 62
     0
100
AcDbLine
 10
-821.7949313520007
 20
736.7228049349911
 30
0.0
 11
-819.7949313520004
 21
738.7228049349913
 31
0.0
  0
LINE
  5
22B
330
19
100
AcDbEntity
  8
1
 62
     0
100
AcDbLine
 10
-823.2091449143737
 20
736.7228049349911
 30
0.0
 11
-821.2091449143736
 21
738.7228049349913
 31
0.0
  0
LINE
  5
22C
330
19
100
AcDbEntity
  8
1
 62
     0
100
AcDbLine
 10
-824.623358476747
 20
736.722804934991
 30
0.0
 11
-822.6233584767468
 21
738.7228049349913
 31
0.0
  0
LINE
  5
22D
330
19
100
AcDbEntity
  8
1
 62
     0
100
AcDbLine
 10
-825.8430560885274
 20
736.9173208855835
 30
0.0
 11
-824.0375720391197
 21
738.7228049349913
 31
0.0
  0
LINE
  5
22E
330
19
100
AcDbEntity
  8
1
 62
     0
100
AcDbLine
 10
-825.8430560885274
 20
738.3315344479565
 30
0.0
 11
-825.4517856014929
 21
738.7228049349913
 31
0.0
  0
LINE
  5
22F
330
19
100
AcDbEntity
  8
1
 62
     0
100
AcDbLine
 10
-803.4101550411502
 20
736.7228049349911
 30
0.0
 11
-802.4430560885273
 21
737.689903887614
 31
0.0
  0
LINE
  5
230
330
19
100
AcDbEntity
  8
1
 62
     0
100
AcDbLine
 10
-794.2944027485472
 20
737.2046225133755
 30
0.0
 11
-792.7762203269317
 21
738.7228049349913
 31
0.0
  0
LINE
  5
231
330
19
100
AcDbEntity
  8
1
 62
     0
100
AcDbLine
 10
-793.3620067645586
 20
736.7228049349913
 30
0.0
 11
-791.3620067645585
 21
738.7228049349913
 31
0.0
  0
LINE
  5
232
330
19
100
AcDbEntity
  8
1
 62
     0
100
AcDbLine
 10
-791.9477932021854
 20
736.7228049349913
 30
0.0
 11
-789.9477932021855
 21
738.7228049349913
 31
0.0
  0
LINE
  5
233
330
19
100
AcDbEntity
  8
1
 62
     0
100
AcDbLine
 10
-790.5335796398122
 20
736.7228049349913
 30
0.0
 11
-788.5335796398122
 21
738.7228049349913
 31
0.0
  0
LINE
  5
234
330
19
100
AcDbEntity
  8
1
 62
     0
100
AcDbLine
 10
-789.1193660774392
 20
736.7228049349913
 30
0.0
 11
-787.1193660774393
 21
738.7228049349913
 31
0.0
  0
LINE
  5
235
330
19
100
AcDbEntity
  8
1
 62
     0
100
AcDbLine
 10
-787.7051525150662
 20
736.7228049349913
 30
0.0
 11
-786.594402748547
 21
737.8335547015101
 31
0.0
  0
LINE
  5
357
330
19
100
AcDbEntity
  8
1
 62
     0
100
AcDbLine
 10
-836.6302403362658
 20
738.8797846810197
 30
0.0
 11
-834.6302403362656
 21
740.8797846810196
 31
0.0
  0
LINE
  5
358
330
19
100
AcDbEntity
  8
1
 62
     0
100
AcDbLine
 10
-835.3375527270259
 20
738.8797846810197
 30
0.0
 11
-834.3925812720955
 21
739.8247561359501
 31
0.0
  0
LINE
  5
359
330
19
100
AcDbEntity
  8
1
 62
     0
100
AcDbLine
 10
-729.3579210243859
 20
738.8797846810197
 30
0.0
 11
-730.3028924793164
 21
739.8247561359501
 31
0.0
  0
LINE
  5
35A
330
19
100
AcDbEntity
  8
1
 62
     0
100
AcDbLine
 10
-728.0652334151461
 20
738.8797846810197
 30
0.0
 11
-730.0652334151461
 21
740.8797846810196
 31
0.0
  0
LINE
  5
398
330
19
100
AcDbEntity
  8
1
 62
     0
100
AcDbLine
 10
-776.9903212363458
 20
736.7228049349913
 30
0.0
 11
-778.1010710028647
 21
737.8335547015101
 31
0.0
  0
LINE
  5
399
330
19
100
AcDbEntity
  8
1
 62
     0
100
AcDbLine
 10
-775.5761076739727
 20
736.7228049349913
 30
0.0
 11
-777.5761076739727
 21
738.7228049349913
 31
0.0
  0
LINE
  5
39A
330
19
100
AcDbEntity
  8
1
 62
     0
100
AcDbLine
 10
-774.1618941115996
 20
736.7228049349913
 30
0.0
 11
-776.1618941115996
 21
738.7228049349913
 31
0.0
  0
LINE
  5
39B
330
19
100
AcDbEntity
  8
1
 62
     0
100
AcDbLine
 10
-772.7476805492265
 20
736.7228049349913
 30
0.0
 11
-774.7476805492265
 21
738.7228049349913
 31
0.0
  0
LINE
  5
39C
330
19
100
AcDbEntity
  8
1
 62
     0
100
AcDbLine
 10
-771.3334669868531
 20
736.7228049349913
 30
0.0
 11
-773.3334669868532
 21
738.7228049349913
 31
0.0
  0
LINE
  5
39D
330
19
100
AcDbEntity
  8
1
 62
     0
100
AcDbLine
 10
-770.4010710028646
 20
737.2046225133755
 30
0.0
 11
-771.9192534244803
 21
738.7228049349913
 31
0.0
  0
LINE
  5
39E
330
19
100
AcDbEntity
  8
1
 62
     0
100
AcDbLine
 10
-761.2853187102616
 20
736.7228049349911
 30
0.0
 11
-762.2524176628846
 21
737.689903887614
 31
0.0
  0
LINE
  5
39F
330
19
100
AcDbEntity
  8
1
 62
     0
100
AcDbLine
 10
-738.8524176628846
 20
738.3315344479565
 30
0.0
 11
-739.243688149919
 21
738.7228049349913
 31
0.0
  0
LINE
  5
3A0
330
19
100
AcDbEntity
  8
1
 62
     0
100
AcDbLine
 10
-738.8524176628846
 20
736.9173208855835
 30
0.0
 11
-740.6579017122922
 21
738.7228049349913
 31
0.0
  0
LINE
  5
3A1
330
19
100
AcDbEntity
  8
1
 62
     0
100
AcDbLine
 10
-740.072115274665
 20
736.722804934991
 30
0.0
 11
-742.0721152746652
 21
738.7228049349913
 31
0.0
  0
LINE
  5
3A2
330
19
100
AcDbEntity
  8
1
 62
     0
100
AcDbLine
 10
-741.4863288370383
 20
736.7228049349911
 30
0.0
 11
-743.4863288370384
 21
738.7228049349913
 31
0.0
  0
LINE
  5
3A3
330
19
100
AcDbEntity
  8
1
 62
     0
100
AcDbLine
 10
-742.9005423994112
 20
736.7228049349911
 30
0.0
 11
-744.9005423994115
 21
738.7228049349913
 31
0.0
  0
LINE
  5
3A4
330
19
100
AcDbEntity
  8
1
 62
     0
100
AcDbLine
 10
-744.3147559617844
 20
736.7228049349911
 30
0.0
 11
-746.3147559617846
 21
738.7228049349913
 31
0.0
  0
LINE
  5
3A5
330
19
100
AcDbEntity
  8
1
 62
     0
100
AcDbLine
 10
-745.7289695241573
 20
736.7228049349911
 30
0.0
 11
-746.5524176628846
 21
737.5462530737181
 31
0.0
  0
LINE
  5
3A6
330
19
100
AcDbEntity
  8
1
 62
     0
100
AcDbLine
 10
-754.5524176628846
 20
738.4751852618525
 30
0.0
 11
-754.8000373360232
 21
738.7228049349913
 31
0.0
  0
LINE
  5
3A7
330
19
100
AcDbEntity
  8
1
 62
     0
100
AcDbLine
 10
-754.2142508983961
 20
736.7228049349911
 30
0.0
 11
-756.2142508983964
 21
738.7228049349913
 31
0.0
  0
LINE
  5
3A8
330
19
100
AcDbEntity
  8
1
 62
     0
100
AcDbLine
 10
-755.6284644607692
 20
736.7228049349911
 30
0.0
 11
-757.6284644607692
 21
738.7228049349913
 31
0.0
  0
LINE
  5
3A9
330
19
100
AcDbEntity
  8
1
 62
     0
100
AcDbLine
 10
-757.0426780231422
 20
736.7228049349911
 30
0.0
 11
-759.0426780231422
 21
738.7228049349913
 31
0.0
  0
LINE
  5
3AA
330
19
100
AcDbEntity
  8
1
 62
     0
100
AcDbLine
 10
-758.4568915855154
 20
736.7228049349911
 30
0.0
 11
-760.4568915855154
 21
738.7228049349913
 31
0.0
  0
LINE
  5
3AB
330
19
100
AcDbEntity
  8
1
 62
     0
100
AcDbLine
 10
-759.8711051478883
 20
736.7228049349911
 30
0.0
 11
-761.8711051478883
 21
738.7228049349913
 31
0.0
  0
LINE
  5
3AC
330
19
100
AcDbEntity
  8
1
 62
     0
100
AcDbLine
 10
-726.6617440108284
 20
738.8797846810197
 30
0.0
 11
-728.6617440108284
 21
740.8797846810196
 31
0.0
  0
LINE
  5
3AD
330
19
100
AcDbEntity
  8
1
 62
     0
100
AcDbLine
 10
-725.2475304484552
 20
738.8797846810197
 30
0.0
 11
-727.2475304484552
 21
740.8797846810196
 31
0.0
  0
LINE
  5
3AE
330
19
100
AcDbEntity
  8
1
 62
     0
100
AcDbLine
 10
-723.8333168860823
 20
738.8797846810197
 30
0.0
 11
-725.8333168860823
 21
740.8797846810196
 31
0.0
  0
LINE
  5
3AF
330
19
100
AcDbEntity
  8
1
 62
     0
100
AcDbLine
 10
-722.4191033237091
 20
738.8797846810197
 30
0.0
 11
-724.4191033237092
 21
740.8797846810196
 31
0.0
  0
LINE
  5
3B3
330
19
100
AcDbEntity
  8
1
100
AcDbLine
 10
-730.3028924793164
 20
738.6797750503819
 30
0.0
 11
-730.3028924793164
 21
740.8797846810196
 31
0.0
  0
LINE
  5
3B4
330
19
100
AcDbEntity
  8
1
100
AcDbLine
 10
-738.8524176628846
 20
736.722804934991
 30
0.0
 11
-738.8524176628842
 21
738.7895623326287
 31
0.0
  0
LINE
  5
3B5
330
19
100
AcDbEntity
  8
1
100
AcDbLine
 10
-746.5524176628846
 20
736.7228049349913
 30
0.0
 11
-746.5524176628846
 21
738.7228049349913
 31
0.0
  0
LINE
  5
3B6
330
19
100
AcDbEntity
  8
1
100
AcDbLine
 10
-754.5524176628846
 20
736.7228049349913
 30
0.0
 11
-754.5524176628846
 21
738.7228049349913
 31
0.0
  0
LINE
  5
3B7
330
19
100
AcDbEntity
  8
1
100
AcDbLine
 10
-762.2524176628846
 20
736.7228049349913
 30
0.0
 11
-762.2524176628846
 21
738.7228049349913
 31
0.0
  0
LINE
  5
3B8
330
19
100
AcDbEntity
  8
1
100
AcDbLine
 10
-770.4010710028646
 20
736.7228049349913
 30
0.0
 11
-770.4010710028646
 21
738.7228049349913
 31
0.0
  0
LINE
  5
3B9
330
19
100
AcDbEntity
  8
1
100
AcDbLine
 10
-778.1010710028647
 20
736.7228049349913
 30
0.0
 11
-778.1010710028647
 21
738.7228049349913
 31
0.0
  0
LINE
  5
3BA
330
19
100
AcDbEntity
  8
1
100
AcDbLine
 10
-729.7249455709602
 20
738.8797846810197
 30
0.0
 11
-735.9577443198434
 21
736.7228049349913
 31
0.0
  0
LINE
  5
3BB
330
19
100
AcDbEntity
  8
1
100
AcDbLine
 10
-729.9730918345257
 20
740.8797846810196
 30
0.0
 11
-736.2058905834093
 21
738.7228049349913
 31
0.0
  0
LINE
  5
3BD
330
19
100
AcDbEntity
  8
1
100
AcDbLine
 10
-728.3477368757059
 20
732.4881696553596
 30
0.0
 11
-782.347736875706
 21
732.4881696553596
 31
0.0
  0
LINE
  5
3BE
330
19
100
AcDbEntity
  8
1
100
AcDbLine
 10
-725.847736875706
 20
725.2363680196435
 30
0.0
 11
-725.847736875706
 21
707.0867711889825
 31
0.0
  0
LINE
  5
3BF
330
19
100
AcDbEntity
  8
1
100
AcDbLine
 10
-735.9577443198436
 20
736.7228049349911
 30
0.0
 11
-782.347736875706
 21
736.7228049349913
 31
0.0
  0
LINE
  5
3C0
330
19
100
AcDbEntity
  8
1
100
AcDbLine
 10
-736.2058905834094
 20
738.7228049349913
 30
0.0
 11
-782.347736875706
 21
738.7228049349913
 31
0.0
  0
LINE
  5
3C1
330
19
100
AcDbEntity
  8
1
100
AcDbLine
 10
-712.3477368757057
 20
740.8797846810196
 30
0.0
 11
-729.973091834526
 21
740.8797846810196
 31
0.0
  0
LINE
  5
3C2
330
19
100
AcDbEntity
  8
1
100
AcDbLine
 10
-712.3477368757057
 20
738.8797846810197
 30
0.0
 11
-729.7249455709597
 21
738.8797846810197
 31
0.0
  0
LINE
  5
3C4
330
19
100
AcDbEntity
  8
1
100
AcDbLine
 10
-727.347736875706
 20
723.6827965910719
 30
0.0
 11
-727.3477368757055
 21
707.0867711889825
 31
0.0
  0
LINE
  5
3C8
330
19
100
AcDbEntity
  8
1
100
AcDbLine
 10
-728.3477368757059
 20
732.4881696553592
 30
0.0
 11
-728.3477368757059
 21
717.0867711889825
 31
0.0
  0
LINE
  5
3E0
330
19
100
AcDbEntity
  8
1
100
AcDbLine
 10
-843.8477368757059
 20
738.8797846810197
 30
0.0
 11
-841.8477368757059
 21
740.8797846810196
 31
0.0
  0
LINE
  5
3E1
330
19
100
AcDbEntity
  8
1
100
AcDbLine
 10
-848.3477368757062
 20
738.8797846810197
 30
0.0
 11
-850.347736875706
 21
740.8797846810196
 31
0.0
  0
LINE
  5
450
330
19
100
AcDbEntity
  8
1
100
AcDbLine
 10
-720.8477368757057
 20
738.8797846810197
 30
0.0
 11
-722.8477368757055
 21
740.8797846810196
 31
0.0
  0
LINE
  5
327E
330
19
100
AcDbEntity
  8
1
100
AcDbLine
 10
-838.8477368757062
 20
733.7478935650729
 30
0.0
 11
-838.8477368757062
 21
699.0867711889826
 31
0.0
  0
LINE
  5
33EE
330
19
100
AcDbEntity
  8
1
100
AcDbLine
 10
-725.847736875706
 20
733.7478935650723
 30
0.0
 11
-725.847736875706
 21
699.1502795158798
 31
0.0
  0
LINE
  5
33F4
330
19
100
AcDbEntity
  8
1
100
AcDbLine
 10
-727.347736875706
 20
732.1010200668792
 30
0.0
 11
-727.3477368757059
 21
701.0867711889826
 31
0.0
  0
LINE
  5
34FF
330
19
100
AcDbEntity
  8
1
100
AcDbLine
 10
-838.2409620290795
 20
649.0867711889824
 30
0.0
 11
-825.6221849350685
 21
649.0867711889824
 31
0.0
  0
LINE
  5
3500
330
19
100
AcDbEntity
  8
1
100
AcDbLine
 10
-727.0593843428719
 20
649.0867711889827
 30
0.0
 11
-741.1856798687431
 21
649.0867711889827
 31
0.0
  0
LINE
  5
37CE
330
19
100
AcDbEntity
  8
1
100
AcDbLine
 10
-838.8477368757062
 20
656.0867711889824
 30
0.0
 11
-838.2409620290795
 21
649.0867711889824
 31
0.0
  0
LINE
  5
37CF
330
19
100
AcDbEntity
  8
1
100
AcDbLine
 10
-837.3477368757056
 20
656.0867711889827
 30
0.0
 11
-836.7376466764721
 21
649.1134083023402
 31
0.0
  0
LINE
  5
37D0
330
19
100
AcDbEntity
  8
1
100
AcDbLine
 10
-727.3477368757055
 20
656.0867711889824
 30
0.0
 11
-728.5820257406656
 21
649.0867711889826
 31
0.0
  0
LINE
  5
37D1
330
19
100
AcDbEntity
  8
1
100
AcDbLine
 10
-725.8477368757056
 20
656.0867711889824
 30
0.0
 11
-727.059384342872
 21
649.0867711889826
 31
0.0
  0
LINE
  5
386E
330
19
100
AcDbEntity
  8
1
100
AcDbLine
 10
-847.8806722214587
 20
737.5867711889825
 30
0.0
 11
-847.8806722214587
 21
725.2455026300768
 31
0.0
  0
LINE
  5
386F
330
19
100
AcDbEntity
  8
1
100
AcDbLine
 10
-844.3051994194414
 20
737.5867711889825
 30
0.0
 11
-844.3051994194414
 21
725.2455026300768
 31
0.0
  0
LINE
  5
3870
330
19
100
AcDbEntity
  8
1
100
AcDbLine
 10
-847.8806722214587
 20
725.2455026300768
 30
0.0
 11
-844.3051994194414
 21
725.2455026300768
 31
0.0
  0
LINE
  5
3871
330
19
100
AcDbEntity
  8
1
100
AcDbLine
 10
-844.7955561182212
 20
737.5867711889825
 30
0.0
 11
-844.7955561182208
 21
732.4917845704725
 31
0.0
  0
LINE
  5
3872
330
19
100
AcDbEntity
  8
1
100
AcDbLine
 10
-847.3903155226789
 20
737.5867711889825
 30
0.0
 11
-847.3903155226789
 21
732.4917845704725
 31
0.0
  0
LINE
  5
3876
330
19
100
AcDbEntity
  8
1
100
AcDbLine
 10
-847.3903155226789
 20
729.6520255398704
 30
0.0
 11
-847.3903155226789
 21
725.2455026300768
 31
0.0
  0
LINE
  5
3877
330
19
100
AcDbEntity
  8
1
100
AcDbLine
 10
-844.7955561182212
 20
729.6520255398704
 30
0.0
 11
-844.7955561182212
 21
725.2455026300768
 31
0.0
  0
LINE
  5
392E
330
19
100
AcDbEntity
  8
1
100
AcDbLine
 10
-842.3442509930206
 20
737.5867711889825
 30
0.0
 11
-837.3477368757059
 21
732.1010200668792
 31
0.0
  0
LINE
  5
392F
330
19
100
AcDbEntity
  8
1
100
AcDbLine
 10
-841.9024454252506
 20
738.5867711889825
 30
0.0
 11
-836.347736875706
 21
732.4881696553596
 31
0.0
  0
LINE
  5
3930
330
19
100
AcDbEntity
  8
1
100
AcDbLine
 10
-837.3477368757056
 20
732.1010200668791
 30
0.0
 11
-837.3477368757056
 21
701.0867711889826
 31
0.0
  0
LINE
  5
3932
330
19
100
AcDbEntity
  8
1
100
AcDbLine
 10
-701.347736875706
 20
742.0867711889825
 30
0.0
 11
-711.347736875706
 21
742.0867711889825
 31
0.0
  0
LINE
  5
3933
330
19
100
AcDbEntity
  8
1
100
AcDbLine
 10
-702.347736875706
 20
741.0867711889825
 30
0.0
 11
-710.347736875706
 21
741.0867711889825
 31
0.0
  0
LINE
  5
3934
330
19
100
AcDbEntity
  8
1
100
AcDbLine
 10
-701.347736875706
 20
733.0867711889825
 30
0.0
 11
-701.347736875706
 21
742.0867711889825
 31
0.0
  0
LINE
  5
3935
330
19
100
AcDbEntity
  8
1
100
AcDbLine
 10
-702.347736875706
 20
732.0867711889825
 30
0.0
 11
-702.347736875706
 21
741.0867711889825
 31
0.0
  0
LINE
  5
3936
330
19
100
AcDbEntity
  8
1
100
AcDbLine
 10
-696.347736875706
 20
733.0867711889825
 30
0.0
 11
-696.347736875706
 21
732.0867711889825
 31
0.0
  0
LINE
  5
3937
330
19
100
AcDbEntity
  8
1
100
AcDbLine
 10
-696.347736875706
 20
733.0867711889825
 30
0.0
 11
-701.347736875706
 21
733.0867711889825
 31
0.0
  0
LINE
  5
3938
330
19
100
AcDbEntity
  8
1
100
AcDbLine
 10
-696.347736875706
 20
732.0867711889825
 30
0.0
 11
-702.347736875706
 21
732.0867711889825
 31
0.0
  0
LINE
  5
3939
330
19
100
AcDbEntity
  8
1
100
AcDbLine
 10
-722.7930283261612
 20
738.5867711889825
 30
0.0
 11
-728.3477368757059
 21
732.4881696553596
 31
0.0
  0
LINE
  5
393A
330
19
100
AcDbEntity
  8
1
100
AcDbLine
 10
-722.3512227583912
 20
737.5867711889825
 30
0.0
 11
-727.3477368757062
 21
732.1010200668792
 31
0.0
  0
LINE
  5
393B
330
19
100
AcDbEntity
  8
1
100
AcDbLine
 10
-717.2905048716502
 20
737.5867711889825
 30
0.0
 11
-717.2905048716502
 21
733.7441262721021
 31
0.0
  0
LINE
  5
393C
330
19
100
AcDbEntity
  8
1
100
AcDbLine
 10
-719.8852642761079
 20
737.5867711889825
 30
0.0
 11
-719.8852642761083
 21
732.4917845704725
 31
0.0
  0
LINE
  5
393D
330
19
100
AcDbEntity
  8
1
100
AcDbLine
 10
-720.3756209748877
 20
737.5867711889825
 30
0.0
 11
-720.3756209748877
 21
725.2455026300768
 31
0.0
  0
LINE
  5
393E
330
19
100
AcDbEntity
  8
1
100
AcDbLine
 10
-716.8001481728701
 20
737.5867711889825
 30
0.0
 11
-716.8001481728701
 21
725.2455026300768
 31
0.0
  0
LINE
  5
393F
330
19
100
AcDbEntity
  8
1
100
AcDbLine
 10
-716.8001481728701
 20
725.2455026300768
 30
0.0
 11
-720.3756209748877
 21
725.2455026300768
 31
0.0
  0
LINE
  5
3940
330
19
100
AcDbEntity
  8
1
100
AcDbLine
 10
-717.2905048716502
 20
732.4917845704725
 30
0.0
 11
-717.2905048716502
 21
729.6520255398704
 31
0.0
  0
LINE
  5
3941
330
19
100
AcDbEntity
  8
1
100
AcDbLine
 10
-717.2905048716502
 20
729.6520255398704
 30
0.0
 11
-717.2905048716502
 21
725.2455026300768
 31
0.0
  0
LINE
  5
3942
330
19
100
AcDbEntity
  8
1
100
AcDbLine
 10
-719.8852642761079
 20
729.9729177554371
 30
0.0
 11
-719.8852642761079
 21
729.6520255398704
 31
0.0
  0
LINE
  5
3943
330
19
100
AcDbEntity
  8
1
100
AcDbLine
 10
-719.8852642761079
 20
729.6520255398704
 30
0.0
 11
-719.8852642761079
 21
725.2455026300768
 31
0.0
  0
LINE
  5
3944
330
19
100
AcDbEntity
  8
1
100
AcDbLine
 10
-711.347736875706
 20
738.5867711889825
 30
0.0
 11
-722.7930283261612
 21
738.5867711889825
 31
0.0
  0
LINE
  5
3945
330
19
100
AcDbEntity
  8
1
100
AcDbLine
 10
-712.3477368757057
 20
740.8797846810196
 30
0.0
 11
-729.973091834526
 21
740.8797846810196
 31
0.0
  0
LINE
  5
3946
330
19
100
AcDbEntity
  8
1
100
AcDbLine
 10
-712.3477368757057
 20
738.8797846810197
 30
0.0
 11
-729.7249455709597
 21
738.8797846810197
 31
0.0
  0
LINE
  5
3947
330
19
100
AcDbEntity
  8
1
100
AcDbLine
 10
-710.347736875706
 20
737.5867711889825
 30
0.0
 11
-722.3512227583912
 21
737.5867711889825
 31
0.0
  0
LINE
  5
3948
330
19
100
AcDbEntity
  8
1
100
AcDbLine
 10
-710.347736875706
 20
741.0867711889825
 30
0.0
 11
-710.347736875706
 21
737.5867711889825
 31
0.0
  0
LINE
  5
3949
330
19
100
AcDbEntity
  8
1
100
AcDbLine
 10
-716.3477368757057
 20
738.8797846810197
 30
0.0
 11
-714.347736875706
 21
740.8797846810196
 31
0.0
  0
LINE
  5
394A
330
19
100
AcDbEntity
  8
1
 62
     0
100
AcDbLine
 10
-712.3477368757057
 20
740.1221267320011
 30
0.0
 11
-713.1053948247243
 21
740.8797846810196
 31
0.0
  0
LINE
  5
394B
330
19
100
AcDbEntity
  8
1
 62
     0
100
AcDbLine
 10
-712.5196083870973
 20
738.8797846810197
 30
0.0
 11
-714.5196083870976
 21
740.8797846810196
 31
0.0
  0
LINE
  5
394C
330
19
100
AcDbEntity
  8
1
 62
     0
100
AcDbLine
 10
-713.9338219494708
 20
738.8797846810197
 30
0.0
 11
-715.1407794125882
 21
740.0867421441374
 31
0.0
  0
LINE
  5
394D
330
19
100
AcDbEntity
  8
1
 62
     0
100
AcDbLine
 10
-715.3480355118436
 20
738.8797846810197
 30
0.0
 11
-715.8478861937749
 21
739.3796353629509
 31
0.0
  0
LINE
  5
394E
330
19
100
AcDbEntity
  8
1
100
AcDbLine
 10
-712.3477368757057
 20
740.8797846810196
 30
0.0
 11
-712.3477368757057
 21
738.8797846810197
 31
0.0
  0
LINE
  5
394F
330
19
100
AcDbEntity
  8
1
100
AcDbLine
 10
-711.347736875706
 20
742.0867711889825
 30
0.0
 11
-711.347736875706
 21
738.5867711889825
 31
0.0
  0
LINE
  5
3950
330
19
100
AcDbEntity
  8
1
 62
     0
100
AcDbLine
 10
-725.2475304484552
 20
738.8797846810197
 30
0.0
 11
-727.2475304484552
 21
740.8797846810196
 31
0.0
  0
LINE
  5
3951
330
19
100
AcDbEntity
  8
1
 62
     0
100
AcDbLine
 10
-723.8333168860823
 20
738.8797846810197
 30
0.0
 11
-725.8333168860823
 21
740.8797846810196
 31
0.0
  0
LINE
  5
3952
330
19
100
AcDbEntity
  8
1
100
AcDbLine
 10
-720.8477368757057
 20
738.8797846810197
 30
0.0
 11
-722.847736875706
 21
740.8797846810196
 31
0.0
  0
LINE
  5
3953
330
19
100
AcDbEntity
  8
1
 62
     0
100
AcDbLine
 10
-722.4191033237091
 20
738.8797846810197
 30
0.0
 11
-724.4191033237092
 21
740.8797846810196
 31
0.0
  0
LINE
  5
3954
330
19
100
AcDbEntity
  8
1
100
AcDbLine
 10
-730.3028924793164
 20
738.6797750503819
 30
0.0
 11
-730.3028924793164
 21
740.7656508320537
 31
0.0
  0
LINE
  5
3955
330
19
100
AcDbEntity
  8
1
 62
     0
100
AcDbLine
 10
-729.3579210243859
 20
738.8797846810197
 30
0.0
 11
-730.3028924793164
 21
739.8247561359501
 31
0.0
  0
LINE
  5
3956
330
19
100
AcDbEntity
  8
1
 62
     0
100
AcDbLine
 10
-728.0652334151461
 20
738.8797846810197
 30
0.0
 11
-730.0652334151461
 21
740.8797846810196
 31
0.0
  0
LINE
  5
3957
330
19
100
AcDbEntity
  8
1
 62
     0
100
AcDbLine
 10
-726.6617440108284
 20
738.8797846810197
 30
0.0
 11
-728.6617440108284
 21
740.8797846810196
 31
0.0
  0
LINE
  5
3A97
330
19
100
AcDbEntity
  8
1
100
AcDbLine
 10
-837.3477368757059
 20
686.1092026587398
 30
0.0
 11
-837.3477368757056
 21
656.0867711889827
 31
0.0
  0
LINE
  5
3A98
330
19
100
AcDbEntity
  8
1
100
AcDbLine
 10
-838.847736875706
 20
688.1092026587396
 30
0.0
 11
-838.8477368757062
 21
656.0867711889824
 31
0.0
  0
LWPOLYLINE
  5
3AAC
330
19
100
AcDbEntity
  8
1
100
AcDbPolyline
 90
        8
 70
     0
 43
0.0
 10
-837.3477368757056
 20
701.0867711889826
 42
0.414213562373094
 10
-835.3477368757054
 20
699.0867711889826
 10
-834.6675556283706
 20
699.0867711889826
 42
-0.4142135623730864
 10
-832.6675556283708
 20
697.0867711889826
 10
-832.6675556283708
 20
690.1092026587398
 42
-0.4142135623730951
 10
-834.667555628371
 20
688.1092026587398
 10
-835.3477368757054
 20
688.1092026587398
 42
0.4142135623730928
 10
-837.3477368757059
 20
686.1092026587398
  0
ARC
  5
3AAE
330
19
100
AcDbEntity
  8
1
100
AcDbCircle
 10
-835.3477368757054
 20
701.0867711889826
 30
0.0
 40
4.0
100
AcDbArc
 50
208.955024371846
 51
270.0
  0
LINE
  5
3AAF
330
19
100
AcDbEntity
  8
1
100
AcDbLine
 10
-835.3477368757054
 20
697.0867711889826
 30
0.0
 11
-834.6675556283706
 21
697.0867711889826
 31
0.0
  0
LINE
  5
3AB0
330
19
100
AcDbEntity
  8
1
100
AcDbLine
 10
-834.6675556283706
 20
697.0867711889826
 30
0.0
 11
-834.667555628371
 21
690.1092026587398
 31
0.0
  0
LINE
  5
3AB1
330
19
100
AcDbEntity
  8
1
100
AcDbLine
 10
-834.667555628371
 20
690.1092026587398
 30
0.0
 11
-835.3477368757054
 21
690.1092026587398
 31
0.0
  0
ARC
  5
3AB2
330
19
100
AcDbEntity
  8
1
100
AcDbCircle
 10
-835.3477368757054
 20
686.1092026587398
 30
0.0
 40
4.0
100
AcDbArc
 50
90.0
 51
151.0449756281466
  0
LWPOLYLINE
  5
3ABD
330
19
100
AcDbEntity
  8
1
100
AcDbPolyline
 90
        8
 70
     0
 43
0.0
 10
-727.3477368757062
 20
701.0867711889826
 42
-0.414213562373094
 10
-729.3477368757065
 20
699.0867711889826
 10
-730.0279181230412
 20
699.0867711889826
 42
0.4142135623730864
 10
-732.0279181230412
 20
697.0867711889826
 10
-732.0279181230412
 20
690.1092026587398
 42
0.4142135623730951
 10
-730.0279181230412
 20
688.1092026587398
 10
-729.3477368757062
 20
688.1092026587398
 42
-0.4142135623730928
 10
-727.3477368757062
 20
686.1092026587398
  0
ARC
  5
3ABE
330
19
100
AcDbEntity
  8
1
100
AcDbCircle
 10
-729.3477368757065
 20
701.0867711889826
 30
0.0
 40
4.0
100
AcDbArc
 50
270.0
 51
331.0449756281538
  0
ARC
  5
3ABF
330
19
100
AcDbEntity
  8
1
100
AcDbCircle
 10
-729.3477368757062
 20
686.1092026587398
 30
0.0
 40
4.0
100
AcDbArc
 50
28.95502437185341
 51
90.0
  0
LINE
  5
3AC0
330
19
100
AcDbEntity
  8
1
100
AcDbLine
 10
-729.3477368757065
 20
697.0867711889826
 30
0.0
 11
-730.0279181230412
 21
697.0867711889826
 31
0.0
  0
LINE
  5
3AC1
330
19
100
AcDbEntity
  8
1
100
AcDbLine
 10
-730.0279181230412
 20
697.0867711889826
 30
0.0
 11
-730.0279181230412
 21
690.1092026587398
 31
0.0
  0
LINE
  5
3AC2
330
19
100
AcDbEntity
  8
1
100
AcDbLine
 10
-730.0279181230412
 20
690.1092026587398
 30
0.0
 11
-729.3477368757062
 21
690.1092026587398
 31
0.0
  0
LINE
  5
3AC3
330
19
100
AcDbEntity
  8
1
100
AcDbLine
 10
-725.847736875706
 20
688.0456943318431
 30
0.0
 11
-725.8477368757056
 21
656.0867711889824
 31
0.0
  0
LINE
  5
3AC4
330
19
100
AcDbEntity
  8
1
100
AcDbLine
 10
-727.3477368757055
 20
686.1092026587398
 30
0.0
 11
-727.3477368757055
 21
656.0867711889827
 31
0.0
  0
CIRCLE
  5
3C3D
102
{ACAD_REACTORS
330
3E56
102
}
330
19
100
AcDbEntity
  8
1
100
AcDbCircle
 10
-730.8226536303197
 20
703.1562813146298
 30
0.0
 40
3.474916754613886
  0
CIRCLE
  5
3C56
102
{ACAD_REACTORS
330
3E56
102
}
330
19
100
AcDbEntity
  8
1
100
AcDbCircle
 10
-833.8728201210923
 20
703.1562813146298
 30
0.0
 40
3.474916754613886
  0
HATCH
  5
3E56
330
19
100
AcDbEntity
  8
1
100
AcDbHatch
 10
0.0
 20
0.0
 30
0.0
210
0.0
220
0.0
230
1.0
  2
SOLID
 70
     1
 71
     1
 91
        2
 92
        7
 72
     1
 73
     1
 93
        2
 10
-837.3477368757061
 20
703.1562813146298
 42
1.0
 10
-830.3979033664782
 20
703.1562813146298
 42
1.0
 97
        1
330
3C56
 92
        7
 72
     1
 73
     1
 93
        2
 10
-734.2975703849337
 20
703.1562813146298
 42
1.0
 10
-727.3477368757059
 20
703.1562813146298
 42
1.0
 97
        1
330
3C3D
 75
     0
 76
     1
 47
0.2451731988420617
 98
        2
 10
-832.6221779356512
 20
703.866469389728
 10
-732.9464777941727
 20
703.866469389728
  0
INSERT
  5
3FF5
330
19
100
AcDbEntity
  8
DIM
100
AcDbBlockReference
  2
foul air trap
 10
-2034.158111372172
 20
-403.7035089394882
 30
0.0
  0
LINE
  5
3FF8
330
19
100
AcDbEntity
  8
1
100
AcDbLine
 10
-741.0978545727552
 20
649.0867711889826
 30
0.0
 11
-727.0593843428721
 21
649.0867711889826
 31
0.0
  0
DIMENSION
  5
3FF9
330
19
100
AcDbEntity
  8
1
100
AcDbDimension
  2
*D2
 10
-701.347736875706
 20
754.0880801461737
 30
0.0
 11
-782.347736875706
 21
754.0880801461737
 31
0.0
 70
   160
  1
<> sq.
 71
     5
 42
161.9999999999999
  3
STANDARD
100
AcDbAlignedDimension
 13
-863.3477368757059
 23
742.0867711889825
 33
0.0
 14
-701.347736875706
 24
742.0867711889825
 34
0.0
100
AcDbRotatedDimension
1001
ACAD
1000
DSTYLE
1002
{
1070
     4
1000
mm
1070
    40
1040
30.0
1070
    41
1040
0.23
1070
    42
1040
0.12
1070
    77
1070
     1
1070
   140
1040
0.23
1070
   141
1040
0.0
1070
   171
1070
     0
1070
   271
1070
     0
1070
   272
1070
     0
1070
   274
1070
     0
1002
}
  0
LEADER
  5
408E
330
19
100
AcDbEntity
  8
1
100
AcDbLeader
  3
STANDARD
 73
     0
 74
     0
 75
     1
 40
18.88157894736841
 41
71.57602339181288
 76
     3
 10
-765.7724583964143
 20
608.9281709524812
 30
0.0
 10
-734.3193954708025
 20
566.0840094622686
 30
0.0
 10
-728.5693954708025
 20
566.0840094622686
 30
0.0
340
408F
213
0.0
223
-2.875
233
0.0
1001
ACAD
1000
DSTYLE
1002
{
1070
   147
1040
0.09
1070
     4
1000
mm
1070
    40
1040
25.0
1070
    41
1040
0.23
1070
    42
1040
0.07
1070
    77
1070
     0
1070
   140
1040
0.23
1070
   141
1040
0.0
1070
   171
1070
     0
1070
   271
1070
     0
1070
   272
1070
     0
1070
   274
1070
     0
1002
}
  0
MTEXT
  5
408F
102
{ACAD_REACTORS
330
408E
102
}
330
19
100
AcDbEntity
  8
1
100
AcDbMText
 10
-726.3193954708025
 20
568.9590094622686
 30
0.0
 40
7.0
 41
0.0
 71
     1
 72
     1
  1
REMOVABLE \PFOUL AIR TRAP
 73
     1
 44
1.0
  0
LINE
  5
419D
330
19
100
AcDbEntity
  8
1
100
AcDbLine
 10
-728.3477368757059
 20
717.0867711889825
 30
0.0
 11
-836.347736875706
 21
717.0867711889825
 31
0.0
  0
LINE
  5
42CA
330
19
100
AcDbEntity
  8
1
100
AcDbLine
 10
-670.8599625158857
 20
654.1643150618668
 30
0.0
 11
-670.8599625158857
 21
600.1643150618669
 31
0.0
  0
LINE
  5
4315
330
19
100
AcDbEntity
  8
1
100
AcDbLine
 10
-670.8599625158857
 20
600.1643150618669
 30
0.0
 11
-707.3477368757068
 21
600.1643150618669
 31
0.0
  0
LINE
  5
4339
330
19
100
AcDbEntity
  8
1
100
AcDbLine
 10
-670.8599625158857
 20
603.1643150618669
 30
0.0
 11
-707.3477368757068
 21
603.1643150618669
 31
0.0
  0
LINE
  5
4348
330
19
100
AcDbEntity
  8
1
100
AcDbLine
 10
-707.3477368757068
 20
651.1643150618667
 30
0.0
 11
-670.8599625158857
 21
651.1643150618667
 31
0.0
  0
LINE
  5
4355
330
19
100
AcDbEntity
  8
1
100
AcDbLine
 10
-707.3477368757068
 20
654.1643150618668
 30
0.0
 11
-670.8599625158857
 21
654.1643150618668
 31
0.0
  0
DIMENSION
  5
437F
330
19
100
AcDbEntity
  8
1
100
AcDbDimension
  2
*D9
 10
-647.3282687269737
 20
654.1643150618668
 30
0.0
 11
-647.3282687269739
 21
627.9033165001971
 31
0.0
 70
   160
  1
1.5" BSP
 71
     5
 42
53.99999999999988
  3
STANDARD
100
AcDbAlignedDimension
 13
-670.8599625158857
 23
600.1643150618669
 33
0.0
 14
-670.8599625158857
 24
654.1643150618668
 34
0.0
 50
90.0
100
AcDbRotatedDimension
1001
ACAD
1000
DSTYLE
1002
{
1070
     4
1000
mm
1070
    40
1040
30.0
1070
    41
1040
0.23
1070
    42
1040
0.12
1070
    77
1070
     1
1070
   140
1040
0.23
1070
   141
1040
0.0
1070
   171
1070
     0
1070
   271
1070
     0
1070
   272
1070
     0
1070
   274
1070
     0
1002
}
  0
MTEXT
  5
4686
330
19
100
AcDbEntity
  8
1
100
AcDbMText
 10
-815.315963757466
 20
540.1582801038631
 30
0.0
 40
9.0
 41
277.87
 71
     1
 72
     5
  1
{\fTechnicLite|b0|i0|c2|p2;KH162}
  7
ROMANC
 73
     1
 44
1.0
  0
LINE
  5
4872
330
19
100
AcDbEntity
  8
1
100
AcDbLine
 10
-575.7419153389657
 20
733.7478935650726
 30
0.0
 11
-456.282220983141
 21
733.7478935650726
 31
0.0
  0
LINE
  5
4873
330
19
100
AcDbEntity
  8
1
100
AcDbLine
 10
-440.741915338966
 20
736.7478935650726
 30
0.0
 11
-590.741915338966
 21
736.7478935650726
 31
0.0
  0
LINE
  5
4874
330
19
100
AcDbEntity
  8
1
100
AcDbLine
 10
-430.7419153389657
 20
739.7478935650728
 30
0.0
 11
-600.741915338966
 21
739.7478935650728
 31
0.0
  0
LINE
  5
4875
330
19
100
AcDbEntity
  8
1
100
AcDbLine
 10
-459.3297406349539
 20
733.7478935650723
 30
0.0
 11
-572.3297406349541
 21
733.7478935650729
 31
0.0
  0
DIMENSION
  5
4876
330
19
100
AcDbEntity
  8
1
100
AcDbDimension
  2
*D13
 10
-430.7419153389657
 20
756.8324365844353
 30
0.0
 11
-515.7419153389659
 21
762.4718444791721
 31
0.0
 70
    32
  1
<> SQ
 71
     5
 42
170.0000000000002
  3
STANDARD
100
AcDbAlignedDimension
 13
-600.741915338966
 23
739.7478935650728
 33
0.0
 14
-430.7419153389657
 24
739.7478935650728
 34
0.0
100
AcDbRotatedDimension
1001
ACAD
1000
DSTYLE
1002
{
1070
     4
1000
mm
1070
    40
1040
27.0
1070
    41
1040
0.23
1070
    42
1040
0.12
1070
    77
1070
     1
1070
   140
1040
0.23
1070
   141
1040
0.0
1070
   171
1070
     0
1070
   271
1070
     0
1070
   272
1070
     0
1070
   274
1070
     0
1002
}
  0
INSERT
  5
487B
330
19
100
AcDbEntity
  8
DIM
100
AcDbBlockReference
  2
foul air trap
 10
-1767.64011513142
 20
-403.7035089394882
 30
0.0
  0
HATCH
  5
487C
330
19
100
AcDbEntity
  8
1
100
AcDbHatch
 10
0.0
 20
0.0
 30
0.0
210
0.0
220
0.0
230
1.0
  2
SOLID
 70
     1
 71
     0
 91
        2
 92
        7
 72
     1
 73
     1
 93
        2
 10
-570.829740634954
 20
703.1562813146298
 42
1.0
 10
-563.8799071257262
 20
703.1562813146298
 42
1.0
 97
        0
 92
        7
 72
     1
 73
     1
 93
        2
 10
-467.7795741441816
 20
703.1562813146298
 42
1.0
 10
-460.8297406349539
 20
703.1562813146298
 42
1.0
 97
        0
 75
     0
 76
     1
 47
0.2451731988420617
 98
        2
 10
-566.1041816948991
 20
703.866469389728
 10
-466.4284815534207
 20
703.866469389728
  0
LINE
  5
487E
330
19
100
AcDbEntity
  8
1
100
AcDbLine
 10
-570.8297406349537
 20
656.0867711889827
 30
0.0
 11
-570.2196504357202
 21
649.1134083023402
 31
0.0
  0
LINE
  5
487F
330
19
100
AcDbEntity
  8
1
100
AcDbLine
 10
-572.3297406349541
 20
656.0867711889824
 30
0.0
 11
-571.7229657883276
 21
649.0867711889824
 31
0.0
  0
LINE
  5
48C2
330
19
100
AcDbEntity
  8
1
100
AcDbLine
 10
-571.7229657883276
 20
649.0867711889824
 30
0.0
 11
-559.1041886943164
 21
649.0867711889824
 31
0.0
  0
CIRCLE
  5
48C3
330
19
100
AcDbEntity
  8
1
100
AcDbCircle
 10
-567.3548238803403
 20
703.1562813146298
 30
0.0
 40
3.474916754613886
  0
LWPOLYLINE
  5
48C4
330
19
100
AcDbEntity
  8
1
100
AcDbPolyline
 90
        8
 70
     0
 43
0.0
 10
-570.8297406349536
 20
701.0867711889826
 42
0.414213562373094
 10
-568.8297406349537
 20
699.0867711889826
 10
-568.1495593876187
 20
699.0867711889826
 42
-0.4142135623730864
 10
-566.1495593876187
 20
697.0867711889826
 10
-566.1495593876188
 20
690.1092026587398
 42
-0.4142135623730951
 10
-568.1495593876187
 20
688.1092026587398
 10
-568.8297406349538
 20
688.1092026587398
 42
0.4142135623730928
 10
-570.8297406349538
 20
686.1092026587398
  0
LINE
  5
48C5
330
19
100
AcDbEntity
  8
1
100
AcDbLine
 10
-572.3297406349541
 20
733.7478935650729
 30
0.0
 11
-572.3297406349541
 21
699.0867711889826
 31
0.0
  0
LINE
  5
48C6
330
19
100
AcDbEntity
  8
1
100
AcDbLine
 10
-572.3297406349541
 20
688.1092026587396
 30
0.0
 11
-572.3297406349541
 21
656.0867711889824
 31
0.0
  0
LINE
  5
48C7
330
19
100
AcDbEntity
  8
1
100
AcDbLine
 10
-570.8297406349538
 20
686.1092026587398
 30
0.0
 11
-570.8297406349537
 21
656.0867711889827
 31
0.0
  0
ARC
  5
48C8
330
19
100
AcDbEntity
  8
1
100
AcDbCircle
 10
-568.8297406349538
 20
686.1092026587398
 30
0.0
 40
4.0
100
AcDbArc
 50
90.0
 51
151.0449756281466
  0
ARC
  5
48C9
330
19
100
AcDbEntity
  8
1
100
AcDbCircle
 10
-568.8297406349537
 20
701.0867711889826
 30
0.0
 40
4.0
100
AcDbArc
 50
208.9550243718459
 51
270.0
  0
LINE
  5
48CA
330
19
100
AcDbEntity
  8
1
100
AcDbLine
 10
-568.1495593876187
 20
690.1092026587398
 30
0.0
 11
-568.8297406349538
 21
690.1092026587398
 31
0.0
  0
LINE
  5
48CB
330
19
100
AcDbEntity
  8
1
100
AcDbLine
 10
-568.1495593876187
 20
697.0867711889826
 30
0.0
 11
-568.1495593876187
 21
690.1092026587398
 31
0.0
  0
LINE
  5
48CC
330
19
100
AcDbEntity
  8
1
100
AcDbLine
 10
-568.8297406349537
 20
697.0867711889826
 30
0.0
 11
-568.1495593876187
 21
697.0867711889826
 31
0.0
  0
LINE
  5
48CD
330
19
100
AcDbEntity
  8
1
100
AcDbLine
 10
-575.7419153389657
 20
725.9553463839751
 30
0.0
 11
-585.7419153389657
 21
725.9553463839751
 31
0.0
  0
INSERT
  5
48CE
330
19
100
AcDbEntity
  8
1
100
AcDbBlockReference
  2
Slotted Flathead Screw - 10 x 20 mm side
 10
-580.7419153389657
 20
739.7478935650728
 30
0.0
 41
0.6000000000000229
 42
0.6000000000000229
 43
0.6
 50
270.0
  0
LINE
  5
48CF
330
19
100
AcDbEntity
  8
1
100
AcDbLine
 10
-600.741915338966
 20
733.7478935650726
 30
0.0
 11
-585.741915338966
 21
733.7478935650726
 31
0.0
  0
LINE
  5
48D0
330
19
100
AcDbEntity
  8
1
100
AcDbLine
 10
-600.741915338966
 20
739.7478935650728
 30
0.0
 11
-600.741915338966
 21
733.7478935650726
 31
0.0
  0
LINE
  5
48D1
330
19
100
AcDbEntity
  8
1
100
AcDbLine
 10
-585.7419153389657
 20
725.9553463839751
 30
0.0
 11
-585.741915338966
 21
736.7558400600735
 31
0.0
  0
LINE
  5
48D2
330
19
100
AcDbEntity
  8
1
100
AcDbLine
 10
-590.741915338966
 20
739.7478935650728
 30
0.0
 11
-590.741915338966
 21
736.7478935650726
 31
0.0
  0
LINE
  5
48D3
330
19
100
AcDbEntity
  8
1
100
AcDbLine
 10
-570.8297406349536
 20
733.7478935650729
 30
0.0
 11
-570.8297406349536
 21
701.0867711889826
 31
0.0
  0
LINE
  5
48D4
330
19
100
AcDbEntity
  8
1
100
AcDbLine
 10
-572.3297406349541
 20
725.2363680196435
 30
0.0
 11
-572.3297406349541
 21
707.0867711889825
 31
0.0
  0
LINE
  5
48D5
330
19
100
AcDbEntity
  8
1
100
AcDbLine
 10
-570.829740634954
 20
723.6827965910719
 30
0.0
 11
-570.8297406349538
 21
707.0867711889825
 31
0.0
  0
LINE
  5
48D6
330
19
100
AcDbEntity
  8
1
100
AcDbLine
 10
-575.7419153389657
 20
736.7558400600735
 30
0.0
 11
-575.7419153389657
 21
725.9553463839751
 31
0.0
  0
LINE
  5
48DB
330
19
100
AcDbEntity
  8
1
100
AcDbLine
 10
-459.3297406349537
 20
656.0867711889824
 30
0.0
 11
-460.5413881021198
 21
649.0867711889826
 31
0.0
  0
LINE
  5
48DC
330
19
100
AcDbEntity
  8
1
100
AcDbLine
 10
-460.8297406349537
 20
656.0867711889824
 30
0.0
 11
-462.0640294999135
 21
649.0867711889826
 31
0.0
  0
LINE
  5
48E0
330
19
100
AcDbEntity
  8
1
100
AcDbLine
 10
-474.5798583320031
 20
649.0867711889826
 30
0.0
 11
-460.5413881021203
 21
649.0867711889826
 31
0.0
  0
LINE
  5
48E1
330
19
100
AcDbEntity
  8
1
100
AcDbLine
 10
-460.5413881021198
 20
649.0867711889827
 30
0.0
 11
-474.667683627991
 21
649.0867711889827
 31
0.0
  0
INSERT
  5
4932
330
19
100
AcDbEntity
  8
1
100
AcDbBlockReference
  2
Slotted Flathead Screw - 10 x 20 mm side
 10
-451.282220983141
 20
739.7478935650728
 30
0.0
 41
-0.6000000000000229
 42
0.6000000000000229
 43
0.6
 50
90.0
  0
LINE
  5
4933
330
19
100
AcDbEntity
  8
1
100
AcDbLine
 10
-456.282220983141
 20
725.9553463839751
 30
0.0
 11
-446.282220983141
 21
725.9553463839751
 31
0.0
  0
LINE
  5
4934
330
19
100
AcDbEntity
  8
1
100
AcDbLine
 10
-460.741915338966
 20
733.7478935650726
 30
0.0
 11
-515.741915338966
 21
733.7478935650726
 31
0.0
  0
CIRCLE
  5
4935
330
19
100
AcDbEntity
  8
1
100
AcDbCircle
 10
-464.3046573895677
 20
703.1562813146298
 30
0.0
 40
3.474916754613886
  0
LWPOLYLINE
  5
4936
330
19
100
AcDbEntity
  8
1
100
AcDbPolyline
 90
        8
 70
     0
 43
0.0
 10
-460.8297406349546
 20
701.0867711889826
 42
-0.414213562373094
 10
-462.8297406349545
 20
699.0867711889826
 10
-463.5099218822896
 20
699.0867711889826
 42
0.4142135623730864
 10
-465.5099218822892
 20
697.0867711889826
 10
-465.5099218822892
 20
690.1092026587398
 42
0.4142135623730951
 10
-463.5099218822892
 20
688.1092026587398
 10
-462.8297406349542
 20
688.1092026587398
 42
-0.4142135623730928
 10
-460.8297406349542
 20
686.1092026587398
  0
LINE
  5
4937
330
19
100
AcDbEntity
  8
1
100
AcDbLine
 10
-459.3297406349539
 20
733.7478935650723
 30
0.0
 11
-459.3297406349539
 21
699.1502795158798
 31
0.0
  0
LINE
  5
4938
330
19
100
AcDbEntity
  8
1
100
AcDbLine
 10
-460.8297406349537
 20
686.1092026587398
 30
0.0
 11
-460.8297406349537
 21
656.0867711889827
 31
0.0
  0
LINE
  5
4939
330
19
100
AcDbEntity
  8
1
100
AcDbLine
 10
-459.3297406349539
 20
688.0456943318431
 30
0.0
 11
-459.3297406349537
 21
656.0867711889824
 31
0.0
  0
ARC
  5
493A
330
19
100
AcDbEntity
  8
1
100
AcDbCircle
 10
-462.8297406349542
 20
686.1092026587398
 30
0.0
 40
4.0
100
AcDbArc
 50
28.95502437185339
 51
90.0
  0
ARC
  5
493B
330
19
100
AcDbEntity
  8
1
100
AcDbCircle
 10
-462.8297406349545
 20
701.0867711889826
 30
0.0
 40
4.0
100
AcDbArc
 50
270.0
 51
331.0449756281538
  0
LINE
  5
493C
330
19
100
AcDbEntity
  8
1
100
AcDbLine
 10
-463.5099218822892
 20
690.1092026587398
 30
0.0
 11
-462.8297406349542
 21
690.1092026587398
 31
0.0
  0
LINE
  5
493D
330
19
100
AcDbEntity
  8
1
100
AcDbLine
 10
-463.5099218822896
 20
697.0867711889826
 30
0.0
 11
-463.5099218822892
 21
690.1092026587398
 31
0.0
  0
LINE
  5
493E
330
19
100
AcDbEntity
  8
1
100
AcDbLine
 10
-462.8297406349545
 20
697.0867711889826
 30
0.0
 11
-463.5099218822896
 21
697.0867711889826
 31
0.0
  0
LINE
  5
493F
330
19
100
AcDbEntity
  8
1
100
AcDbLine
 10
-460.829740634954
 20
733.7478935650726
 30
0.0
 11
-460.8297406349537
 21
701.0867711889826
 31
0.0
  0
LINE
  5
4940
330
19
100
AcDbEntity
  8
1
100
AcDbLine
 10
-459.3297406349539
 20
725.2363680196435
 30
0.0
 11
-459.3297406349539
 21
707.0867711889825
 31
0.0
  0
LINE
  5
4941
330
19
100
AcDbEntity
  8
1
100
AcDbLine
 10
-460.829740634954
 20
723.6827965910719
 30
0.0
 11
-460.8297406349537
 21
707.0867711889825
 31
0.0
  0
LINE
  5
4942
330
19
100
AcDbEntity
  8
1
100
AcDbLine
 10
-456.282220983141
 20
736.7558400600735
 30
0.0
 11
-456.282220983141
 21
725.9553463839751
 31
0.0
  0
LINE
  5
4955
330
19
100
AcDbEntity
  8
1
100
AcDbLine
 10
-446.282220983141
 20
733.7478935650728
 30
0.0
 11
-430.7419153389657
 21
733.7478935650726
 31
0.0
  0
LINE
  5
4956
330
19
100
AcDbEntity
  8
1
100
AcDbLine
 10
-446.282220983141
 20
725.9553463839751
 30
0.0
 11
-446.282220983141
 21
736.7558400600735
 31
0.0
  0
LINE
  5
4957
330
19
100
AcDbEntity
  8
1
100
AcDbLine
 10
-430.7419153389657
 20
733.7478935650726
 30
0.0
 11
-430.7419153389657
 21
739.7478935650728
 31
0.0
  0
LINE
  5
4958
330
19
100
AcDbEntity
  8
1
100
AcDbLine
 10
-440.741915338966
 20
736.7478935650726
 30
0.0
 11
-440.741915338966
 21
739.7478935650728
 31
0.0
  0
LINE
  5
4ADE
330
19
100
AcDbEntity
  8
1
100
AcDbLine
 10
-857.3477368757057
 20
683.2141203416745
 30
0.0
 11
-857.3477368757057
 21
589.2141203416754
 31
0.0
  0
LINE
  5
4ADF
330
19
100
AcDbEntity
  8
1
100
AcDbLine
 10
-856.3477368757045
 20
683.2141203416745
 30
0.0
 11
-856.3477368757045
 21
589.8593042056384
 31
0.0
  0
LINE
  5
4AE0
330
19
100
AcDbEntity
  8
1
100
AcDbLine
 10
-856.3477368757045
 20
589.8593042056384
 30
0.0
 11
-810.1228517792842
 21
568.9480466620176
 31
0.0
  0
LINE
  5
4AE1
330
19
100
AcDbEntity
  8
1
100
AcDbLine
 10
-857.3477368757057
 20
589.2141203416754
 30
0.0
 11
-809.2332582154099
 21
567.4480466620178
 31
0.0
  0
LINE
  5
4AE4
330
19
100
AcDbEntity
  8
1
100
AcDbLine
 10
-708.3477368757058
 20
683.2141203416745
 30
0.0
 11
-708.3477368757058
 21
589.8593042056384
 31
0.0
  0
LINE
  5
4AE5
330
19
100
AcDbEntity
  8
1
100
AcDbLine
 10
-707.3477368757058
 20
683.2141203416745
 30
0.0
 11
-707.3477368757058
 21
589.2141203416754
 31
0.0
  0
LINE
  5
4AE6
330
19
100
AcDbEntity
  8
1
100
AcDbLine
 10
-707.3477368757058
 20
589.2141203416754
 30
0.0
 11
-755.4622155359981
 21
567.4480466620178
 31
0.0
  0
LINE
  5
4AE7
330
19
100
AcDbEntity
  8
1
100
AcDbLine
 10
-707.3477368757058
 20
590.3116851580194
 30
0.0
 11
-754.5726219721232
 21
568.9480466620177
 31
0.0
  0
LWPOLYLINE
  5
4AEA
330
19
100
AcDbEntity
  8
1
100
AcDbPolyline
 90
        5
 70
     0
 43
0.0
 10
-840.4988851988983
 20
670.8326724075704
 10
-841.6962726469428
 20
669.1075589446804
 10
-841.6962726469428
 20
668.3109048046774
 10
-841.6962726469428
 20
667.7134141996755
 10
-841.4300816557757
 20
666.9115303485876
  0
LINE
  5
4AEB
330
19
100
AcDbEntity
  8
1
100
AcDbLine
 10
-856.0522117282866
 20
666.5375998432405
 30
0.0
 11
-856.0522117282866
 21
672.5375998432404
 31
0.0
  0
LINE
  5
4AEC
330
19
100
AcDbEntity
  8
1
100
AcDbLine
 10
-855.1660457704111
 20
667.0375998432405
 30
0.0
 11
-855.1660457704111
 21
672.5375998432404
 31
0.0
  0
LINE
  5
4AED
330
19
100
AcDbEntity
  8
1
100
AcDbLine
 10
-854.8760417358998
 20
666.9115303485876
 30
0.0
 11
-854.8760417358998
 21
672.7690516164984
 31
0.0
  0
INSERT
  5
4AEE
330
19
100
AcDbEntity
  8
1
100
AcDbBlockReference
  2
*X3
 10
-226.4310419913117
 20
285.3359870508898
 30
0.0
  0
LINE
  5
4AEF
330
19
100
AcDbEntity
  8
1
100
AcDbLine
 10
-839.3253422219496
 20
665.5375998432405
 30
0.0
 11
-855.0522117282866
 21
665.5375998432405
 31
0.0
  0
LINE
  5
4AF0
330
19
100
AcDbEntity
  8
1
100
AcDbLine
 10
-839.3253422219496
 20
666.5375998432405
 30
0.0
 11
-854.6660457704115
 21
666.5375998432405
 31
0.0
  0
LINE
  5
4AF1
330
19
100
AcDbEntity
  8
1
100
AcDbLine
 10
-854.8760417358998
 20
666.9115303485876
 30
0.0
 11
-841.4300816557757
 21
666.9115303485876
 31
0.0
  0
ARC
  5
4AF2
330
19
100
AcDbEntity
  8
1
100
AcDbCircle
 10
-854.6660457704115
 20
667.0375998432405
 30
0.0
 40
0.5
100
AcDbArc
 50
180.0
 51
270.0
  0
ARC
  5
4AF3
330
19
100
AcDbEntity
  8
1
100
AcDbCircle
 10
-855.0522117282866
 20
666.5375998432405
 30
0.0
 40
1.0
100
AcDbArc
 50
180.0
 51
270.0
  0
LINE
  5
4AF4
330
19
100
AcDbEntity
  8
1
100
AcDbLine
 10
-839.3253422219496
 20
666.5375998432405
 30
0.0
 11
-839.3253422219496
 21
665.5375998432405
 31
0.0
  0
LINE
  5
4AF5
330
19
100
AcDbEntity
  8
1
100
AcDbLine
 10
-854.8760417358998
 20
681.7822354928676
 30
0.0
 11
-841.1113520767157
 21
681.7822354928676
 31
0.0
  0
LINE
  5
4AF6
330
19
100
AcDbEntity
  8
1
100
AcDbLine
 10
-839.3253422219508
 20
682.1875318283835
 30
0.0
 11
-854.6660457704115
 21
682.1875318283835
 31
0.0
  0
LINE
  5
4AF7
330
19
100
AcDbEntity
  8
1
100
AcDbLine
 10
-839.3253422219508
 20
683.1875318283823
 30
0.0
 11
-855.0522117282866
 21
683.1875318283823
 31
0.0
  0
LINE
  5
4AF8
330
19
100
AcDbEntity
  8
1
100
AcDbLine
 10
-857.3477368757057
 20
683.2141203416745
 30
0.0
 11
-856.3477368757045
 21
683.2141203416745
 31
0.0
  0
LINE
  5
4AF9
330
19
100
AcDbEntity
  8
1
100
AcDbLine
 10
-854.8760417358998
 20
681.7822354928676
 30
0.0
 11
-854.8760417358998
 21
675.9617460357874
 31
0.0
  0
LINE
  5
4AFA
330
19
100
AcDbEntity
  8
1
100
AcDbLine
 10
-856.0522117282866
 20
682.1875318283835
 30
0.0
 11
-856.0522117282866
 21
676.1875318283834
 31
0.0
  0
LINE
  5
4AFB
330
19
100
AcDbEntity
  8
1
100
AcDbLine
 10
-855.1660457704111
 20
681.6875318283823
 30
0.0
 11
-855.1660457704111
 21
676.1875318283834
 31
0.0
  0
LINE
  5
4AFC
330
19
100
AcDbEntity
  8
1
100
AcDbLine
 10
-854.8760417358998
 20
675.9617460357874
 30
0.0
 11
-855.9680936349677
 21
675.9617460357874
 31
0.0
  0
LINE
  5
4AFD
330
19
100
AcDbEntity
  8
1
100
AcDbLine
 10
-855.1660457704111
 20
676.1875318283834
 30
0.0
 11
-856.0522117282866
 21
676.1875318283834
 31
0.0
  0
ARC
  5
4AFE
330
19
100
AcDbEntity
  8
1
100
AcDbCircle
 10
-854.6660457704115
 20
681.6875318283823
 30
0.0
 40
0.5
100
AcDbArc
 50
90.0
 51
180.0
  0
LINE
  5
4AFF
330
19
100
AcDbEntity
  8
1
100
AcDbLine
 10
-855.1660457704111
 20
672.5375998432404
 30
0.0
 11
-856.0522117282866
 21
672.5375998432404
 31
0.0
  0
LINE
  5
4B00
330
19
100
AcDbEntity
  8
1
100
AcDbLine
 10
-854.8760417358998
 20
672.7690516164984
 30
0.0
 11
-855.9680936349677
 21
672.7690516164984
 31
0.0
  0
LINE
  5
4B01
330
19
100
AcDbEntity
  8
1
100
AcDbLine
 10
-855.9680936349677
 20
675.9617460357874
 30
0.0
 11
-855.9680936349677
 21
672.7690516164984
 31
0.0
  0
ARC
  5
4B02
330
19
100
AcDbEntity
  8
1
100
AcDbCircle
 10
-855.0522117282866
 20
682.1875318283835
 30
0.0
 40
1.0
100
AcDbArc
 50
90.0
 51
180.0
  0
ARC
  5
4B03
330
19
100
AcDbEntity
  8
1
100
AcDbCircle
 10
-839.5311226367834
 20
677.4024892490524
 30
0.0
 40
0.5999999999999909
100
AcDbArc
 50
346.436501194143
 51
166.4365011941462
  0
LWPOLYLINE
  5
4B04
330
19
100
AcDbEntity
  8
1
100
AcDbPolyline
 90
        7
 70
     0
 43
0.0
 10
-841.1113520767157
 20
681.7822354928676
 10
-840.6364493933606
 20
679.7296141447195
 10
-840.5442908495714
 20
677.8707544847125
 10
-841.1433213842038
 20
675.7463434447043
 10
-841.4658762874692
 20
673.8874837846985
 10
-841.4658762874692
 20
672.8916661096944
 10
-841.3536255831978
 20
672.4064968318514
  0
LINE
  5
4B05
330
19
100
AcDbEntity
  8
1
100
AcDbLine
 10
-841.3536255831978
 20
672.4064968318514
 30
0.0
 11
-840.1143889994123
 21
677.5432029663136
 31
0.0
  0
LINE
  5
4B06
330
19
100
AcDbEntity
  8
1
100
AcDbLine
 10
-840.4988851988983
 20
670.8326724075704
 30
0.0
 11
-838.9478562741546
 21
677.2617755317906
 31
0.0
  0
LINE
  5
4B07
330
19
100
AcDbEntity
  8
1
100
AcDbLine
 10
-839.3253422219508
 20
683.1875318283823
 30
0.0
 11
-839.3253422219508
 21
682.1875318283835
 31
0.0
  0
LINE
  5
4B08
330
19
100
AcDbEntity
  8
1
100
AcDbLine
 10
-709.8194320155116
 20
666.9115303485876
 30
0.0
 11
-709.8194320155116
 21
672.7690516164984
 31
0.0
  0
LINE
  5
4B09
330
19
100
AcDbEntity
  8
1
100
AcDbLine
 10
-708.6432620231239
 20
666.5375998432405
 30
0.0
 11
-708.6432620231239
 21
672.5375998432404
 31
0.0
  0
LINE
  5
4B0A
330
19
100
AcDbEntity
  8
1
100
AcDbLine
 10
-709.5294279810005
 20
667.0375998432405
 30
0.0
 11
-709.5294279810005
 21
672.5375998432404
 31
0.0
  0
LWPOLYLINE
  5
4B0B
330
19
100
AcDbEntity
  8
1
100
AcDbPolyline
 90
        5
 70
     0
 43
0.0
 10
-724.1965885525123
 20
670.8326724075704
 10
-722.9992011044682
 20
669.1075589446804
 10
-722.9992011044682
 20
668.3109048046774
 10
-722.9992011044682
 20
667.7134141996755
 10
-723.2653920956354
 20
666.9115303485876
  0
INSERT
  5
4B0C
330
19
100
AcDbEntity
  8
1
100
AcDbBlockReference
  2
*X3
 10
-1338.2644317601
 20
285.3359870508898
 30
0.0
 41
-1.0
  0
ARC
  5
4B0D
330
19
100
AcDbEntity
  8
1
100
AcDbCircle
 10
-710.0294279810005
 20
667.0375998432405
 30
0.0
 40
0.5
100
AcDbArc
 50
270.0
 51
0.0
  0
LINE
  5
4B0E
330
19
100
AcDbEntity
  8
1
100
AcDbLine
 10
-725.3701315294606
 20
666.5375998432405
 30
0.0
 11
-725.3701315294606
 21
665.5375998432405
 31
0.0
  0
LINE
  5
4B0F
330
19
100
AcDbEntity
  8
1
100
AcDbLine
 10
-709.8194320155116
 20
666.9115303485876
 30
0.0
 11
-723.2653920956354
 21
666.9115303485876
 31
0.0
  0
LINE
  5
4B10
330
19
100
AcDbEntity
  8
1
100
AcDbLine
 10
-725.3701315294606
 20
665.5375998432405
 30
0.0
 11
-709.6432620231244
 21
665.5375998432405
 31
0.0
  0
LINE
  5
4B11
330
19
100
AcDbEntity
  8
1
100
AcDbLine
 10
-725.3701315294606
 20
666.5375998432405
 30
0.0
 11
-710.0294279810005
 21
666.5375998432405
 31
0.0
  0
ARC
  5
4B12
330
19
100
AcDbEntity
  8
1
100
AcDbCircle
 10
-709.6432620231244
 20
666.5375998432405
 30
0.0
 40
1.0
100
AcDbArc
 50
270.0
 51
0.0
  0
LINE
  5
4B13
330
19
100
AcDbEntity
  8
1
100
AcDbLine
 10
-707.3477368757058
 20
683.2141203416745
 30
0.0
 11
-708.3477368757058
 21
683.2141203416745
 31
0.0
  0
LINE
  5
4B14
330
19
100
AcDbEntity
  8
1
100
AcDbLine
 10
-725.3701315294606
 20
683.1875318283823
 30
0.0
 11
-709.6432620231244
 21
683.1875318283823
 31
0.0
  0
LINE
  5
4B15
330
19
100
AcDbEntity
  8
1
100
AcDbLine
 10
-709.8194320155116
 20
681.7822354928676
 30
0.0
 11
-709.8194320155116
 21
675.9617460357874
 31
0.0
  0
LINE
  5
4B16
330
19
100
AcDbEntity
  8
1
100
AcDbLine
 10
-709.5294279810005
 20
681.6875318283823
 30
0.0
 11
-709.5294279810005
 21
676.1875318283834
 31
0.0
  0
LINE
  5
4B17
330
19
100
AcDbEntity
  8
1
100
AcDbLine
 10
-708.6432620231239
 20
682.1875318283835
 30
0.0
 11
-708.6432620231239
 21
676.1875318283834
 31
0.0
  0
LINE
  5
4B18
330
19
100
AcDbEntity
  8
1
100
AcDbLine
 10
-709.8194320155116
 20
675.9617460357874
 30
0.0
 11
-708.7273801164424
 21
675.9617460357874
 31
0.0
  0
LINE
  5
4B19
330
19
100
AcDbEntity
  8
1
100
AcDbLine
 10
-709.5294279810005
 20
676.1875318283834
 30
0.0
 11
-708.6432620231239
 21
676.1875318283834
 31
0.0
  0
ARC
  5
4B1A
330
19
100
AcDbEntity
  8
1
100
AcDbCircle
 10
-710.0294279810005
 20
681.6875318283823
 30
0.0
 40
0.5
100
AcDbArc
 50
0.0
 51
90.0
  0
LINE
  5
4B1B
330
19
100
AcDbEntity
  8
1
100
AcDbLine
 10
-709.8194320155116
 20
672.7690516164984
 30
0.0
 11
-708.7273801164424
 21
672.7690516164984
 31
0.0
  0
LINE
  5
4B1C
330
19
100
AcDbEntity
  8
1
100
AcDbLine
 10
-709.5294279810005
 20
672.5375998432404
 30
0.0
 11
-708.6432620231239
 21
672.5375998432404
 31
0.0
  0
LINE
  5
4B1D
330
19
100
AcDbEntity
  8
1
100
AcDbLine
 10
-708.7273801164424
 20
675.9617460357874
 30
0.0
 11
-708.7273801164424
 21
672.7690516164984
 31
0.0
  0
ARC
  5
4B1E
330
19
100
AcDbEntity
  8
1
100
AcDbCircle
 10
-725.1643511146267
 20
677.4024892490524
 30
0.0
 40
0.5999999999999909
100
AcDbArc
 50
13.56349880585371
 51
193.5634988058568
  0
LWPOLYLINE
  5
4B1F
330
19
100
AcDbEntity
  8
1
100
AcDbPolyline
 90
        7
 70
     0
 43
0.0
 10
-723.5841216746934
 20
681.7822354928676
 10
-724.0590243580495
 20
679.7296141447195
 10
-724.1511829018395
 20
677.8707544847125
 10
-723.5521523672064
 20
675.7463434447043
 10
-723.2295974639423
 20
673.8874837846985
 10
-723.2295974639423
 20
672.8916661096944
 10
-723.3418481682124
 20
672.4064968318514
  0
LINE
  5
4B20
330
19
100
AcDbEntity
  8
1
100
AcDbLine
 10
-723.3418481682124
 20
672.4064968318514
 30
0.0
 11
-724.5810847519979
 21
677.5432029663136
 31
0.0
  0
LINE
  5
4B21
330
19
100
AcDbEntity
  8
1
100
AcDbLine
 10
-724.1965885525123
 20
670.8326724075704
 30
0.0
 11
-725.7476174772564
 21
677.2617755317906
 31
0.0
  0
LINE
  5
4B22
330
19
100
AcDbEntity
  8
1
100
AcDbLine
 10
-709.8194320155116
 20
681.7822354928676
 30
0.0
 11
-723.5841216746934
 21
681.7822354928676
 31
0.0
  0
LINE
  5
4B23
330
19
100
AcDbEntity
  8
1
100
AcDbLine
 10
-725.3701315294606
 20
682.1875318283835
 30
0.0
 11
-710.0294279810005
 21
682.1875318283835
 31
0.0
  0
LINE
  5
4B24
330
19
100
AcDbEntity
  8
1
100
AcDbLine
 10
-725.3701315294606
 20
683.1875318283823
 30
0.0
 11
-725.3701315294606
 21
682.1875318283835
 31
0.0
  0
ARC
  5
4B25
330
19
100
AcDbEntity
  8
1
100
AcDbCircle
 10
-709.6432620231244
 20
682.1875318283835
 30
0.0
 40
1.0
100
AcDbArc
 50
0.0
 51
90.0
  0
LINE
  5
4B2C
330
19
100
AcDbEntity
  8
1
100
AcDbLine
 10
-809.2332582154096
 20
567.4480466620178
 30
0.0
 11
-755.4622155359986
 21
567.4480466620178
 31
0.0
  0
LINE
  5
4B2E
330
19
100
AcDbEntity
  8
1
100
AcDbLine
 10
-810.1228517792842
 20
568.9480466620177
 30
0.0
 11
-754.5726219721233
 21
568.9480466620177
 31
0.0
  0
LINE
  5
4B2F
330
19
100
AcDbEntity
  8
1
100
AcDbLine
 10
-572.8073459811987
 20
683.1875318283823
 30
0.0
 11
-572.8073459811987
 21
682.1875318283835
 31
0.0
  0
ARC
  5
4B30
330
19
100
AcDbEntity
  8
1
100
AcDbCircle
 10
-588.5342154875345
 20
682.1875318283835
 30
0.0
 40
1.0
100
AcDbArc
 50
90.0
 51
180.0
  0
LINE
  5
4B31
330
19
100
AcDbEntity
  8
1
100
AcDbLine
 10
-572.8073459811987
 20
682.1875318283835
 30
0.0
 11
-588.1480495296593
 21
682.1875318283835
 31
0.0
  0
LINE
  5
4B32
330
19
100
AcDbEntity
  8
1
100
AcDbLine
 10
-588.3580454951477
 20
681.7822354928676
 30
0.0
 11
-574.5933558359636
 21
681.7822354928676
 31
0.0
  0
LINE
  5
4B33
330
19
100
AcDbEntity
  8
1
100
AcDbLine
 10
-588.3580454951477
 20
666.9115303485876
 30
0.0
 11
-574.9120854150235
 21
666.9115303485876
 31
0.0
  0
LINE
  5
4B34
330
19
100
AcDbEntity
  8
1
100
AcDbLine
 10
-572.8073459811973
 20
666.5375998432405
 30
0.0
 11
-588.1480495296593
 21
666.5375998432405
 31
0.0
  0
LINE
  5
4B35
330
19
100
AcDbEntity
  8
1
100
AcDbLine
 10
-572.8073459811973
 20
665.5375998432405
 30
0.0
 11
-588.5342154875345
 21
665.5375998432405
 31
0.0
  0
INSERT
  5
4B36
330
19
100
AcDbEntity
  8
1
100
AcDbBlockReference
  2
*X3
 10
40.08695424944039
 20
285.3359870508898
 30
0.0
  0
LINE
  5
4B37
330
19
100
AcDbEntity
  8
1
100
AcDbLine
 10
-588.3580454951477
 20
666.9115303485876
 30
0.0
 11
-588.3580454951477
 21
672.7690516164984
 31
0.0
  0
LINE
  5
4B38
330
19
100
AcDbEntity
  8
1
100
AcDbLine
 10
-588.6480495296589
 20
667.0375998432405
 30
0.0
 11
-588.6480495296589
 21
672.5375998432404
 31
0.0
  0
LINE
  5
4B39
330
19
100
AcDbEntity
  8
1
100
AcDbLine
 10
-589.5342154875345
 20
666.5375998432405
 30
0.0
 11
-589.5342154875345
 21
672.5375998432404
 31
0.0
  0
ARC
  5
4B3A
330
19
100
AcDbEntity
  8
1
100
AcDbCircle
 10
-588.5342154875345
 20
666.5375998432405
 30
0.0
 40
1.0
100
AcDbArc
 50
180.0
 51
270.0
  0
ARC
  5
4B3B
330
19
100
AcDbEntity
  8
1
100
AcDbCircle
 10
-588.1480495296593
 20
667.0375998432405
 30
0.0
 40
0.5
100
AcDbArc
 50
180.0
 51
270.0
  0
LINE
  5
4B3C
330
19
100
AcDbEntity
  8
1
100
AcDbLine
 10
-589.4500973942156
 20
675.9617460357874
 30
0.0
 11
-589.4500973942156
 21
672.7690516164984
 31
0.0
  0
LINE
  5
4B3D
330
19
100
AcDbEntity
  8
1
100
AcDbLine
 10
-588.3580454951477
 20
672.7690516164984
 30
0.0
 11
-589.4500973942156
 21
672.7690516164984
 31
0.0
  0
LINE
  5
4B3E
330
19
100
AcDbEntity
  8
1
100
AcDbLine
 10
-588.6480495296589
 20
672.5375998432404
 30
0.0
 11
-589.5342154875345
 21
672.5375998432404
 31
0.0
  0
ARC
  5
4B3F
330
19
100
AcDbEntity
  8
1
100
AcDbCircle
 10
-588.1480495296593
 20
681.6875318283823
 30
0.0
 40
0.5
100
AcDbArc
 50
90.0
 51
180.0
  0
LINE
  5
4B40
330
19
100
AcDbEntity
  8
1
100
AcDbLine
 10
-588.6480495296589
 20
676.1875318283834
 30
0.0
 11
-589.5342154875345
 21
676.1875318283834
 31
0.0
  0
LINE
  5
4B41
330
19
100
AcDbEntity
  8
1
100
AcDbLine
 10
-588.3580454951477
 20
675.9617460357874
 30
0.0
 11
-589.4500973942156
 21
675.9617460357874
 31
0.0
  0
LINE
  5
4B42
330
19
100
AcDbEntity
  8
1
100
AcDbLine
 10
-588.6480495296589
 20
681.6875318283823
 30
0.0
 11
-588.6480495296589
 21
676.1875318283834
 31
0.0
  0
LINE
  5
4B43
330
19
100
AcDbEntity
  8
1
100
AcDbLine
 10
-589.5342154875345
 20
682.1875318283835
 30
0.0
 11
-589.5342154875345
 21
676.1875318283834
 31
0.0
  0
LINE
  5
4B44
330
19
100
AcDbEntity
  8
1
100
AcDbLine
 10
-588.3580454951477
 20
681.7822354928676
 30
0.0
 11
-588.3580454951477
 21
675.9617460357874
 31
0.0
  0
LWPOLYLINE
  5
4B45
330
19
100
AcDbEntity
  8
1
100
AcDbPolyline
 90
        5
 70
     0
 43
0.0
 10
-573.980888958146
 20
670.8326724075704
 10
-575.1782764061906
 20
669.1075589446804
 10
-575.1782764061906
 20
668.3109048046774
 10
-575.1782764061906
 20
667.7134141996755
 10
-574.9120854150235
 20
666.9115303485876
  0
LINE
  5
4B46
330
19
100
AcDbEntity
  8
1
100
AcDbLine
 10
-572.8073459811973
 20
666.5375998432405
 30
0.0
 11
-572.8073459811973
 21
665.5375998432405
 31
0.0
  0
LINE
  5
4B47
330
19
100
AcDbEntity
  8
1
100
AcDbLine
 10
-573.980888958146
 20
670.8326724075704
 30
0.0
 11
-572.4298600334025
 21
677.2617755317906
 31
0.0
  0
LINE
  5
4B48
330
19
100
AcDbEntity
  8
1
100
AcDbLine
 10
-574.8356293424456
 20
672.4064968318514
 30
0.0
 11
-573.5963927586602
 21
677.5432029663136
 31
0.0
  0
LWPOLYLINE
  5
4B49
330
19
100
AcDbEntity
  8
1
100
AcDbPolyline
 90
        7
 70
     0
 43
0.0
 10
-574.5933558359636
 20
681.7822354928676
 10
-574.1184531526084
 20
679.7296141447195
 10
-574.0262946088193
 20
677.8707544847125
 10
-574.6253251434516
 20
675.7463434447043
 10
-574.947880046717
 20
673.8874837846985
 10
-574.947880046717
 20
672.8916661096944
 10
-574.8356293424456
 20
672.4064968318514
  0
ARC
  5
4B4A
330
19
100
AcDbEntity
  8
1
100
AcDbCircle
 10
-573.0131263960313
 20
677.4024892490524
 30
0.0
 40
0.5999999999999909
100
AcDbArc
 50
346.436501194143
 51
166.4365011941462
  0
LINE
  5
4B4B
330
19
100
AcDbEntity
  8
1
100
AcDbLine
 10
-572.8073459811987
 20
683.1875318283823
 30
0.0
 11
-588.5342154875345
 21
683.1875318283823
 31
0.0
  0
LINE
  5
4B4C
330
19
100
AcDbEntity
  8
1
100
AcDbLine
 10
-590.8297406349536
 20
683.2141203416745
 30
0.0
 11
-589.8297406349522
 21
683.2141203416745
 31
0.0
  0
LINE
  5
4B4D
330
19
100
AcDbEntity
  8
1
100
AcDbLine
 10
-589.8297406349522
 20
683.2141203416745
 30
0.0
 11
-589.8297406349522
 21
589.8593042056384
 31
0.0
  0
LINE
  5
4B4E
330
19
100
AcDbEntity
  8
1
100
AcDbLine
 10
-590.8297406349536
 20
683.2141203416745
 30
0.0
 11
-590.8297406349536
 21
589.2141203416754
 31
0.0
  0
LINE
  5
4B4F
330
19
100
AcDbEntity
  8
1
100
AcDbLine
 10
-543.6048555385321
 20
568.9480466620177
 30
0.0
 11
-488.0546257313711
 21
568.9480466620177
 31
0.0
  0
LINE
  5
4B50
330
19
100
AcDbEntity
  8
1
100
AcDbLine
 10
-590.8297406349536
 20
589.2141203416754
 30
0.0
 11
-542.7152619746578
 21
567.4480466620178
 31
0.0
  0
LINE
  5
4B51
330
19
100
AcDbEntity
  8
1
100
AcDbLine
 10
-589.8297406349522
 20
589.8593042056384
 30
0.0
 11
-543.6048555385321
 21
568.9480466620176
 31
0.0
  0
LEADER
  5
4B52
330
19
100
AcDbEntity
  8
1
100
AcDbLeader
  3
STANDARD
 73
     0
 74
     0
 75
     1
 40
18.88157894736841
 41
71.57602339181288
 76
     3
 10
-499.2544621556621
 20
608.9281709524812
 30
0.0
 10
-467.8013992300503
 20
566.0840094622686
 30
0.0
 10
-462.0513992300503
 20
566.0840094622686
 30
0.0
340
4B58
213
0.0
223
-2.875
233
0.0
1001
ACAD
1000
DSTYLE
1002
{
1070
   147
1040
0.09
1070
     4
1000
mm
1070
    40
1040
25.0
1070
    41
1040
0.23
1070
    42
1040
0.07
1070
    77
1070
     0
1070
   140
1040
0.23
1070
   141
1040
0.0
1070
   171
1070
     0
1070
   271
1070
     0
1070
   272
1070
     0
1070
   274
1070
     0
1002
}
  0
LINE
  5
4B53
330
19
100
AcDbEntity
  8
1
100
AcDbLine
 10
-440.8297406349536
 20
590.3116851580194
 30
0.0
 11
-488.054625731371
 21
568.9480466620177
 31
0.0
  0
LINE
  5
4B54
330
19
100
AcDbEntity
  8
1
100
AcDbLine
 10
-440.8297406349536
 20
589.2141203416754
 30
0.0
 11
-488.944219295246
 21
567.4480466620178
 31
0.0
  0
LINE
  5
4B55
330
19
100
AcDbEntity
  8
1
100
AcDbLine
 10
-542.7152619746575
 20
567.4480466620178
 30
0.0
 11
-488.9442192952465
 21
567.4480466620178
 31
0.0
  0
LINE
  5
4B56
330
19
100
AcDbEntity
  8
1
100
AcDbLine
 10
-440.8297406349536
 20
683.2141203416745
 30
0.0
 11
-440.8297406349536
 21
589.2141203416754
 31
0.0
  0
LINE
  5
4B57
330
19
100
AcDbEntity
  8
1
100
AcDbLine
 10
-441.8297406349536
 20
683.2141203416745
 30
0.0
 11
-441.8297406349536
 21
589.8593042056384
 31
0.0
  0
MTEXT
  5
4B58
102
{ACAD_REACTORS
330
4B52
102
}
330
19
100
AcDbEntity
  8
1
100
AcDbMText
 10
-459.8013992300503
 20
568.9590094622686
 30
0.0
 40
7.0
 41
0.0
 71
     1
 72
     1
  1
REMOVABLE \PFOUL AIR TRAP
 73
     1
 44
1.0
  0
LINE
  5
4B59
330
19
100
AcDbEntity
  8
1
100
AcDbLine
 10
-440.8297406349546
 20
651.1643150618667
 30
0.0
 11
-404.3419662751335
 21
651.1643150618667
 31
0.0
  0
LINE
  5
4B5A
330
19
100
AcDbEntity
  8
1
100
AcDbLine
 10
-440.8297406349546
 20
654.1643150618668
 30
0.0
 11
-404.3419662751335
 21
654.1643150618668
 31
0.0
  0
LINE
  5
4B5B
330
19
100
AcDbEntity
  8
1
100
AcDbLine
 10
-404.3419662751335
 20
600.1643150618669
 30
0.0
 11
-440.8297406349546
 21
600.1643150618669
 31
0.0
  0
LINE
  5
4B5C
330
19
100
AcDbEntity
  8
1
100
AcDbLine
 10
-404.3419662751335
 20
603.1643150618669
 30
0.0
 11
-440.8297406349546
 21
603.1643150618669
 31
0.0
  0
DIMENSION
  5
4B5D
330
19
100
AcDbEntity
  8
1
100
AcDbDimension
  2
*D17
 10
-380.8102724862216
 20
654.1643150618668
 30
0.0
 11
-380.8102724862217
 21
627.9033165001971
 31
0.0
 70
   160
  1
1.5" BSP
 71
     5
 42
53.99999999999988
  3
STANDARD
100
AcDbAlignedDimension
 13
-404.3419662751335
 23
600.1643150618669
 33
0.0
 14
-404.3419662751335
 24
654.1643150618668
 34
0.0
 50
90.0
100
AcDbRotatedDimension
1001
ACAD
1000
DSTYLE
1002
{
1070
     4
1000
mm
1070
    40
1040
30.0
1070
    41
1040
0.23
1070
    42
1040
0.12
1070
    77
1070
     1
1070
   140
1040
0.23
1070
   141
1040
0.0
1070
   171
1070
     0
1070
   271
1070
     0
1070
   272
1070
     0
1070
   274
1070
     0
1002
}
  0
LINE
  5
4B5E
330
19
100
AcDbEntity
  8
1
100
AcDbLine
 10
-404.3419662751335
 20
654.1643150618668
 30
0.0
 11
-404.3419662751335
 21
600.1643150618669
 31
0.0
  0
ARC
  5
4B5F
330
19
100
AcDbEntity
  8
1
100
AcDbCircle
 10
-443.1252657823722
 20
682.1875318283835
 30
0.0
 40
1.0
100
AcDbArc
 50
0.0
 51
90.0
  0
LINE
  5
4B60
330
19
100
AcDbEntity
  8
1
100
AcDbLine
 10
-458.8521352887084
 20
682.1875318283835
 30
0.0
 11
-443.5114317402483
 21
682.1875318283835
 31
0.0
  0
LINE
  5
4B61
330
19
100
AcDbEntity
  8
1
100
AcDbLine
 10
-443.3014357747595
 20
681.7822354928676
 30
0.0
 11
-457.0661254339413
 21
681.7822354928676
 31
0.0
  0
LINE
  5
4B62
330
19
100
AcDbEntity
  8
1
100
AcDbLine
 10
-458.8521352887084
 20
666.5375998432405
 30
0.0
 11
-443.5114317402483
 21
666.5375998432405
 31
0.0
  0
LINE
  5
4B63
330
19
100
AcDbEntity
  8
1
100
AcDbLine
 10
-458.8521352887084
 20
665.5375998432405
 30
0.0
 11
-443.1252657823722
 21
665.5375998432405
 31
0.0
  0
LINE
  5
4B64
330
19
100
AcDbEntity
  8
1
100
AcDbLine
 10
-443.3014357747595
 20
666.9115303485876
 30
0.0
 11
-456.7473958548832
 21
666.9115303485876
 31
0.0
  0
INSERT
  5
4B65
330
19
100
AcDbEntity
  8
1
100
AcDbBlockReference
  2
*X3
 10
-1071.746435519348
 20
285.3359870508898
 30
0.0
 41
-1.0
  0
LINE
  5
4B66
330
19
100
AcDbEntity
  8
1
100
AcDbLine
 10
-443.0114317402483
 20
667.0375998432405
 30
0.0
 11
-443.0114317402483
 21
672.5375998432404
 31
0.0
  0
LINE
  5
4B67
330
19
100
AcDbEntity
  8
1
100
AcDbLine
 10
-442.1252657823718
 20
666.5375998432405
 30
0.0
 11
-442.1252657823718
 21
672.5375998432404
 31
0.0
  0
LINE
  5
4B68
330
19
100
AcDbEntity
  8
1
100
AcDbLine
 10
-443.3014357747595
 20
666.9115303485876
 30
0.0
 11
-443.3014357747595
 21
672.7690516164984
 31
0.0
  0
ARC
  5
4B69
330
19
100
AcDbEntity
  8
1
100
AcDbCircle
 10
-443.1252657823722
 20
666.5375998432405
 30
0.0
 40
1.0
100
AcDbArc
 50
270.0
 51
0.0
  0
ARC
  5
4B6A
330
19
100
AcDbEntity
  8
1
100
AcDbCircle
 10
-443.5114317402483
 20
667.0375998432405
 30
0.0
 40
0.5
100
AcDbArc
 50
270.0
 51
0.0
  0
LINE
  5
4B6B
330
19
100
AcDbEntity
  8
1
100
AcDbLine
 10
-442.2093838756902
 20
675.9617460357874
 30
0.0
 11
-442.2093838756902
 21
672.7690516164984
 31
0.0
  0
LINE
  5
4B6C
330
19
100
AcDbEntity
  8
1
100
AcDbLine
 10
-443.0114317402483
 20
672.5375998432404
 30
0.0
 11
-442.1252657823718
 21
672.5375998432404
 31
0.0
  0
LINE
  5
4B6D
330
19
100
AcDbEntity
  8
1
100
AcDbLine
 10
-443.3014357747595
 20
672.7690516164984
 30
0.0
 11
-442.2093838756902
 21
672.7690516164984
 31
0.0
  0
ARC
  5
4B6E
330
19
100
AcDbEntity
  8
1
100
AcDbCircle
 10
-443.5114317402483
 20
681.6875318283823
 30
0.0
 40
0.5
100
AcDbArc
 50
0.0
 51
90.0
  0
LINE
  5
4B6F
330
19
100
AcDbEntity
  8
1
100
AcDbLine
 10
-443.0114317402483
 20
676.1875318283834
 30
0.0
 11
-442.1252657823718
 21
676.1875318283834
 31
0.0
  0
LINE
  5
4B70
330
19
100
AcDbEntity
  8
1
100
AcDbLine
 10
-443.3014357747595
 20
675.9617460357874
 30
0.0
 11
-442.2093838756902
 21
675.9617460357874
 31
0.0
  0
LINE
  5
4B71
330
19
100
AcDbEntity
  8
1
100
AcDbLine
 10
-442.1252657823718
 20
682.1875318283835
 30
0.0
 11
-442.1252657823718
 21
676.1875318283834
 31
0.0
  0
LINE
  5
4B72
330
19
100
AcDbEntity
  8
1
100
AcDbLine
 10
-443.0114317402483
 20
681.6875318283823
 30
0.0
 11
-443.0114317402483
 21
676.1875318283834
 31
0.0
  0
LINE
  5
4B73
330
19
100
AcDbEntity
  8
1
100
AcDbLine
 10
-443.3014357747595
 20
681.7822354928676
 30
0.0
 11
-443.3014357747595
 21
675.9617460357874
 31
0.0
  0
LINE
  5
4B74
330
19
100
AcDbEntity
  8
1
100
AcDbLine
 10
-458.8521352887084
 20
683.1875318283823
 30
0.0
 11
-443.1252657823722
 21
683.1875318283823
 31
0.0
  0
LINE
  5
4B75
330
19
100
AcDbEntity
  8
1
100
AcDbLine
 10
-440.8297406349536
 20
683.2141203416745
 30
0.0
 11
-441.8297406349536
 21
683.2141203416745
 31
0.0
  0
LINE
  5
4B76
330
19
100
AcDbEntity
  8
1
100
AcDbLine
 10
-458.8521352887084
 20
683.1875318283823
 30
0.0
 11
-458.8521352887084
 21
682.1875318283835
 31
0.0
  0
LWPOLYLINE
  5
4B77
330
19
100
AcDbEntity
  8
1
100
AcDbPolyline
 90
        5
 70
     0
 43
0.0
 10
-457.6785923117602
 20
670.8326724075704
 10
-456.4812048637161
 20
669.1075589446804
 10
-456.4812048637161
 20
668.3109048046774
 10
-456.4812048637161
 20
667.7134141996755
 10
-456.7473958548832
 20
666.9115303485876
  0
LINE
  5
4B78
330
19
100
AcDbEntity
  8
1
100
AcDbLine
 10
-458.8521352887084
 20
666.5375998432405
 30
0.0
 11
-458.8521352887084
 21
665.5375998432405
 31
0.0
  0
LINE
  5
4B79
330
19
100
AcDbEntity
  8
1
100
AcDbLine
 10
-457.6785923117602
 20
670.8326724075704
 30
0.0
 11
-459.2296212365043
 21
677.2617755317906
 31
0.0
  0
LINE
  5
4B7A
330
19
100
AcDbEntity
  8
1
100
AcDbLine
 10
-456.8238519274602
 20
672.4064968318514
 30
0.0
 11
-458.0630885112457
 21
677.5432029663136
 31
0.0
  0
LWPOLYLINE
  5
4B7B
330
19
100
AcDbEntity
  8
1
100
AcDbPolyline
 90
        7
 70
     0
 43
0.0
 10
-457.0661254339413
 20
681.7822354928676
 10
-457.5410281172974
 20
679.7296141447195
 10
-457.6331866610874
 20
677.8707544847125
 10
-457.0341561264542
 20
675.7463434447043
 10
-456.7116012231902
 20
673.8874837846985
 10
-456.7116012231902
 20
672.8916661096944
 10
-456.8238519274602
 20
672.4064968318514
  0
ARC
  5
4B7C
330
19
100
AcDbEntity
  8
1
100
AcDbCircle
 10
-458.6463548738745
 20
677.4024892490524
 30
0.0
 40
0.5999999999999909
100
AcDbArc
 50
13.56349880585371
 51
193.5634988058568
  0
MTEXT
  5
4BA7
330
19
100
AcDbEntity
  8
1
100
AcDbMText
 10
-530.491405902321
 20
540.1582801038631
 30
0.0
 40
9.0
 41
277.87
 71
     1
 72
     5
  1
{\fTechnicLite|b0|i0|c2|p2;KH170}
  7
ROMANC
 73
     1
 44
1.0
  0
VIEWPORT
  5
4A57
330
4A4F
100
AcDbEntity
 67
     1
  8
0
100
AcDbViewport
 10
5.678333072211798
 20
3.966666563289372
 30
0.0
 40
18.02443831169918
 41
8.746133096049151
 68
     1
 69
     1
 12
5.678333072211798
 22
3.966666563289372
 13
0.0
 23
0.0
 14
10.0
 24
10.0
 15
10.0
 25
10.0
 16
0.0
 26
0.0
 36
1.0
 17
0.0
 27
0.0
 37
0.0
 42
50.0
 43
0.0
 44
0.0
 45
8.746133096049151
 50
0.0
 51
0.0
 72
 20000
 90
    32800
  1

281
     0
 71
     1
 74
     0
110
0.0
120
0.0
130
0.0
111
1.0
121
0.0
131
0.0
112
0.0
122
1.0
132
0.0
 79
     0
146
0.0
  0
ENDSEC
  0
SECTION
  2
OBJECTS
  0
DICTIONARY
  5
C
330
0
100
AcDbDictionary
281
     1
  3
ACAD_GROUP
350
D
  3
ACAD_LAYOUT
350
37B7
  3
ACAD_MLINESTYLE
350
E
  3
ACAD_PLOTSETTINGS
350
37B8
  3
ACAD_PLOTSTYLENAME
350
37B5
  3
ACDBVARIABLEDICTIONARY
350
C69
  0
DICTIONARY
  5
391B
330
19
100
AcDbDictionary
280
     1
281
     1
  3
ACAD_LAYOUTSELFREF
360
3E35
  0
DICTIONARY
  5
D
102
{ACAD_REACTORS
330
C
102
}
330
C
100
AcDbDictionary
281
     1
  0
DICTIONARY
  5
37B7
102
{ACAD_REACTORS
330
C
102
}
330
C
100
AcDbDictionary
281
     1
  3
Layout1
350
4A50
  3
Model
350
37B9
  0
DICTIONARY
  5
E
102
{ACAD_REACTORS
330
C
102
}
330
C
100
AcDbDictionary
281
     1
  3
STANDARD
350
12
  0
DICTIONARY
  5
37B8
102
{ACAD_REACTORS
330
C
102
}
330
C
100
AcDbDictionary
281
     1
  0
ACDBDICTIONARYWDFLT
  5
37B5
102
{ACAD_REACTORS
330
C
102
}
330
C
100
AcDbDictionary
281
     1
  3
Normal
350
37B6
100
AcDbDictionaryWithDefault
340
37B6
  0
DICTIONARY
  5
C69
102
{ACAD_REACTORS
330
C
102
}
330
C
100
AcDbDictionary
281
     1
  3
DIMASSOC
350
3E51
  3
SORTENTS
350
C6A
  0
XRECORD
  5
3E35
102
{ACAD_REACTORS
330
391B
102
}
330
391B
100
AcDbXrecord
280
     1
340
19
  0
LAYOUT
  5
4A50
102
{ACAD_REACTORS
330
37B7
102
}
330
37B7
100
AcDbPlotSettings
  1

  2
HP LaserJet 1200
  4
A4
  6

 40
4.233333110809326
 41
4.233341693878172
 42
7.789321899414062
 43
4.23333740234375
 44
209.9733276367186
 45
296.9259948730469
 46
0.0
 47
0.0
 48
0.0
 49
0.0
140
0.0
141
0.0
142
1.0
143
1.0
 70
   688
 72
     0
 73
     1
 74
     5
  7

 75
    16
147
1.0
148
0.0
149
0.0
100
AcDbLayout
  1
Layout1
 70
     1
 71
     1
 10
-0.1666668268639272
 20
-0.166666657905879
 11
11.52333297128752
 21
8.099999784484621
 12
0.0
 22
0.0
 32
0.0
 14
1.135666597546552
 24
0.7793333567972259
 34
0.0
 15
10.22099937791898
 25
7.014000211175031
 35
0.0
146
0.0
 13
0.0
 23
0.0
 33
0.0
 16
1.0
 26
0.0
 36
0.0
 17
0.0
 27
1.0
 37
0.0
 76
     0
330
4A4F
331
4A57
  0
LAYOUT
  5
37B9
102
{ACAD_REACTORS
330
37B7
102
}
330
37B7
100
AcDbPlotSettings
  1

  2
none_device
  4
Letter_(8.50_x_11.00_Inches)
  6

 40
6.349999904632567
 41
6.349999904632567
 42
6.350006103515625
 43
6.350006103515625
 44
215.8999938964841
 45
279.3999938964843
 46
0.0
 47
0.0
 48
0.0
 49
0.0
140
0.0
141
0.0
142
1.0
143
1.0
 70
 11952
 72
     0
 73
     1
 74
     0
  7

 75
     0
147
1.0
148
22009.97398741658
149
-18121.5236927284
100
AcDbLayout
  1
Model
 70
     1
 71
     0
 10
0.0
 20
0.0
 11
12.0
 21
9.0
 12
0.0
 22
0.0
 32
0.0
 14
0.0
 24
0.0
 34
0.0
 15
0.0
 25
0.0
 35
0.0
146
0.0
 13
0.0
 23
0.0
 33
0.0
 16
1.0
 26
0.0
 36
0.0
 17
0.0
 27
1.0
 37
0.0
 76
     0
330
19
  0
MLINESTYLE
  5
12
102
{ACAD_REACTORS
330
E
102
}
330
E
100
AcDbMlineStyle
  2
STANDARD
 70
     0
  3

 62
     0
 51
90.0
 52
90.0
 71
     2
 49
0.5
 62
   256
  6
BYLAYER
 49
-0.5
 62
   256
  6
BYLAYER
  0
ACDBPLACEHOLDER
  5
37B6
102
{ACAD_REACTORS
330
37B5
102
}
330
37B5
  0
DICTIONARYVAR
  5
3E51
102
{ACAD_REACTORS
330
C69
102
}
330
C69
100
DictionaryVariables
280
     0
  1
1
  0
DICTIONARYVAR
  5
C6A
102
{ACAD_REACTORS
330
C69
102
}
330
C69
100
DictionaryVariables
280
     0
  1
96
  0
ENDSEC
  0
EOF
